osu file format v14

[General]
AudioFilename: audio.mp3
AudioLeadIn: 0
PreviewTime: 105542
Countdown: 0
SampleSet: Normal
StackLeniency: 0.7
Mode: 1
LetterboxInBreaks: 0
WidescreenStoryboard: 1

[Editor]
DistanceSpacing: 0.8
BeatDivisor: 3
GridSize: 32
TimelineZoom: 4.999998

[Metadata]
Title:Ludicrous Speed
TitleUnicode:Ludicrous Speed
Artist:F-777
ArtistUnicode:F-777
Creator:-[ ix Ishida xi ]-
Version:Lethal Tempo
Source:
Tags:-Kazu-
BeatmapID:2090324
BeatmapSetID:765139

[Difficulty]
HPDrainRate:2
CircleSize:5
OverallDifficulty:7
ApproachRate:5
SliderMultiplier:1.1
SliderTickRate:1

[Events]
//Background and Video events
0,0,"Konachan.com - 262074 animal bird blonde_hair boots corset dress goth-loli green_eyes headdress lolita_fashion long_hair original pantyhose ra-bit wings.jpg",0,0
//Break Periods
2,200,4221
2,105742,110125
2,117308,121691
//Storyboard Layer 0 (Background)
//Storyboard Layer 1 (Fail)
//Storyboard Layer 2 (Pass)
//Storyboard Layer 3 (Foreground)
//Storyboard Sound Samples

[TimingPoints]
0,180.722891566265,4,1,0,70,1,0
0,-25,4,1,0,70,0,0
722,-100,4,1,0,70,0,0
5421,-90.9090909090909,4,1,0,70,0,0
5963,-111.111111111111,4,1,0,70,0,0
11204,-90.9090909090909,4,1,0,70,0,0
11265,-92.2930674062418,4,1,0,70,0,0
11325,-93.7198339284543,4,1,0,70,0,0
11385,-95.1914061198555,4,1,0,70,0,0
11445,-96.7098347132215,4,1,0,70,0,0
11506,-98.2775870100617,4,1,0,70,0,0
11566,-100,4,1,0,70,0,0
16987,-100,4,1,0,70,0,0
17048,-98.377266981146,4,1,0,70,0,0
17108,-96.8063582416093,4,1,0,70,0,0
17168,-95.2848301786114,4,1,0,70,0,0
17228,-93.9012984671552,4,1,0,70,0,0
17289,-92.3809717369655,4,1,0,70,0,0
17349,-90.9090909090909,4,1,0,70,0,0
22831,-90.9090909090909,4,1,0,70,0,0
22891,-92.5925925925926,4,1,0,70,0,0
22951,-94.3396226415094,4,1,0,70,0,0
23011,-96.1538461538461,4,1,0,70,0,0
23072,-98.0392156862745,4,1,0,70,0,0
23132,-100,4,1,0,70,0,0
23132,-100,4,1,0,70,0,0
28554,-100,4,1,0,70,0,0
28614,-98.3606234883202,4,1,0,70,0,0
28674,-96.774224765879,4,1,0,70,0,0
28734,-95.2380952380952,4,1,0,70,0,0
28795,-93.7499707031342,4,1,0,70,0,0
28855,-92.3077207100679,4,1,0,70,0,0
28915,-90.9090909090909,4,1,0,70,0,0
34879,-100,4,1,0,70,0,0
44819,-90.9090909090909,4,1,0,70,0,0
46445,-100,4,1,0,70,0,0
69397,-90.9090909090909,4,1,0,70,0,1
82048,-90.9090909090909,4,1,0,70,0,1
82108,-92.3077207100679,4,1,0,70,0,1
82168,-93.7499707031342,4,1,0,70,0,1
82228,-95.2380952380952,4,1,0,70,0,1
82289,-96.774224765879,4,1,0,70,0,1
82349,-98.3606234883202,4,1,0,70,0,1
82409,-100,4,1,0,70,0,0
87891,-100,4,1,0,70,0,0
87951,-98.0392156862745,4,1,0,70,0,0
88011,-96.1538461538461,4,1,0,70,0,0
88071,-94.3396226415094,4,1,0,70,0,0
88132,-92.5925925925926,4,1,0,70,0,0
88192,-90.9090909090909,4,1,0,70,0,0
93674,-90.9090909090909,4,1,0,70,0,0
93734,-92.5925925925926,4,1,0,70,0,0
93794,-94.3396226415094,4,1,0,70,0,0
93854,-96.1538461538461,4,1,0,70,0,0
93915,-98.0392156862745,4,1,0,70,0,0
93975,-100,4,1,0,70,0,0
99397,-100,4,1,0,70,0,0
99457,-98.377266981146,4,1,0,70,0,0
99518,-96.8063582416093,4,1,0,70,0,0
99578,-95.2848301786114,4,1,0,70,0,0
99638,-93.8104784428211,4,1,0,70,0,0
99698,-92.3809717369655,4,1,0,70,0,0
99759,-90.9090909090909,4,1,0,70,0,0
106265,-133.333333333333,4,1,0,70,0,0
115662,-90.9090909090909,4,1,0,70,0,0
117831,-133.333333333333,4,1,0,70,0,0
131566,-100,4,1,0,70,0,0
133012,-90.9090909090909,4,1,0,70,0,0
134457,-90.9090909090909,4,1,0,70,0,1
146024,-80,4,1,0,70,0,0
146566,-100,4,1,0,70,0,0
152951,-100,4,1,0,70,0,0
153011,-98.0392156862745,4,1,0,70,0,0
153071,-96.1538461538461,4,1,0,70,0,0
153131,-94.3396226415094,4,1,0,70,0,0
153192,-92.5925925925926,4,1,0,70,0,0
153252,-90.9090909090909,4,1,0,70,0,0
153253,-90.9090909090909,4,1,0,70,0,0
158734,-90.9090909090909,4,1,0,70,0,0
158794,-92.5925925925926,4,1,0,70,0,0
158854,-94.3396226415094,4,1,0,70,0,0
158914,-96.1538461538461,4,1,0,70,0,0
158975,-97.9192166462668,4,1,0,70,0,0
159035,-100,4,1,0,70,0,0
159036,-100,4,1,0,70,0,0
164457,-100,4,1,0,70,0,0
164517,-98.377266981146,4,1,0,70,0,0
164578,-96.8063582416093,4,1,0,70,0,0
164638,-95.2848301786114,4,1,0,70,0,0
164698,-93.8104784428211,4,1,0,70,0,0
164758,-92.3809717369655,4,1,0,70,0,0
164819,-90.9943774574169,4,1,0,70,0,0

[HitObjects]
256,193,0,5,4,0:0:0:0:
256,192,5421,5,8,0:0:0:0:
256,192,5481,1,8,0:0:0:0:
256,192,5542,1,8,0:0:0:0:
256,192,5602,1,8,0:0:0:0:
256,192,5662,1,8,0:0:0:0:
256,192,5722,1,8,0:0:0:0:
256,192,5783,1,0,0:0:0:0:
256,192,5963,1,0,0:0:0:0:
256,192,6325,1,0,0:0:0:0:
256,192,6686,1,0,0:0:0:0:
256,192,7048,1,0,0:0:0:0:
256,192,7409,1,0,0:0:0:0:
256,192,7771,1,0,0:0:0:0:
256,192,8132,1,0,0:0:0:0:
256,192,8313,1,0,0:0:0:0:
256,192,8493,1,8,0:0:0:0:
256,192,8674,1,0,0:0:0:0:
256,192,8855,1,8,0:0:0:0:
256,192,9216,1,8,0:0:0:0:
256,192,9578,1,8,0:0:0:0:
256,192,9939,1,8,0:0:0:0:
256,192,10120,1,0,0:0:0:0:
256,192,10301,1,8,0:0:0:0:
256,192,10662,1,8,0:0:0:0:
256,192,10753,1,0,0:0:0:0:
256,192,10843,1,0,0:0:0:0:
256,192,11024,1,0,0:0:0:0:
256,192,11204,1,8,0:0:0:0:
256,192,11265,1,8,0:0:0:0:
256,192,11325,1,8,0:0:0:0:
256,192,11385,1,8,0:0:0:0:
256,192,11445,1,8,0:0:0:0:
256,192,11506,1,8,0:0:0:0:
256,192,11566,1,0,0:0:0:0:
256,192,11656,1,0,0:0:0:0:
256,192,11746,1,8,0:0:0:0:
256,192,11837,1,8,0:0:0:0:
256,192,11927,1,0,0:0:0:0:
256,192,12018,1,8,0:0:0:0:
256,192,12108,1,0,0:0:0:0:
256,192,12198,1,8,0:0:0:0:
256,192,12289,1,8,0:0:0:0:
256,192,12379,1,0,0:0:0:0:
256,192,12469,1,8,0:0:0:0:
256,192,12560,1,8,0:0:0:0:
256,192,12650,1,8,0:0:0:0:
256,192,12740,1,0,0:0:0:0:
256,192,12831,1,8,0:0:0:0:
256,192,12921,1,0,0:0:0:0:
256,192,13012,1,8,0:0:0:0:
256,192,13102,1,0,0:0:0:0:
256,192,13192,1,0,0:0:0:0:
256,192,13283,1,0,0:0:0:0:
256,192,13373,1,8,0:0:0:0:
256,192,13463,1,8,0:0:0:0:
256,192,13554,1,0,0:0:0:0:
256,192,13644,1,0,0:0:0:0:
256,192,13734,1,0,0:0:0:0:
256,192,13825,1,8,0:0:0:0:
256,192,13915,1,0,0:0:0:0:
256,192,14006,1,8,0:0:0:0:
256,192,14096,1,8,0:0:0:0:
256,192,14186,1,0,0:0:0:0:
256,192,14277,1,8,0:0:0:0:
256,192,14367,1,0,0:0:0:0:
256,192,14457,1,8,0:0:0:0:
256,192,14548,1,8,0:0:0:0:
256,192,14638,1,0,0:0:0:0:
256,192,14728,1,0,0:0:0:0:
256,192,14819,1,8,0:0:0:0:
256,192,14909,1,0,0:0:0:0:
256,192,14999,1,8,0:0:0:0:
256,192,15090,1,8,0:0:0:0:
256,192,15180,1,8,0:0:0:0:
256,192,15271,1,0,0:0:0:0:
256,192,15361,1,8,0:0:0:0:
256,192,15451,1,0,0:0:0:0:
256,192,15542,1,8,0:0:0:0:
256,192,15632,1,0,0:0:0:0:
256,192,15722,1,8,0:0:0:0:
256,192,15813,1,8,0:0:0:0:
256,192,15903,1,0,0:0:0:0:
256,192,15993,1,0,0:0:0:0:
256,192,16084,1,0,0:0:0:0:
256,192,16174,1,8,0:0:0:0:
256,192,16265,1,0,0:0:0:0:
256,192,16355,1,0,0:0:0:0:
256,192,16445,1,0,0:0:0:0:
256,192,16536,1,8,0:0:0:0:
256,192,16626,1,0,0:0:0:0:
256,192,16716,1,8,0:0:0:0:
256,192,16807,1,0,0:0:0:0:
256,192,16897,1,0,0:0:0:0:
256,192,16987,1,8,0:0:0:0:
256,192,17048,1,8,0:0:0:0:
256,192,17108,1,8,0:0:0:0:
256,192,17168,1,8,0:0:0:0:
256,192,17228,1,8,0:0:0:0:
256,192,17289,1,8,0:0:0:0:
256,192,17349,1,0,0:0:0:0:
256,192,17439,1,0,0:0:0:0:
256,192,17484,1,0,0:0:0:0:
256,192,17530,1,8,0:0:0:0:
256,192,17620,1,8,0:0:0:0:
256,192,17710,1,0,0:0:0:0:
256,192,17801,1,8,0:0:0:0:
256,192,17891,1,0,0:0:0:0:
256,192,17981,1,8,0:0:0:0:
256,192,18072,1,8,0:0:0:0:
256,192,18162,1,0,0:0:0:0:
256,192,18253,1,8,0:0:0:0:
256,192,18298,1,8,0:0:0:0:
256,192,18343,1,0,0:0:0:0:
256,192,18433,1,8,0:0:0:0:
256,192,18524,1,0,0:0:0:0:
256,192,18614,1,8,0:0:0:0:
256,192,18704,1,0,0:0:0:0:
256,192,18795,1,8,0:0:0:0:
256,192,18885,1,0,0:0:0:0:
256,192,18930,1,0,0:0:0:0:
256,192,18975,1,0,0:0:0:0:
256,192,19066,1,0,0:0:0:0:
256,192,19156,1,8,0:0:0:0:
256,192,19246,1,8,0:0:0:0:
256,192,19337,1,0,0:0:0:0:
256,192,19382,1,0,0:0:0:0:
256,192,19427,1,0,0:0:0:0:
256,192,19518,1,0,0:0:0:0:
256,192,19608,1,8,0:0:0:0:
256,192,19698,1,0,0:0:0:0:
256,192,19789,1,8,0:0:0:0:
256,192,19879,1,8,0:0:0:0:
256,192,19969,1,0,0:0:0:0:
256,192,20060,1,8,0:0:0:0:
256,192,20150,1,0,0:0:0:0:
256,192,20240,1,8,0:0:0:0:
256,192,20286,1,8,0:0:0:0:
256,192,20331,1,0,0:0:0:0:
256,192,20421,1,0,0:0:0:0:
256,192,20512,1,0,0:0:0:0:
256,192,20602,1,8,0:0:0:0:
256,192,20692,1,0,0:0:0:0:
256,192,20737,1,0,0:0:0:0:
256,192,20783,1,8,0:0:0:0:
256,192,20873,1,8,0:0:0:0:
256,192,20963,1,8,0:0:0:0:
256,192,21054,1,0,0:0:0:0:
256,192,21144,1,8,0:0:0:0:
256,192,21234,1,0,0:0:0:0:
256,192,21325,1,8,0:0:0:0:
256,192,21415,1,0,0:0:0:0:
256,192,21506,1,8,0:0:0:0:
256,192,21551,1,8,0:0:0:0:
256,192,21596,1,0,0:0:0:0:
256,192,21686,1,0,0:0:0:0:
256,192,21777,1,0,0:0:0:0:
256,192,21867,1,0,0:0:0:0:
256,192,21957,1,8,0:0:0:0:
256,192,22048,1,0,0:0:0:0:
256,192,22138,1,0,0:0:0:0:
256,192,22228,1,0,0:0:0:0:
256,192,22319,1,8,0:0:0:0:
256,192,22409,1,8,0:0:0:0:
256,192,22454,1,8,0:0:0:0:
256,192,22499,1,0,0:0:0:0:
256,192,22590,1,0,0:0:0:0:
256,192,22680,1,0,0:0:0:0:
256,192,22771,1,8,0:0:0:0:
256,192,22831,1,8,0:0:0:0:
256,192,22891,1,8,0:0:0:0:
256,192,22951,1,8,0:0:0:0:
256,192,23012,1,8,0:0:0:0:
256,192,23072,1,8,0:0:0:0:
256,192,23132,1,0,0:0:0:0:
256,192,23222,1,0,0:0:0:0:
256,192,23313,1,8,0:0:0:0:
256,192,23403,1,8,0:0:0:0:
256,192,23493,1,0,0:0:0:0:
256,192,23584,1,8,0:0:0:0:
256,192,23674,1,0,0:0:0:0:
256,192,23765,1,8,0:0:0:0:
256,192,23855,1,8,0:0:0:0:
256,192,23945,1,0,0:0:0:0:
256,192,24036,1,8,0:0:0:0:
256,192,24126,1,8,0:0:0:0:
256,192,24216,1,8,0:0:0:0:
256,192,24307,1,0,0:0:0:0:
256,192,24397,1,8,0:0:0:0:
256,192,24487,1,0,0:0:0:0:
256,192,24578,1,8,0:0:0:0:
256,192,24668,1,0,0:0:0:0:
256,192,24759,1,0,0:0:0:0:
256,192,24849,1,0,0:0:0:0:
256,192,24939,1,8,0:0:0:0:
256,192,25030,1,8,0:0:0:0:
256,192,25120,1,0,0:0:0:0:
256,192,25210,1,0,0:0:0:0:
256,192,25301,1,0,0:0:0:0:
256,192,25391,1,8,0:0:0:0:
256,192,25481,1,0,0:0:0:0:
256,192,25572,1,8,0:0:0:0:
256,192,25662,1,8,0:0:0:0:
256,192,25753,1,0,0:0:0:0:
256,192,25843,1,8,0:0:0:0:
256,192,25933,1,0,0:0:0:0:
256,192,26024,1,8,0:0:0:0:
256,192,26114,1,8,0:0:0:0:
256,192,26204,1,0,0:0:0:0:
256,192,26295,1,0,0:0:0:0:
256,192,26385,1,8,0:0:0:0:
256,192,26475,1,0,0:0:0:0:
256,192,26566,1,8,0:0:0:0:
256,192,26656,1,8,0:0:0:0:
256,192,26746,1,8,0:0:0:0:
256,192,26837,1,0,0:0:0:0:
256,192,26927,1,8,0:0:0:0:
256,192,27018,1,0,0:0:0:0:
256,192,27108,1,8,0:0:0:0:
256,192,27198,1,0,0:0:0:0:
256,192,27289,1,8,0:0:0:0:
256,192,27379,1,8,0:0:0:0:
256,192,27469,1,0,0:0:0:0:
256,192,27650,1,0,0:0:0:0:
256,192,27831,1,8,0:0:0:0:
256,192,28012,1,0,0:0:0:0:
256,192,28102,1,8,0:0:0:0:
256,192,28192,1,0,0:0:0:0:
256,192,28237,1,8,0:0:0:0:
256,192,28283,1,0,0:0:0:0:
256,192,28328,1,8,0:0:0:0:
256,192,28373,1,0,0:0:0:0:
256,192,28463,1,0,0:0:0:0:
256,192,28554,1,8,0:0:0:0:
256,192,28614,1,8,0:0:0:0:
256,192,28674,1,8,0:0:0:0:
256,192,28734,1,8,0:0:0:0:
256,192,28795,1,8,0:0:0:0:
256,192,28855,1,8,0:0:0:0:
256,192,28915,1,0,0:0:0:0:
256,192,29006,1,0,0:0:0:0:
256,192,29051,1,0,0:0:0:0:
256,192,29096,1,8,0:0:0:0:
256,192,29186,1,8,0:0:0:0:
256,192,29277,1,0,0:0:0:0:
256,192,29367,1,8,0:0:0:0:
256,192,29457,1,0,0:0:0:0:
256,192,29503,1,0,0:0:0:0:
256,192,29548,1,8,0:0:0:0:
256,192,29638,1,8,0:0:0:0:
256,192,29728,1,0,0:0:0:0:
256,192,29819,1,8,0:0:0:0:
256,192,29909,1,0,0:0:0:0:
256,192,29999,1,8,0:0:0:0:
256,192,30045,1,8,0:0:0:0:
256,192,30090,1,0,0:0:0:0:
256,192,30180,1,8,0:0:0:0:
256,192,30271,1,0,0:0:0:0:
256,192,30361,1,8,0:0:0:0:
256,192,30451,1,0,0:0:0:0:
256,192,30496,1,0,0:0:0:0:
256,192,30542,1,8,0:0:0:0:
256,192,30587,1,8,0:0:0:0:
256,192,30632,1,0,0:0:0:0:
256,192,30722,1,8,0:0:0:0:
256,192,30813,1,0,0:0:0:0:
256,192,30858,1,0,0:0:0:0:
256,192,30903,1,0,0:0:0:0:
256,192,30993,1,0,0:0:0:0:
256,192,31084,1,8,0:0:0:0:
256,192,31174,1,8,0:0:0:0:
256,192,31265,1,0,0:0:0:0:
256,192,31355,1,8,0:0:0:0:
256,192,31445,1,8,0:0:0:0:
256,192,31536,1,0,0:0:0:0:
256,192,31626,1,8,0:0:0:0:
256,192,31716,1,0,0:0:0:0:
256,192,31807,1,8,0:0:0:0:
256,192,31852,1,8,0:0:0:0:
256,192,31897,1,0,0:0:0:0:
256,192,31987,1,0,0:0:0:0:
256,192,32078,1,0,0:0:0:0:
256,192,32168,1,8,0:0:0:0:
256,192,32259,1,0,0:0:0:0:
256,192,32304,1,0,0:0:0:0:
256,192,32349,1,8,0:0:0:0:
256,192,32439,1,8,0:0:0:0:
256,192,32530,1,8,0:0:0:0:
256,192,32620,1,0,0:0:0:0:
256,192,32665,1,0,0:0:0:0:
256,192,32710,1,8,0:0:0:0:
256,192,32801,1,0,0:0:0:0:
256,192,32891,1,8,0:0:0:0:
256,192,32981,1,0,0:0:0:0:
256,192,33072,1,8,0:0:0:0:
256,192,33117,1,8,0:0:0:0:
256,192,33162,1,0,0:0:0:0:
256,192,33253,1,8,0:0:0:0:
256,192,33343,1,0,0:0:0:0:
256,192,33433,1,0,0:0:0:0:
256,192,33524,1,8,0:0:0:0:
256,192,33614,1,0,0:0:0:0:
256,192,33704,1,0,0:0:0:0:
256,192,33795,1,0,0:0:0:0:
256,192,33885,1,8,0:0:0:0:
256,192,33975,1,8,0:0:0:0:
256,192,34021,1,8,0:0:0:0:
256,192,34066,1,0,0:0:0:0:
256,192,34111,1,0,0:0:0:0:
256,192,34156,1,8,0:0:0:0:
256,192,34246,1,0,0:0:0:0:
256,192,34337,1,8,0:0:0:0:
256,192,34397,1,8,0:0:0:0:
256,192,34457,1,8,0:0:0:0:
256,192,34518,1,8,0:0:0:0:
256,192,34578,1,8,0:0:0:0:
256,192,34638,1,8,0:0:0:0:
256,192,34698,1,0,0:0:0:0:
256,192,34879,1,8,0:0:0:0:
256,192,35240,1,8,0:0:0:0:
256,192,35602,1,8,0:0:0:0:
256,192,35692,1,8,0:0:0:0:
256,192,35783,1,8,0:0:0:0:
256,192,35963,1,8,0:0:0:0:
256,192,36325,1,8,0:0:0:0:
256,192,36686,1,8,0:0:0:0:
256,192,37048,1,8,0:0:0:0:
256,192,37138,1,8,0:0:0:0:
256,192,37409,1,8,0:0:0:0:
256,192,37771,1,8,0:0:0:0:
256,192,38132,1,8,0:0:0:0:
256,192,38493,1,8,0:0:0:0:
256,192,38584,1,0,0:0:0:0:
256,192,38674,1,8,0:0:0:0:
256,192,38855,1,8,0:0:0:0:
256,192,39216,1,8,0:0:0:0:
256,192,39397,1,0,0:0:0:0:
256,192,39578,1,8,0:0:0:0:
256,192,39939,1,8,0:0:0:0:
256,192,40030,1,8,0:0:0:0:
256,192,40120,1,8,0:0:0:0:
256,192,40301,1,8,0:0:0:0:
256,192,40481,1,0,0:0:0:0:
256,192,40662,1,8,0:0:0:0:
256,192,40843,1,8,0:0:0:0:
256,192,41024,1,0,0:0:0:0:
256,192,41204,1,8,0:0:0:0:
256,192,41385,1,8,0:0:0:0:
256,192,41566,1,0,0:0:0:0:
256,192,41746,1,8,0:0:0:0:
256,192,41927,1,0,0:0:0:0:
256,192,42108,1,0,0:0:0:0:
256,192,42289,1,8,0:0:0:0:
256,192,42469,1,8,0:0:0:0:
256,192,42650,1,8,0:0:0:0:
256,192,42831,1,0,0:0:0:0:
256,192,43012,1,8,0:0:0:0:
256,192,43192,1,0,0:0:0:0:
256,192,43373,1,0,0:0:0:0:
256,192,43554,1,0,0:0:0:0:
256,192,43734,1,8,0:0:0:0:
256,192,43915,1,8,0:0:0:0:
256,192,44096,1,8,0:0:0:0:
256,192,44277,1,0,0:0:0:0:
256,192,44457,1,8,0:0:0:0:
256,192,44638,1,0,0:0:0:0:
256,192,44819,1,0,0:0:0:0:
256,192,44909,1,0,0:0:0:0:
256,192,44999,1,8,0:0:0:0:
256,192,45090,1,0,0:0:0:0:
256,192,45180,1,8,0:0:0:0:
256,192,45271,1,8,0:0:0:0:
256,192,45361,1,0,0:0:0:0:
256,192,45451,1,8,0:0:0:0:
256,192,45542,1,8,0:0:0:0:
256,192,45632,1,8,0:0:0:0:
256,192,45677,1,8,0:0:0:0:
256,192,45722,1,0,0:0:0:0:
256,192,45813,1,0,0:0:0:0:
256,192,45903,1,8,0:0:0:0:
256,192,45963,1,8,0:0:0:0:
256,192,46024,1,8,0:0:0:0:
256,192,46084,1,8,0:0:0:0:
256,192,46144,1,8,0:0:0:0:
256,192,46204,1,8,0:0:0:0:
256,192,46265,1,0,0:0:0:0:
256,192,46445,1,0,0:0:0:0:
256,192,46536,1,0,0:0:0:0:
256,192,46626,1,8,0:0:0:0:
256,192,46716,1,0,0:0:0:0:
256,192,46897,1,0,0:0:0:0:
256,192,46987,1,8,0:0:0:0:
256,192,47168,1,8,0:0:0:0:
256,192,47259,1,0,0:0:0:0:
256,192,47349,1,8,0:0:0:0:
256,192,47439,1,0,0:0:0:0:
256,192,47530,1,0,0:0:0:0:
256,192,47620,1,0,0:0:0:0:
256,192,47710,1,8,0:0:0:0:
256,192,47891,1,8,0:0:0:0:
256,192,47981,1,0,0:0:0:0:
256,192,48072,1,8,0:0:0:0:
256,192,48162,1,0,0:0:0:0:
256,192,48343,1,0,0:0:0:0:
256,192,48433,1,8,0:0:0:0:
256,192,48614,1,0,0:0:0:0:
256,192,48704,1,8,0:0:0:0:
256,192,48795,1,0,0:0:0:0:
256,192,48885,1,0,0:0:0:0:
256,192,48975,1,8,0:0:0:0:
256,192,49156,1,0,0:0:0:0:
256,192,49337,1,0,0:0:0:0:
256,192,49427,1,0,0:0:0:0:
256,192,49518,1,8,0:0:0:0:
256,192,49608,1,0,0:0:0:0:
256,192,49789,1,0,0:0:0:0:
256,192,49879,1,8,0:0:0:0:
256,192,50060,1,0,0:0:0:0:
256,192,50150,1,8,0:0:0:0:
256,192,50240,1,0,0:0:0:0:
256,192,50421,1,0,0:0:0:0:
256,192,50602,1,0,0:0:0:0:
256,192,50783,1,0,0:0:0:0:
256,192,50873,1,0,0:0:0:0:
256,192,50963,1,8,0:0:0:0:
256,192,51054,1,0,0:0:0:0:
256,192,51234,1,0,0:0:0:0:
256,192,51325,1,8,0:0:0:0:
256,192,51415,1,0,0:0:0:0:
256,192,51596,1,0,0:0:0:0:
256,192,51686,1,8,0:0:0:0:
256,192,51777,1,0,0:0:0:0:
256,192,51867,1,8,0:0:0:0:
256,192,52048,1,8,0:0:0:0:
256,192,52228,1,0,0:0:0:0:
256,192,52319,1,0,0:0:0:0:
256,192,52409,1,8,0:0:0:0:
256,192,52499,1,0,0:0:0:0:
256,192,52680,1,0,0:0:0:0:
256,192,52771,1,8,0:0:0:0:
256,192,52951,1,0,0:0:0:0:
256,192,53042,1,8,0:0:0:0:
256,192,53132,1,0,0:0:0:0:
256,192,53222,1,8,0:0:0:0:
256,192,53313,1,8,0:0:0:0:
256,192,53493,1,8,0:0:0:0:
256,192,53674,1,0,0:0:0:0:
256,192,53765,1,0,0:0:0:0:
256,192,53855,1,8,0:0:0:0:
256,192,53945,1,0,0:0:0:0:
256,192,54036,1,8,0:0:0:0:
256,192,54216,1,8,0:0:0:0:
256,192,54397,1,0,0:0:0:0:
256,192,54487,1,8,0:0:0:0:
256,192,54578,1,0,0:0:0:0:
256,192,54668,1,0,0:0:0:0:
256,192,54849,1,8,0:0:0:0:
256,192,54939,1,0,0:0:0:0:
256,192,55120,1,0,0:0:0:0:
256,192,55210,1,0,0:0:0:0:
256,192,55301,1,8,0:0:0:0:
256,192,55391,1,0,0:0:0:0:
256,192,55481,1,8,0:0:0:0:
256,192,55662,1,8,0:0:0:0:
256,192,55843,1,0,0:0:0:0:
256,192,55933,1,8,0:0:0:0:
256,192,56024,1,0,0:0:0:0:
256,192,56114,1,0,0:0:0:0:
256,192,56204,1,8,0:0:0:0:
256,192,56385,1,0,0:0:0:0:
256,192,56566,1,8,0:0:0:0:
256,192,56656,1,0,0:0:0:0:
256,192,56746,1,8,0:0:0:0:
256,192,56837,1,8,0:0:0:0:
256,192,56927,1,0,0:0:0:0:
256,192,57108,1,8,0:0:0:0:
256,192,57198,1,8,0:0:0:0:
256,192,57289,1,0,0:0:0:0:
256,192,57469,1,8,0:0:0:0:
256,192,57650,1,0,0:0:0:0:
256,192,57831,1,12,0:0:0:0:
256,192,58012,1,0,0:0:0:0:
256,192,58102,1,0,0:0:0:0:
256,192,58192,1,8,0:0:0:0:
256,192,58283,1,0,0:0:0:0:
256,192,58373,1,8,0:0:0:0:
256,192,58554,1,8,0:0:0:0:
256,192,58644,1,0,0:0:0:0:
256,192,58734,1,0,0:0:0:0:
256,192,58825,1,8,0:0:0:0:
256,192,58915,1,0,0:0:0:0:
256,192,59006,1,8,0:0:0:0:
256,192,59096,1,0,0:0:0:0:
256,192,59186,1,0,0:0:0:0:
256,192,59277,1,0,0:0:0:0:
256,192,59457,1,8,0:0:0:0:
256,192,59548,1,0,0:0:0:0:
256,192,59638,1,8,0:0:0:0:
256,192,59728,1,8,0:0:0:0:
256,192,59819,1,0,0:0:0:0:
256,192,59909,1,0,0:0:0:0:
256,192,59999,1,8,0:0:0:0:
256,192,60180,1,0,0:0:0:0:
256,192,60271,1,8,0:0:0:0:
256,192,60361,1,0,0:0:0:0:
256,192,60451,1,0,0:0:0:0:
256,192,60542,1,8,0:0:0:0:
256,192,60632,1,8,0:0:0:0:
256,192,60722,1,0,0:0:0:0:
256,192,60903,1,0,0:0:0:0:
256,192,60993,1,0,0:0:0:0:
256,192,61084,1,8,0:0:0:0:
256,192,61174,1,0,0:0:0:0:
256,192,61265,1,8,0:0:0:0:
256,192,61445,1,8,0:0:0:0:
256,192,61536,1,0,0:0:0:0:
256,192,61626,1,8,0:0:0:0:
256,192,61716,1,8,0:0:0:0:
256,192,61807,1,0,0:0:0:0:
256,192,61897,1,8,0:0:0:0:
256,192,61987,1,0,0:0:0:0:
256,192,62078,1,0,0:0:0:0:
256,192,62168,1,0,0:0:0:0:
256,192,62349,1,8,0:0:0:0:
256,192,62439,1,0,0:0:0:0:
256,192,62530,1,8,0:0:0:0:
256,192,62620,1,8,0:0:0:0:
256,192,62801,1,0,0:0:0:0:
256,192,62891,1,8,0:0:0:0:
256,192,62981,1,0,0:0:0:0:
256,192,63072,1,8,0:0:0:0:
256,192,63162,1,8,0:0:0:0:
256,192,63253,1,0,0:0:0:0:
256,192,63343,1,8,0:0:0:0:
256,192,63433,1,0,0:0:0:0:
256,192,63614,1,12,0:0:0:0:
256,192,63795,1,8,0:0:0:0:
256,192,63975,1,8,0:0:0:0:
256,192,64156,1,0,0:0:0:0:
256,192,64337,1,8,0:0:0:0:
256,192,64518,1,8,0:0:0:0:
256,192,64698,1,0,0:0:0:0:
256,192,64879,1,8,0:0:0:0:
256,192,65060,1,0,0:0:0:0:
256,192,65240,1,0,0:0:0:0:
256,192,65421,1,8,0:0:0:0:
256,192,65602,1,8,0:0:0:0:
256,192,65783,1,8,0:0:0:0:
256,192,65963,1,0,0:0:0:0:
256,192,66144,1,8,0:0:0:0:
256,192,66325,1,0,0:0:0:0:
256,192,66506,1,0,0:0:0:0:
256,192,66686,1,0,0:0:0:0:
256,192,66867,1,8,0:0:0:0:
256,192,67048,1,8,0:0:0:0:
256,192,67228,1,8,0:0:0:0:
256,192,67409,1,0,0:0:0:0:
256,192,67590,1,8,0:0:0:0:
256,192,67771,1,0,0:0:0:0:
256,192,67951,1,8,0:0:0:0:
256,192,68042,1,0,0:0:0:0:
256,192,68132,1,8,0:0:0:0:
256,192,68313,1,8,0:0:0:0:
256,192,68403,1,0,0:0:0:0:
256,192,68493,1,8,0:0:0:0:
256,192,68674,1,8,0:0:0:0:
256,192,68765,1,0,0:0:0:0:
256,192,68855,1,8,0:0:0:0:
256,192,68945,1,0,0:0:0:0:
256,192,69036,1,8,0:0:0:0:
256,192,69126,1,8,0:0:0:0:
256,192,69216,1,8,0:0:0:0:
256,192,69397,1,0,0:0:0:0:
256,192,69487,1,8,0:0:0:0:
256,192,69578,1,0,0:0:0:0:
256,192,69668,1,8,0:0:0:0:
256,192,69759,1,0,0:0:0:0:
256,192,69849,1,8,0:0:0:0:
256,192,69939,1,0,0:0:0:0:
256,192,70030,1,8,0:0:0:0:
256,192,70120,1,0,0:0:0:0:
256,192,70210,1,8,0:0:0:0:
256,192,70301,1,0,0:0:0:0:
256,192,70391,1,8,0:0:0:0:
256,192,70481,1,0,0:0:0:0:
256,192,70572,1,8,0:0:0:0:
256,192,70662,1,0,0:0:0:0:
256,192,70753,1,8,0:0:0:0:
256,192,70843,1,0,0:0:0:0:
256,192,70933,1,8,0:0:0:0:
256,192,71024,1,0,0:0:0:0:
256,192,71114,1,8,0:0:0:0:
256,192,71204,1,0,0:0:0:0:
256,192,71295,1,8,0:0:0:0:
256,192,71385,1,0,0:0:0:0:
256,192,71475,1,8,0:0:0:0:
256,192,71566,1,0,0:0:0:0:
256,192,71656,1,0,0:0:0:0:
256,192,71746,1,0,0:0:0:0:
256,192,71837,1,0,0:0:0:0:
256,192,71927,1,8,0:0:0:0:
256,192,72018,1,8,0:0:0:0:
256,192,72108,1,8,0:0:0:0:
256,192,72198,1,8,0:0:0:0:
256,192,72289,1,0,0:0:0:0:
256,192,72379,1,8,0:0:0:0:
256,192,72409,1,8,0:0:0:0:
256,192,72469,1,0,0:0:0:0:
256,192,72560,1,8,0:0:0:0:
256,192,72590,1,8,0:0:0:0:
256,192,72650,1,0,0:0:0:0:
256,192,72740,1,8,0:0:0:0:
256,192,72771,1,8,0:0:0:0:
256,192,72831,1,0,0:0:0:0:
256,192,72921,1,8,0:0:0:0:
256,192,72951,1,8,0:0:0:0:
256,192,73012,1,0,0:0:0:0:
256,192,73102,1,8,0:0:0:0:
256,192,73132,1,8,0:0:0:0:
256,192,73192,1,0,0:0:0:0:
256,192,73283,1,8,0:0:0:0:
256,192,73313,1,8,0:0:0:0:
256,192,73373,1,0,0:0:0:0:
256,192,73463,1,8,0:0:0:0:
256,192,73493,1,8,0:0:0:0:
256,192,73554,1,0,0:0:0:0:
256,192,73644,1,8,0:0:0:0:
256,192,73674,1,8,0:0:0:0:
256,192,73734,1,0,0:0:0:0:
256,192,73825,1,8,0:0:0:0:
256,192,73855,1,8,0:0:0:0:
256,192,73915,1,0,0:0:0:0:
256,192,74006,1,8,0:0:0:0:
256,192,74036,1,8,0:0:0:0:
256,192,74096,1,0,0:0:0:0:
256,192,74186,1,8,0:0:0:0:
256,192,74216,1,8,0:0:0:0:
256,192,74277,1,0,0:0:0:0:
256,192,74367,1,8,0:0:0:0:
256,192,74397,1,8,0:0:0:0:
256,192,74457,1,0,0:0:0:0:
256,192,74548,1,0,0:0:0:0:
256,192,74638,1,0,0:0:0:0:
256,192,74728,1,0,0:0:0:0:
256,192,74819,1,8,0:0:0:0:
256,192,74909,1,8,0:0:0:0:
256,192,74999,1,8,0:0:0:0:
256,192,75090,1,8,0:0:0:0:
256,192,75180,1,0,0:0:0:0:
256,192,75271,1,0,0:0:0:0:
256,192,75301,1,8,0:0:0:0:
256,192,75361,1,0,0:0:0:0:
256,192,75451,1,0,0:0:0:0:
256,192,75481,1,8,0:0:0:0:
256,192,75542,1,0,0:0:0:0:
256,192,75632,1,0,0:0:0:0:
256,192,75662,1,8,0:0:0:0:
256,192,75722,1,0,0:0:0:0:
256,192,75813,1,0,0:0:0:0:
256,192,75843,1,8,0:0:0:0:
256,192,75903,1,0,0:0:0:0:
256,192,75993,1,0,0:0:0:0:
256,192,76024,1,8,0:0:0:0:
256,192,76084,1,0,0:0:0:0:
256,192,76174,1,0,0:0:0:0:
256,192,76204,1,8,0:0:0:0:
256,192,76265,1,0,0:0:0:0:
256,192,76355,1,0,0:0:0:0:
256,192,76385,1,8,0:0:0:0:
256,192,76445,1,0,0:0:0:0:
256,192,76536,1,0,0:0:0:0:
256,192,76566,1,8,0:0:0:0:
256,192,76626,1,0,0:0:0:0:
256,192,76716,1,0,0:0:0:0:
256,192,76746,1,8,0:0:0:0:
256,192,76807,1,0,0:0:0:0:
256,192,76897,1,0,0:0:0:0:
256,192,76927,1,8,0:0:0:0:
256,192,76987,1,0,0:0:0:0:
256,192,77078,1,0,0:0:0:0:
256,192,77108,1,8,0:0:0:0:
256,192,77168,1,0,0:0:0:0:
256,192,77259,1,0,0:0:0:0:
256,192,77289,1,8,0:0:0:0:
256,192,77349,1,0,0:0:0:0:
256,192,77439,1,0,0:0:0:0:
256,192,77530,1,0,0:0:0:0:
256,192,77620,1,0,0:0:0:0:
256,192,77710,1,8,0:0:0:0:
256,192,77801,1,8,0:0:0:0:
256,192,77891,1,8,0:0:0:0:
256,192,77981,1,8,0:0:0:0:
256,192,78072,1,0,0:0:0:0:
256,192,78162,1,8,0:0:0:0:
256,192,78192,1,8,0:0:0:0:
256,192,78253,1,0,0:0:0:0:
256,192,78343,1,8,0:0:0:0:
256,192,78373,1,8,0:0:0:0:
256,192,78433,1,0,0:0:0:0:
256,192,78524,1,8,0:0:0:0:
256,192,78554,1,8,0:0:0:0:
256,192,78614,1,0,0:0:0:0:
256,192,78704,1,8,0:0:0:0:
256,192,78734,1,8,0:0:0:0:
256,192,78795,1,0,0:0:0:0:
256,192,78885,1,0,0:0:0:0:
256,192,78915,1,8,0:0:0:0:
256,192,78975,1,0,0:0:0:0:
256,192,79066,1,0,0:0:0:0:
256,192,79096,1,8,0:0:0:0:
256,192,79156,1,0,0:0:0:0:
256,192,79246,1,0,0:0:0:0:
256,192,79277,1,8,0:0:0:0:
256,192,79337,1,0,0:0:0:0:
256,192,79427,1,0,0:0:0:0:
256,192,79457,1,8,0:0:0:0:
256,192,79518,1,0,0:0:0:0:
256,192,79608,1,8,0:0:0:0:
256,192,79638,1,8,0:0:0:0:
256,192,79698,1,0,0:0:0:0:
256,192,79789,1,8,0:0:0:0:
256,192,79819,1,8,0:0:0:0:
256,192,79879,1,0,0:0:0:0:
256,192,79969,1,0,0:0:0:0:
256,192,79999,1,8,0:0:0:0:
256,192,80060,1,0,0:0:0:0:
256,192,80150,1,0,0:0:0:0:
256,192,80180,1,8,0:0:0:0:
256,192,80240,1,0,0:0:0:0:
256,192,80331,1,8,0:0:0:0:
256,192,80421,1,0,0:0:0:0:
256,192,80512,1,8,0:0:0:0:
256,192,80602,1,0,0:0:0:0:
256,192,80692,1,8,0:0:0:0:
256,192,80783,1,0,0:0:0:0:
256,192,80873,1,8,0:0:0:0:
256,192,80963,1,0,0:0:0:0:
256,192,81054,1,0,0:0:0:0:
256,192,81144,1,8,0:0:0:0:
256,192,81234,1,0,0:0:0:0:
256,192,81325,1,8,0:0:0:0:
256,192,81415,1,0,0:0:0:0:
256,192,81506,1,8,0:0:0:0:
256,192,81596,1,8,0:0:0:0:
256,192,81686,1,0,0:0:0:0:
256,192,81746,1,8,0:0:0:0:
256,192,81807,1,8,0:0:0:0:
256,192,81867,1,0,0:0:0:0:
256,192,82048,1,8,0:0:0:0:
256,192,82108,1,8,0:0:0:0:
256,192,82168,1,8,0:0:0:0:
256,192,82228,1,8,0:0:0:0:
256,192,82289,1,8,0:0:0:0:
256,192,82349,1,8,0:0:0:0:
256,192,82409,1,0,0:0:0:0:
256,192,82499,1,0,0:0:0:0:
256,192,82590,1,8,0:0:0:0:
256,192,82680,1,8,0:0:0:0:
256,192,82771,1,0,0:0:0:0:
256,192,82861,1,8,0:0:0:0:
256,192,82951,1,0,0:0:0:0:
256,192,83042,1,8,0:0:0:0:
256,192,83132,1,8,0:0:0:0:
256,192,83222,1,0,0:0:0:0:
256,192,83313,1,8,0:0:0:0:
256,192,83403,1,8,0:0:0:0:
256,192,83493,1,8,0:0:0:0:
256,192,83584,1,0,0:0:0:0:
256,192,83674,1,8,0:0:0:0:
256,192,83765,1,0,0:0:0:0:
256,192,83855,1,8,0:0:0:0:
256,192,83945,1,0,0:0:0:0:
256,192,84036,1,0,0:0:0:0:
256,192,84126,1,0,0:0:0:0:
256,192,84216,1,8,0:0:0:0:
256,192,84307,1,8,0:0:0:0:
256,192,84397,1,0,0:0:0:0:
256,192,84487,1,0,0:0:0:0:
256,192,84578,1,0,0:0:0:0:
256,192,84668,1,8,0:0:0:0:
256,192,84759,1,0,0:0:0:0:
256,192,84849,1,8,0:0:0:0:
256,192,84939,1,8,0:0:0:0:
256,192,85030,1,0,0:0:0:0:
256,192,85120,1,8,0:0:0:0:
256,192,85210,1,0,0:0:0:0:
256,192,85301,1,8,0:0:0:0:
256,192,85391,1,8,0:0:0:0:
256,192,85481,1,0,0:0:0:0:
256,192,85572,1,0,0:0:0:0:
256,192,85662,1,8,0:0:0:0:
256,192,85753,1,0,0:0:0:0:
256,192,85843,1,8,0:0:0:0:
256,192,85933,1,8,0:0:0:0:
256,192,86024,1,8,0:0:0:0:
256,192,86114,1,0,0:0:0:0:
256,192,86204,1,8,0:0:0:0:
256,192,86295,1,0,0:0:0:0:
256,192,86385,1,8,0:0:0:0:
256,192,86475,1,0,0:0:0:0:
256,192,86566,1,8,0:0:0:0:
256,192,86656,1,8,0:0:0:0:
256,192,86746,1,0,0:0:0:0:
256,192,86837,1,0,0:0:0:0:
256,192,86927,1,0,0:0:0:0:
256,192,87018,1,8,0:0:0:0:
256,192,87108,1,0,0:0:0:0:
256,192,87198,1,0,0:0:0:0:
256,192,87289,1,0,0:0:0:0:
256,192,87379,1,8,0:0:0:0:
256,192,87469,1,0,0:0:0:0:
256,192,87560,1,8,0:0:0:0:
256,192,87650,1,0,0:0:0:0:
256,192,87740,1,0,0:0:0:0:
256,192,87831,1,8,0:0:0:0:
256,192,87891,1,8,0:0:0:0:
256,192,87951,1,8,0:0:0:0:
256,192,88012,1,8,0:0:0:0:
256,192,88072,1,8,0:0:0:0:
256,192,88132,1,8,0:0:0:0:
256,192,88192,1,0,0:0:0:0:
256,192,88283,1,0,0:0:0:0:
256,192,88328,1,0,0:0:0:0:
256,192,88373,1,8,0:0:0:0:
256,192,88463,1,8,0:0:0:0:
256,192,88554,1,0,0:0:0:0:
256,192,88644,1,8,0:0:0:0:
256,192,88734,1,0,0:0:0:0:
256,192,88825,1,8,0:0:0:0:
256,192,88915,1,8,0:0:0:0:
256,192,89006,1,0,0:0:0:0:
256,192,89096,1,8,0:0:0:0:
256,192,89141,1,8,0:0:0:0:
256,192,89186,1,0,0:0:0:0:
256,192,89277,1,8,0:0:0:0:
256,192,89367,1,0,0:0:0:0:
256,192,89457,1,8,0:0:0:0:
256,192,89548,1,0,0:0:0:0:
256,192,89638,1,8,0:0:0:0:
256,192,89728,1,0,0:0:0:0:
256,192,89774,1,0,0:0:0:0:
256,192,89819,1,0,0:0:0:0:
256,192,89909,1,0,0:0:0:0:
256,192,89999,1,8,0:0:0:0:
256,192,90090,1,8,0:0:0:0:
256,192,90180,1,0,0:0:0:0:
256,192,90225,1,0,0:0:0:0:
256,192,90271,1,0,0:0:0:0:
256,192,90361,1,0,0:0:0:0:
256,192,90451,1,8,0:0:0:0:
256,192,90542,1,0,0:0:0:0:
256,192,90632,1,8,0:0:0:0:
256,192,90722,1,8,0:0:0:0:
256,192,90813,1,0,0:0:0:0:
256,192,90903,1,8,0:0:0:0:
256,192,90993,1,0,0:0:0:0:
256,192,91084,1,8,0:0:0:0:
256,192,91129,1,8,0:0:0:0:
256,192,91174,1,0,0:0:0:0:
256,192,91265,1,0,0:0:0:0:
256,192,91355,1,0,0:0:0:0:
256,192,91445,1,8,0:0:0:0:
256,192,91536,1,0,0:0:0:0:
256,192,91581,1,0,0:0:0:0:
256,192,91626,1,8,0:0:0:0:
256,192,91716,1,8,0:0:0:0:
256,192,91807,1,8,0:0:0:0:
256,192,91897,1,0,0:0:0:0:
256,192,91987,1,8,0:0:0:0:
256,192,92078,1,0,0:0:0:0:
256,192,92168,1,8,0:0:0:0:
256,192,92259,1,0,0:0:0:0:
256,192,92349,1,8,0:0:0:0:
256,192,92394,1,8,0:0:0:0:
256,192,92439,1,0,0:0:0:0:
256,192,92530,1,0,0:0:0:0:
256,192,92620,1,0,0:0:0:0:
256,192,92710,1,0,0:0:0:0:
256,192,92801,1,8,0:0:0:0:
256,192,92891,1,0,0:0:0:0:
256,192,92981,1,0,0:0:0:0:
256,192,93072,1,0,0:0:0:0:
256,192,93162,1,8,0:0:0:0:
256,192,93253,1,8,0:0:0:0:
256,192,93298,1,8,0:0:0:0:
256,192,93343,1,0,0:0:0:0:
256,192,93433,1,0,0:0:0:0:
256,192,93524,1,0,0:0:0:0:
256,192,93614,1,8,0:0:0:0:
256,192,93674,1,8,0:0:0:0:
256,192,93734,1,8,0:0:0:0:
256,192,93795,1,8,0:0:0:0:
256,192,93855,1,8,0:0:0:0:
256,192,93915,1,8,0:0:0:0:
256,192,93975,1,0,0:0:0:0:
256,192,94066,1,0,0:0:0:0:
256,192,94156,1,8,0:0:0:0:
256,192,94246,1,0,0:0:0:0:
256,192,94337,1,8,0:0:0:0:
256,192,94427,1,8,0:0:0:0:
256,192,94518,1,0,0:0:0:0:
256,192,94608,1,0,0:0:0:0:
256,192,94698,1,8,0:0:0:0:
256,192,94789,1,0,0:0:0:0:
256,192,94879,1,8,0:0:0:0:
256,192,94969,1,0,0:0:0:0:
256,192,95060,1,8,0:0:0:0:
256,192,95150,1,8,0:0:0:0:
256,192,95240,1,0,0:0:0:0:
256,192,95331,1,0,0:0:0:0:
256,192,95421,1,8,0:0:0:0:
256,192,95512,1,0,0:0:0:0:
256,192,95602,1,0,0:0:0:0:
256,192,95692,1,0,0:0:0:0:
256,192,95783,1,8,0:0:0:0:
256,192,95873,1,8,0:0:0:0:
256,192,95963,1,0,0:0:0:0:
256,192,96054,1,0,0:0:0:0:
256,192,96144,1,0,0:0:0:0:
256,192,96234,1,8,0:0:0:0:
256,192,96325,1,0,0:0:0:0:
256,192,96415,1,8,0:0:0:0:
256,192,96506,1,8,0:0:0:0:
256,192,96596,1,0,0:0:0:0:
256,192,96686,1,8,0:0:0:0:
256,192,96777,1,0,0:0:0:0:
256,192,96867,1,8,0:0:0:0:
256,192,96957,1,8,0:0:0:0:
256,192,97048,1,0,0:0:0:0:
256,192,97138,1,0,0:0:0:0:
256,192,97228,1,0,0:0:0:0:
256,192,97319,1,8,0:0:0:0:
256,192,97409,1,0,0:0:0:0:
256,192,97499,1,8,0:0:0:0:
256,192,97590,1,0,0:0:0:0:
256,192,97680,1,0,0:0:0:0:
256,192,97771,1,8,0:0:0:0:
256,192,97861,1,0,0:0:0:0:
256,192,97951,1,8,0:0:0:0:
256,192,98042,1,0,0:0:0:0:
256,192,98132,1,8,0:0:0:0:
256,192,98222,1,8,0:0:0:0:
256,192,98313,1,0,0:0:0:0:
256,192,98493,1,0,0:0:0:0:
256,192,98674,1,8,0:0:0:0:
256,192,98855,1,0,0:0:0:0:
256,192,98945,1,8,0:0:0:0:
256,192,99036,1,0,0:0:0:0:
256,192,99081,1,8,0:0:0:0:
256,192,99126,1,0,0:0:0:0:
256,192,99171,1,8,0:0:0:0:
256,192,99216,1,0,0:0:0:0:
256,192,99307,1,0,0:0:0:0:
256,192,99397,1,8,0:0:0:0:
256,192,99457,1,8,0:0:0:0:
256,192,99518,1,8,0:0:0:0:
256,192,99578,1,8,0:0:0:0:
256,192,99638,1,8,0:0:0:0:
256,192,99698,1,8,0:0:0:0:
256,192,99759,1,0,0:0:0:0:
256,192,99849,1,0,0:0:0:0:
256,192,99894,1,0,0:0:0:0:
256,192,99939,1,8,0:0:0:0:
256,192,100030,1,0,0:0:0:0:
256,192,100120,1,8,0:0:0:0:
256,192,100210,1,0,0:0:0:0:
256,192,100301,1,8,0:0:0:0:
256,192,100346,1,8,0:0:0:0:
256,192,100391,1,0,0:0:0:0:
256,192,100481,1,8,0:0:0:0:
256,192,100572,1,0,0:0:0:0:
256,192,100662,1,8,0:0:0:0:
256,192,100753,1,0,0:0:0:0:
256,192,100798,1,0,0:0:0:0:
256,192,100843,1,8,0:0:0:0:
256,192,100888,1,8,0:0:0:0:
256,192,100933,1,0,0:0:0:0:
256,192,101024,1,8,0:0:0:0:
256,192,101114,1,0,0:0:0:0:
256,192,101204,1,8,0:0:0:0:
256,192,101295,1,8,0:0:0:0:
256,192,101385,1,0,0:0:0:0:
256,192,101475,1,0,0:0:0:0:
256,192,101566,1,8,0:0:0:0:
256,192,101611,1,0,0:0:0:0:
256,192,101656,1,0,0:0:0:0:
256,192,101746,1,8,0:0:0:0:
256,192,101837,1,0,0:0:0:0:
256,192,101927,1,0,0:0:0:0:
256,192,102018,1,0,0:0:0:0:
256,192,102108,1,8,0:0:0:0:
256,192,102198,1,0,0:0:0:0:
256,192,102289,1,8,0:0:0:0:
256,192,102379,1,8,0:0:0:0:
256,192,102469,1,0,0:0:0:0:
256,192,102560,1,8,0:0:0:0:
256,192,102650,1,0,0:0:0:0:
256,192,102695,1,0,0:0:0:0:
256,192,102740,1,8,0:0:0:0:
256,192,102786,1,8,0:0:0:0:
256,192,102831,1,0,0:0:0:0:
256,192,102921,1,0,0:0:0:0:
256,192,103012,1,8,0:0:0:0:
256,192,103102,1,0,0:0:0:0:
256,192,103192,1,8,0:0:0:0:
256,192,103283,1,8,0:0:0:0:
256,192,103373,1,0,0:0:0:0:
256,192,103418,1,0,0:0:0:0:
256,192,103463,1,8,0:0:0:0:
256,192,103554,1,0,0:0:0:0:
256,192,103644,1,8,0:0:0:0:
256,192,103734,1,0,0:0:0:0:
256,192,103825,1,0,0:0:0:0:
256,192,103915,1,8,0:0:0:0:
256,192,103960,1,8,0:0:0:0:
256,192,104006,1,0,0:0:0:0:
256,192,104096,1,8,0:0:0:0:
256,192,104186,1,0,0:0:0:0:
256,192,104231,1,0,0:0:0:0:
256,192,104277,1,0,0:0:0:0:
256,192,104367,1,8,0:0:0:0:
256,192,104457,1,0,0:0:0:0:
256,192,104503,1,0,0:0:0:0:
256,192,104548,1,0,0:0:0:0:
256,192,104638,1,8,0:0:0:0:
256,192,104728,1,0,0:0:0:0:
256,192,104819,1,8,0:0:0:0:
256,192,104864,1,8,0:0:0:0:
256,192,104909,1,0,0:0:0:0:
256,192,104999,1,0,0:0:0:0:
256,192,105090,1,0,0:0:0:0:
256,192,105180,1,8,0:0:0:0:
256,192,105240,1,8,0:0:0:0:
256,192,105301,1,8,0:0:0:0:
256,192,105361,1,8,0:0:0:0:
256,192,105421,1,8,0:0:0:0:
256,192,105481,1,8,0:0:0:0:
256,192,105542,1,0,0:0:0:0:
256,192,111325,12,0,115481,0:0:0:0:
256,192,115662,5,0,0:0:0:0:
256,192,115753,1,0,0:0:0:0:
256,192,115843,1,8,0:0:0:0:
256,192,115933,1,0,0:0:0:0:
256,192,116024,1,8,0:0:0:0:
256,192,116114,1,0,0:0:0:0:
256,192,116204,1,0,0:0:0:0:
256,192,116385,1,8,0:0:0:0:
256,192,116430,1,8,0:0:0:0:
256,192,116475,1,0,0:0:0:0:
256,192,116566,1,0,0:0:0:0:
256,192,116746,1,8,0:0:0:0:
256,192,116807,1,8,0:0:0:0:
256,192,116867,1,8,0:0:0:0:
256,192,116927,1,8,0:0:0:0:
256,192,116987,1,8,0:0:0:0:
256,192,117048,1,8,0:0:0:0:
256,192,117108,1,0,0:0:0:0:
256,192,122891,5,4,0:0:0:0:
256,192,123433,1,8,0:0:0:0:
256,192,123614,1,12,0:0:0:0:
256,192,124156,1,8,0:0:0:0:
256,192,124337,1,0,0:0:0:0:
256,192,124698,1,0,0:0:0:0:
256,192,124879,1,8,0:0:0:0:
256,192,125060,1,12,0:0:0:0:
256,192,125602,1,8,0:0:0:0:
256,192,125783,1,0,0:0:0:0:
256,192,126325,1,8,0:0:0:0:
256,192,126506,1,12,0:0:0:0:
256,192,127048,1,8,0:0:0:0:
256,192,127228,1,0,0:0:0:0:
256,192,127590,1,0,0:0:0:0:
256,192,127771,1,8,0:0:0:0:
256,192,127951,1,12,0:0:0:0:
256,192,128313,1,0,0:0:0:0:
256,192,128493,1,12,0:0:0:0:
256,192,128674,1,8,0:0:0:0:
256,192,131566,12,0,132831,0:0:0:0:
256,192,133012,5,0,0:0:0:0:
256,192,133102,1,0,0:0:0:0:
256,192,133192,1,8,0:0:0:0:
256,192,133283,1,0,0:0:0:0:
256,192,133373,1,8,0:0:0:0:
256,192,133463,1,8,0:0:0:0:
256,192,133554,1,0,0:0:0:0:
256,192,133734,1,8,0:0:0:0:
256,192,133780,1,8,0:0:0:0:
256,192,133825,1,0,0:0:0:0:
256,192,133915,1,0,0:0:0:0:
256,192,134096,1,8,0:0:0:0:
256,192,134156,1,8,0:0:0:0:
256,192,134216,1,8,0:0:0:0:
256,192,134277,1,8,0:0:0:0:
256,192,134337,1,8,0:0:0:0:
256,192,134397,1,8,0:0:0:0:
256,192,134457,1,0,0:0:0:0:
256,192,134548,1,8,0:0:0:0:
256,192,134638,1,0,0:0:0:0:
256,192,134728,1,8,0:0:0:0:
256,192,134819,1,0,0:0:0:0:
256,192,134909,1,8,0:0:0:0:
256,192,134999,1,0,0:0:0:0:
256,192,135090,1,8,0:0:0:0:
256,192,135180,1,0,0:0:0:0:
256,192,135271,1,8,0:0:0:0:
256,192,135361,1,0,0:0:0:0:
256,192,135451,1,8,0:0:0:0:
256,192,135542,1,0,0:0:0:0:
256,192,135632,1,8,0:0:0:0:
256,192,135722,1,0,0:0:0:0:
256,192,135813,1,8,0:0:0:0:
256,192,135903,1,0,0:0:0:0:
256,192,135993,1,8,0:0:0:0:
256,192,136084,1,0,0:0:0:0:
256,192,136174,1,8,0:0:0:0:
256,192,136265,1,0,0:0:0:0:
256,192,136355,1,8,0:0:0:0:
256,192,136445,1,0,0:0:0:0:
256,192,136536,1,8,0:0:0:0:
256,192,136626,1,0,0:0:0:0:
256,192,136716,1,0,0:0:0:0:
256,192,136807,1,0,0:0:0:0:
256,192,136897,1,0,0:0:0:0:
256,192,136987,1,8,0:0:0:0:
256,192,137078,1,8,0:0:0:0:
256,192,137168,1,8,0:0:0:0:
256,192,137259,1,8,0:0:0:0:
256,192,137349,1,0,0:0:0:0:
256,192,137439,1,8,0:0:0:0:
256,192,137469,1,8,0:0:0:0:
256,192,137530,1,0,0:0:0:0:
256,192,137620,1,8,0:0:0:0:
256,192,137650,1,8,0:0:0:0:
256,192,137710,1,0,0:0:0:0:
256,192,137801,1,8,0:0:0:0:
256,192,137831,1,8,0:0:0:0:
256,192,137891,1,0,0:0:0:0:
256,192,137981,1,8,0:0:0:0:
256,192,138012,1,8,0:0:0:0:
256,192,138072,1,0,0:0:0:0:
256,192,138162,1,8,0:0:0:0:
256,192,138192,1,8,0:0:0:0:
256,192,138253,1,0,0:0:0:0:
256,192,138343,1,8,0:0:0:0:
256,192,138373,1,8,0:0:0:0:
256,192,138433,1,0,0:0:0:0:
256,192,138524,1,8,0:0:0:0:
256,192,138554,1,8,0:0:0:0:
256,192,138614,1,0,0:0:0:0:
256,192,138704,1,8,0:0:0:0:
256,192,138734,1,8,0:0:0:0:
256,192,138795,1,0,0:0:0:0:
256,192,138885,1,8,0:0:0:0:
256,192,138915,1,8,0:0:0:0:
256,192,138975,1,0,0:0:0:0:
256,192,139066,1,8,0:0:0:0:
256,192,139096,1,8,0:0:0:0:
256,192,139156,1,0,0:0:0:0:
256,192,139246,1,8,0:0:0:0:
256,192,139277,1,8,0:0:0:0:
256,192,139337,1,0,0:0:0:0:
256,192,139427,1,8,0:0:0:0:
256,192,139457,1,8,0:0:0:0:
256,192,139518,1,0,0:0:0:0:
256,192,139608,1,0,0:0:0:0:
256,192,139698,1,0,0:0:0:0:
256,192,139789,1,0,0:0:0:0:
256,192,139879,1,8,0:0:0:0:
256,192,139969,1,8,0:0:0:0:
256,192,140060,1,8,0:0:0:0:
256,192,140150,1,8,0:0:0:0:
256,192,140240,1,0,0:0:0:0:
256,192,140331,1,0,0:0:0:0:
256,192,140361,1,8,0:0:0:0:
256,192,140421,1,0,0:0:0:0:
256,192,140512,1,0,0:0:0:0:
256,192,140542,1,8,0:0:0:0:
256,192,140602,1,0,0:0:0:0:
256,192,140692,1,0,0:0:0:0:
256,192,140722,1,8,0:0:0:0:
256,192,140783,1,0,0:0:0:0:
256,192,140873,1,0,0:0:0:0:
256,192,140903,1,8,0:0:0:0:
256,192,140963,1,0,0:0:0:0:
256,192,141054,1,0,0:0:0:0:
256,192,141084,1,8,0:0:0:0:
256,192,141144,1,0,0:0:0:0:
256,192,141234,1,0,0:0:0:0:
256,192,141265,1,8,0:0:0:0:
256,192,141325,1,0,0:0:0:0:
256,192,141415,1,0,0:0:0:0:
256,192,141445,1,8,0:0:0:0:
256,192,141506,1,0,0:0:0:0:
256,192,141596,1,0,0:0:0:0:
256,192,141626,1,8,0:0:0:0:
256,192,141686,1,0,0:0:0:0:
256,192,141777,1,0,0:0:0:0:
256,192,141807,1,8,0:0:0:0:
256,192,141867,1,0,0:0:0:0:
256,192,141957,1,0,0:0:0:0:
256,192,141987,1,8,0:0:0:0:
256,192,142048,1,0,0:0:0:0:
256,192,142138,1,0,0:0:0:0:
256,192,142168,1,8,0:0:0:0:
256,192,142228,1,0,0:0:0:0:
256,192,142319,1,0,0:0:0:0:
256,192,142349,1,8,0:0:0:0:
256,192,142409,1,0,0:0:0:0:
256,192,142499,1,0,0:0:0:0:
256,192,142590,1,0,0:0:0:0:
256,192,142680,1,0,0:0:0:0:
256,192,142771,1,8,0:0:0:0:
256,192,142861,1,8,0:0:0:0:
256,192,142951,1,8,0:0:0:0:
256,192,143042,1,8,0:0:0:0:
256,192,143132,1,0,0:0:0:0:
256,192,143222,1,8,0:0:0:0:
256,192,143253,1,8,0:0:0:0:
256,192,143313,1,0,0:0:0:0:
256,192,143403,1,8,0:0:0:0:
256,192,143433,1,8,0:0:0:0:
256,192,143493,1,0,0:0:0:0:
256,192,143584,1,8,0:0:0:0:
256,192,143614,1,8,0:0:0:0:
256,192,143674,1,0,0:0:0:0:
256,192,143765,1,8,0:0:0:0:
256,192,143795,1,8,0:0:0:0:
256,192,143855,1,0,0:0:0:0:
256,192,143945,1,0,0:0:0:0:
256,192,143975,1,8,0:0:0:0:
256,192,144036,1,0,0:0:0:0:
256,192,144126,1,0,0:0:0:0:
256,192,144156,1,8,0:0:0:0:
256,192,144216,1,0,0:0:0:0:
256,192,144307,1,0,0:0:0:0:
256,192,144337,1,8,0:0:0:0:
256,192,144397,1,0,0:0:0:0:
256,192,144487,1,0,0:0:0:0:
256,192,144518,1,8,0:0:0:0:
256,192,144578,1,0,0:0:0:0:
256,192,144638,1,0,0:0:0:0:
256,192,144698,1,8,0:0:0:0:
256,192,144759,1,0,0:0:0:0:
256,192,144819,1,8,0:0:0:0:
256,192,144879,1,8,0:0:0:0:
256,192,144939,1,0,0:0:0:0:
256,192,144999,1,0,0:0:0:0:
256,192,145060,1,8,0:0:0:0:
256,192,145120,1,0,0:0:0:0:
256,192,145180,1,8,0:0:0:0:
256,192,145240,1,8,0:0:0:0:
256,192,145301,1,0,0:0:0:0:
256,192,145361,1,8,0:0:0:0:
256,192,145421,1,0,0:0:0:0:
256,192,145481,1,0,0:0:0:0:
256,192,145542,1,8,0:0:0:0:
256,192,145602,1,0,0:0:0:0:
256,192,145662,1,8,0:0:0:0:
256,192,145722,1,8,0:0:0:0:
256,192,145783,1,0,0:0:0:0:
256,192,145843,1,8,0:0:0:0:
256,192,146024,1,12,0:0:0:0:
256,192,146566,1,0,0:0:0:0:
256,192,146656,1,0,0:0:0:0:
256,192,146746,1,0,0:0:0:0:
256,192,146927,1,8,0:0:0:0:
256,192,147108,1,0,0:0:0:0:
256,192,147289,1,8,0:0:0:0:
256,192,147469,1,0,0:0:0:0:
256,192,147560,1,0,0:0:0:0:
256,192,147650,1,8,0:0:0:0:
256,192,147740,1,8,0:0:0:0:
256,192,147831,1,0,0:0:0:0:
256,192,147921,1,8,0:0:0:0:
256,192,148012,1,0,0:0:0:0:
256,192,148102,1,8,0:0:0:0:
256,192,148192,1,8,0:0:0:0:
256,192,148283,1,0,0:0:0:0:
256,192,148373,1,8,0:0:0:0:
256,192,148463,1,8,0:0:0:0:
256,192,148554,1,8,0:0:0:0:
256,192,148644,1,0,0:0:0:0:
256,192,148734,1,8,0:0:0:0:
256,192,148825,1,0,0:0:0:0:
256,192,148915,1,8,0:0:0:0:
256,192,149006,1,0,0:0:0:0:
256,192,149096,1,0,0:0:0:0:
256,192,149186,1,0,0:0:0:0:
256,192,149277,1,8,0:0:0:0:
256,192,149367,1,8,0:0:0:0:
256,192,149457,1,0,0:0:0:0:
256,192,149548,1,0,0:0:0:0:
256,192,149638,1,0,0:0:0:0:
256,192,149728,1,8,0:0:0:0:
256,192,149819,1,0,0:0:0:0:
256,192,149909,1,8,0:0:0:0:
256,192,149999,1,8,0:0:0:0:
256,192,150090,1,0,0:0:0:0:
256,192,150180,1,8,0:0:0:0:
256,192,150271,1,0,0:0:0:0:
256,192,150361,1,8,0:0:0:0:
256,192,150451,1,8,0:0:0:0:
256,192,150542,1,0,0:0:0:0:
256,192,150632,1,0,0:0:0:0:
256,192,150722,1,8,0:0:0:0:
256,192,150813,1,0,0:0:0:0:
256,192,150903,1,8,0:0:0:0:
256,192,150993,1,8,0:0:0:0:
256,192,151084,1,8,0:0:0:0:
256,192,151174,1,0,0:0:0:0:
256,192,151265,1,8,0:0:0:0:
256,192,151355,1,0,0:0:0:0:
256,192,151445,1,8,0:0:0:0:
256,192,151536,1,0,0:0:0:0:
256,192,151626,1,8,0:0:0:0:
256,192,151716,1,8,0:0:0:0:
256,192,151807,1,0,0:0:0:0:
256,192,151897,1,0,0:0:0:0:
256,192,151987,1,0,0:0:0:0:
256,192,152078,1,8,0:0:0:0:
256,192,152168,1,0,0:0:0:0:
256,192,152259,1,0,0:0:0:0:
256,192,152349,1,0,0:0:0:0:
256,192,152439,1,8,0:0:0:0:
256,192,152530,1,0,0:0:0:0:
256,192,152620,1,8,0:0:0:0:
256,192,152710,1,0,0:0:0:0:
256,192,152801,1,0,0:0:0:0:
256,192,152891,1,8,0:0:0:0:
256,192,152951,1,8,0:0:0:0:
256,192,153012,1,8,0:0:0:0:
256,192,153072,1,8,0:0:0:0:
256,192,153132,1,8,0:0:0:0:
256,192,153192,1,8,0:0:0:0:
256,192,153253,1,0,0:0:0:0:
256,192,153343,1,0,0:0:0:0:
256,192,153388,1,0,0:0:0:0:
256,192,153433,1,8,0:0:0:0:
256,192,153524,1,8,0:0:0:0:
256,192,153614,1,0,0:0:0:0:
256,192,153704,1,8,0:0:0:0:
256,192,153795,1,0,0:0:0:0:
256,192,153885,1,8,0:0:0:0:
256,192,153975,1,8,0:0:0:0:
256,192,154066,1,0,0:0:0:0:
256,192,154156,1,8,0:0:0:0:
256,192,154201,1,8,0:0:0:0:
256,192,154246,1,0,0:0:0:0:
256,192,154337,1,8,0:0:0:0:
256,192,154427,1,0,0:0:0:0:
256,192,154518,1,8,0:0:0:0:
256,192,154608,1,0,0:0:0:0:
256,192,154698,1,8,0:0:0:0:
256,192,154789,1,0,0:0:0:0:
256,192,154834,1,0,0:0:0:0:
256,192,154879,1,0,0:0:0:0:
256,192,154969,1,0,0:0:0:0:
256,192,155060,1,8,0:0:0:0:
256,192,155150,1,8,0:0:0:0:
256,192,155240,1,0,0:0:0:0:
256,192,155286,1,0,0:0:0:0:
256,192,155331,1,0,0:0:0:0:
256,192,155421,1,0,0:0:0:0:
256,192,155512,1,8,0:0:0:0:
256,192,155602,1,0,0:0:0:0:
256,192,155692,1,8,0:0:0:0:
256,192,155783,1,8,0:0:0:0:
256,192,155873,1,0,0:0:0:0:
256,192,155963,1,8,0:0:0:0:
256,192,156054,1,0,0:0:0:0:
256,192,156144,1,8,0:0:0:0:
256,192,156189,1,8,0:0:0:0:
256,192,156234,1,0,0:0:0:0:
256,192,156325,1,0,0:0:0:0:
256,192,156415,1,0,0:0:0:0:
256,192,156506,1,8,0:0:0:0:
256,192,156596,1,0,0:0:0:0:
256,192,156641,1,0,0:0:0:0:
256,192,156686,1,8,0:0:0:0:
256,192,156777,1,8,0:0:0:0:
256,192,156867,1,8,0:0:0:0:
256,192,156957,1,0,0:0:0:0:
256,192,157048,1,8,0:0:0:0:
256,192,157138,1,0,0:0:0:0:
256,192,157228,1,8,0:0:0:0:
256,192,157319,1,0,0:0:0:0:
256,192,157409,1,8,0:0:0:0:
256,192,157454,1,8,0:0:0:0:
256,192,157499,1,0,0:0:0:0:
256,192,157590,1,0,0:0:0:0:
256,192,157680,1,0,0:0:0:0:
256,192,157771,1,0,0:0:0:0:
256,192,157861,1,8,0:0:0:0:
256,192,157951,1,0,0:0:0:0:
256,192,158042,1,0,0:0:0:0:
256,192,158132,1,0,0:0:0:0:
256,192,158222,1,8,0:0:0:0:
256,192,158313,1,8,0:0:0:0:
256,192,158358,1,8,0:0:0:0:
256,192,158403,1,0,0:0:0:0:
256,192,158493,1,0,0:0:0:0:
256,192,158584,1,0,0:0:0:0:
256,192,158674,1,8,0:0:0:0:
256,192,158734,1,8,0:0:0:0:
256,192,158795,1,8,0:0:0:0:
256,192,158855,1,8,0:0:0:0:
256,192,158915,1,8,0:0:0:0:
256,192,158975,1,8,0:0:0:0:
256,192,159036,1,0,0:0:0:0:
256,192,159126,1,0,0:0:0:0:
256,192,159216,1,8,0:0:0:0:
256,192,159307,1,0,0:0:0:0:
256,192,159397,1,8,0:0:0:0:
256,192,159487,1,8,0:0:0:0:
256,192,159578,1,0,0:0:0:0:
256,192,159668,1,0,0:0:0:0:
256,192,159759,1,8,0:0:0:0:
256,192,159849,1,0,0:0:0:0:
256,192,159939,1,8,0:0:0:0:
256,192,160030,1,0,0:0:0:0:
256,192,160120,1,8,0:0:0:0:
256,192,160210,1,8,0:0:0:0:
256,192,160301,1,0,0:0:0:0:
256,192,160391,1,0,0:0:0:0:
256,192,160481,1,8,0:0:0:0:
256,192,160572,1,0,0:0:0:0:
256,192,160662,1,0,0:0:0:0:
256,192,160753,1,0,0:0:0:0:
256,192,160843,1,8,0:0:0:0:
256,192,160933,1,8,0:0:0:0:
256,192,161024,1,0,0:0:0:0:
256,192,161114,1,0,0:0:0:0:
256,192,161204,1,0,0:0:0:0:
256,192,161295,1,8,0:0:0:0:
256,192,161385,1,0,0:0:0:0:
256,192,161475,1,8,0:0:0:0:
256,192,161566,1,8,0:0:0:0:
256,192,161656,1,0,0:0:0:0:
256,192,161746,1,8,0:0:0:0:
256,192,161837,1,0,0:0:0:0:
256,192,161927,1,8,0:0:0:0:
256,192,162018,1,8,0:0:0:0:
256,192,162108,1,0,0:0:0:0:
256,192,162198,1,0,0:0:0:0:
256,192,162289,1,0,0:0:0:0:
256,192,162379,1,8,0:0:0:0:
256,192,162469,1,0,0:0:0:0:
256,192,162560,1,8,0:0:0:0:
256,192,162650,1,0,0:0:0:0:
256,192,162740,1,0,0:0:0:0:
256,192,162831,1,8,0:0:0:0:
256,192,162921,1,0,0:0:0:0:
256,192,163012,1,8,0:0:0:0:
256,192,163102,1,0,0:0:0:0:
256,192,163192,1,8,0:0:0:0:
256,192,163283,1,8,0:0:0:0:
256,192,163373,1,0,0:0:0:0:
256,192,163554,1,0,0:0:0:0:
256,192,163734,1,8,0:0:0:0:
256,192,163915,1,0,0:0:0:0:
256,192,164006,1,8,0:0:0:0:
256,192,164096,1,0,0:0:0:0:
256,192,164141,1,8,0:0:0:0:
256,192,164186,1,0,0:0:0:0:
256,192,164231,1,8,0:0:0:0:
256,192,164277,1,0,0:0:0:0:
256,192,164367,1,0,0:0:0:0:
256,192,164457,1,8,0:0:0:0:
256,192,164518,1,8,0:0:0:0:
256,192,164578,1,8,0:0:0:0:
256,192,164638,1,8,0:0:0:0:
256,192,164698,1,8,0:0:0:0:
256,192,164759,1,8,0:0:0:0:
256,192,164819,1,0,0:0:0:0:
256,192,164909,1,0,0:0:0:0:
256,192,164954,1,0,0:0:0:0:
256,192,164999,1,8,0:0:0:0:
256,192,165090,1,0,0:0:0:0:
256,192,165180,1,8,0:0:0:0:
256,192,165271,1,0,0:0:0:0:
256,192,165361,1,8,0:0:0:0:
256,192,165406,1,8,0:0:0:0:
256,192,165451,1,0,0:0:0:0:
256,192,165542,1,8,0:0:0:0:
256,192,165632,1,0,0:0:0:0:
256,192,165722,1,8,0:0:0:0:
256,192,165813,1,0,0:0:0:0:
256,192,165858,1,0,0:0:0:0:
256,192,165903,1,8,0:0:0:0:
256,192,165948,1,8,0:0:0:0:
256,192,165993,1,0,0:0:0:0:
256,192,166084,1,8,0:0:0:0:
256,192,166174,1,0,0:0:0:0:
256,192,166265,1,8,0:0:0:0:
256,192,166355,1,8,0:0:0:0:
256,192,166445,1,0,0:0:0:0:
256,192,166536,1,0,0:0:0:0:
256,192,166626,1,8,0:0:0:0:
256,192,166671,1,0,0:0:0:0:
256,192,166716,1,0,0:0:0:0:
256,192,166807,1,8,0:0:0:0:
256,192,166897,1,0,0:0:0:0:
256,192,166987,1,0,0:0:0:0:
256,192,167078,1,0,0:0:0:0:
256,192,167168,1,8,0:0:0:0:
256,192,167259,1,0,0:0:0:0:
256,192,167349,1,8,0:0:0:0:
256,192,167439,1,8,0:0:0:0:
256,192,167530,1,0,0:0:0:0:
256,192,167620,1,8,0:0:0:0:
256,192,167710,1,0,0:0:0:0:
256,192,167756,1,0,0:0:0:0:
256,192,167801,1,8,0:0:0:0:
256,192,167846,1,8,0:0:0:0:
256,192,167891,1,0,0:0:0:0:
256,192,167981,1,0,0:0:0:0:
256,192,168072,1,8,0:0:0:0:
256,192,168162,1,0,0:0:0:0:
256,192,168253,1,8,0:0:0:0:
256,192,168343,1,8,0:0:0:0:
256,192,168433,1,0,0:0:0:0:
256,192,168478,1,0,0:0:0:0:
256,192,168524,1,8,0:0:0:0:
256,192,168614,1,0,0:0:0:0:
256,192,168704,1,8,0:0:0:0:
256,192,168795,1,0,0:0:0:0:
256,192,168885,1,0,0:0:0:0:
256,192,168975,1,8,0:0:0:0:
256,192,169021,1,8,0:0:0:0:
256,192,169066,1,0,0:0:0:0:
256,192,169156,1,8,0:0:0:0:
256,192,169246,1,0,0:0:0:0:
256,192,169292,1,0,0:0:0:0:
256,192,169337,1,0,0:0:0:0:
256,192,169427,1,8,0:0:0:0:
256,192,169518,1,0,0:0:0:0:
256,192,169563,1,0,0:0:0:0:
256,192,169608,1,0,0:0:0:0:
256,192,169698,1,8,0:0:0:0:
256,192,169789,1,0,0:0:0:0:
256,192,169879,1,8,0:0:0:0:
256,192,169924,1,8,0:0:0:0:
256,192,169969,1,0,0:0:0:0:
256,192,170060,1,0,0:0:0:0:
256,192,170150,1,0,0:0:0:0:
256,192,170240,1,8,0:0:0:0:
256,192,170301,1,8,0:0:0:0:
256,192,170361,1,8,0:0:0:0:
256,192,170421,1,8,0:0:0:0:
256,192,170481,1,8,0:0:0:0:
256,192,170542,1,8,0:0:0:0:
256,192,170602,1,0,0:0:0:0:
256,192,170963,1,8,0:0:0:0:
256,192,171144,1,0,0:0:0:0:
256,192,171234,1,0,0:0:0:0:
256,192,171325,1,0,0:0:0:0:
256,192,171506,1,8,0:0:0:0:
256,192,171686,1,0,0:0:0:0:
256,192,171867,1,8,0:0:0:0:
