osu file format v14

[General]
AudioFilename: audio.mp3
AudioLeadIn: 0
PreviewTime: 43138
Countdown: 0
SampleSet: Soft
StackLeniency: 0.4
Mode: 0
LetterboxInBreaks: 0
WidescreenStoryboard: 1

[Editor]
DistanceSpacing: 0.6
BeatDivisor: 4
GridSize: 4
TimelineZoom: 1

[Metadata]
Title:Flower Bazooka
TitleUnicode:Flower Bazooka
Artist:F-777
ArtistUnicode:F-777
Creator:ZinedineZidane
Version:Insane
Source:
Tags:
BeatmapID:1557268
BeatmapSetID:735712

[Difficulty]
HPDrainRate:6
CircleSize:3.8
OverallDifficulty:7.5
ApproachRate:9
SliderMultiplier:1.4
SliderTickRate:1

[Events]
//Background and Video events
0,0,"cropped-1920-1080-693866.jpg",0,0
//Break Periods
2,235,10440
//Storyboard Layer 0 (Background)
//Storyboard Layer 1 (Fail)
//Storyboard Layer 2 (Pass)
//Storyboard Layer 3 (Foreground)
//Storyboard Sound Samples

[TimingPoints]
35,344.827586206897,4,2,1,40,1,0
11069,-172.413793103448,4,2,1,25,0,0
16586,-153.846153846154,4,2,1,30,0,0
22103,-125,4,2,1,40,0,0
33138,-111.111111111111,4,2,1,50,0,0
40035,-111.111111111111,4,2,3,40,0,0
40724,-111.111111111111,4,2,3,30,0,0
41414,-111.111111111111,4,2,3,40,0,0
42103,-111.111111111111,4,2,1,50,0,0
42793,-111.111111111111,4,2,1,55,0,0
43138,-111.111111111111,4,2,1,35,0,0
44172,-100,4,2,2,50,0,1
44862,-100,4,2,2,50,0,0
45207,-100,4,2,2,20,0,0
45552,-100,4,2,2,50,0,1
46241,-133.333333333333,4,2,2,50,0,0
46759,-100,4,2,2,5,0,0
46931,-100,4,2,2,50,0,1
50379,-100,4,2,2,50,0,0
50724,-100,4,2,2,20,0,0
51069,-100,4,2,2,50,0,1
51759,-133.333333333333,4,2,2,50,0,0
52276,-133.333333333333,4,2,2,5,0,0
52448,-100,4,2,2,50,0,1
55897,-100,4,2,2,50,0,0
56241,-100,4,2,2,20,0,0
56586,-100,4,2,2,50,0,1
57276,-133.333333333333,4,2,2,50,0,0
57793,-133.333333333333,4,2,2,5,0,0
57966,-100,4,2,2,50,0,1
61414,-100,4,2,2,50,0,0
61759,-100,4,2,2,20,0,0
62103,-100,4,2,2,50,0,1
62793,-133.333333333333,4,2,2,50,0,0
63310,-133.333333333333,4,2,2,5,0,0
63483,-100,4,2,2,50,0,1
66241,-125,4,2,2,55,0,0
67621,-71.4285714285714,4,2,2,55,0,0
68310,-147.058823529412,4,2,2,55,0,0
68828,-147.058823529412,4,2,2,5,0,0
69000,-100,4,2,2,55,0,0
71759,-125,4,2,2,55,0,0
73138,-71.4285714285714,4,2,2,55,0,0
73828,-83.3333333333333,4,2,2,55,0,0
74086,-83.3333333333333,4,2,2,5,0,0
74172,-83.3333333333333,4,2,2,55,0,0
74345,-83.3333333333333,4,2,2,5,0,0
74517,-83.3333333333333,4,2,2,55,0,0
75897,-83.3333333333333,4,2,2,60,0,0
77276,-125,4,2,2,60,0,1
78655,-71.4285714285714,4,2,2,60,0,1
79345,-142.857142857143,4,2,2,60,0,1
79862,-142.857142857143,4,2,2,5,0,1
80035,-100,4,2,2,60,0,1
81759,-100,4,2,5,60,0,1
82276,-100,4,2,4,60,0,1
82448,-100,4,2,5,60,0,1
82621,-100,4,2,4,60,0,1
82793,-125,4,2,5,60,0,1
83310,-125,4,2,2,60,0,1
84172,-71.4285714285714,4,2,2,60,0,1
84862,-83.3333333333333,4,2,2,60,0,1
85121,-83.3333333333333,4,2,2,5,0,1
85207,-83.3333333333333,4,2,2,40,0,1
85379,-83.3333333333333,4,2,2,5,0,1
85552,-83.3333333333333,4,2,2,65,0,1
86931,-100,4,2,2,60,0,1
87276,-100,4,2,5,60,0,1
87793,-100,4,2,4,60,0,1
87966,-100,4,2,5,60,0,1
88138,-100,4,2,4,60,0,1
88310,-100,4,2,2,100,0,0
88483,-100,4,2,2,30,0,0
89690,-100,4,2,2,20,0,0
91069,-100,4,2,2,10,0,0
92448,-100,4,2,2,5,0,0

[Colours]
Combo1 : 255,192,0
Combo2 : 0,202,0
Combo3 : 18,124,255
Combo4 : 242,24,57

[HitObjects]
256,192,35,5,4,0:1:0:0:
339,225,11069,6,0,P|293:268|355:257,1,162.400004956055,6|2,0:0|0:0,0:0:0:0:
339,145,12448,2,0,P|271:154|214:240,1,162.400004956055,2|2,0:0|0:0,0:0:0:0:
147,333,13828,1,2,0:0:0:0:
147,333,14000,2,0,L|131:213,1,121.800003717041,2|0,0:0|0:0,0:0:0:0:
119,125,14862,5,0,0:0:0:0:
32,136,15207,1,0,0:0:0:0:
108,38,15552,2,0,P|146:41|188:68,1,81.2000024780274,2|2,0:0|0:0,0:0:0:0:
182,62,16069,1,0,0:0:0:0:
182,62,16241,1,2,0:0:0:0:
335,15,16586,6,0,B|287:45|286:115|286:115|317:95|353:105,1,181.999991668702,2|2,0:0|0:0,0:0:0:0:
415,61,17966,2,0,P|413:147|334:181,1,181.999991668702,2|2,0:0|0:0,0:0:0:0:
251,166,19345,1,2,0:0:0:0:
251,166,19517,1,2,0:0:0:0:
251,166,19690,6,0,P|249:195|262:223,1,45.4999979171754
177,218,20035,2,0,P|185:245|206:267,1,45.4999979171754
128,295,20379,2,0,P|145:318|173:331,1,45.4999979171754
246,326,20724,2,0,P|274:317|309:318,1,45.4999979171754
389,346,21069,6,0,P|368:306|373:260,1,90.9999958343508,2|2,0:0|0:0,0:0:0:0:
440,205,21586,1,0,0:0:0:0:
456,288,21759,1,2,0:0:0:0:
456,288,21845,1,0,0:0:0:0:
456,288,21931,1,2,0:0:0:0:
372,261,22103,6,0,P|353:213|372:151,1,112,6|0,0:0|0:0,0:0:0:0:
368,156,22621,1,0,0:0:0:0:
447,97,22793,2,0,P|391:63|342:66,1,112,2|0,0:0|0:0,0:0:0:0:
330,71,23310,1,0,0:0:0:0:
231,18,23483,6,0,L|242:146,1,112,2|0,0:0|0:0,0:0:0:0:
244,163,24000,1,0,0:0:0:0:
167,266,24172,2,0,L|157:154,1,112,2|0,0:0|0:0,0:0:0:0:
153,104,24690,1,0,0:0:0:0:
231,18,24862,5,2,0:0:0:0:
95,10,25035,2,0,P|59:48|44:104,1,112,2|0,0:0|0:0,0:0:0:0:
0,182,25552,2,0,L|7:237,1,56
83,262,25897,2,0,L|75:317,1,56
14,376,26241,1,0,0:0:0:0:
14,376,26414,1,0,0:0:0:0:
126,384,26586,6,0,L|256:372,1,112,2|0,0:0|0:0,0:0:0:0:
303,306,27103,1,0,0:0:0:0:
303,306,27276,2,0,P|322:332|331:364,1,56,2|0,0:0|0:0,0:0:0:0:
207,278,27621,6,0,P|240:227|295:207,1,112,2|0,0:0|0:0,0:0:0:0:
285,207,28138,1,0,0:0:0:0:
391,191,28310,2,0,P|349:160|337:101,1,112,2|0,0:0|0:0,0:0:0:0:
342,87,28828,1,0,0:0:0:0:
465,130,29000,6,0,P|486:182|461:255,1,112,2|0,0:0|0:0,0:0:0:0:
458,264,29517,1,0,0:0:0:0:
498,367,29690,2,0,L|375:357,1,112,2|0,0:0|0:0,0:0:0:0:
336,353,30207,1,0,0:0:0:0:
207,328,30379,5,2,0:0:0:0:
207,328,30552,2,0,P|234:273|246:219,1,112,2|0,0:0|0:0,0:0:0:0:
205,132,31069,2,0,P|179:146|161:172,1,56
83,221,31414,2,0,P|109:234|127:260,1,56
114,344,31759,1,0,0:0:0:0:
114,344,31931,1,0,0:0:0:0:
25,273,32103,6,0,L|36:148,1,112,2|2,0:0|0:0,0:0:0:0:
87,94,32621,1,0,0:0:0:0:
51,17,32793,1,2,0:0:0:0:
5,86,32966,1,0,0:0:0:0:
133,25,33138,6,0,L|195:30,1,62.9999980773926,14|0,0:0|0:0,0:0:0:0:
292,97,33483,2,0,L|230:103,1,62.9999980773926,8|0,0:0|0:0,0:0:0:0:
303,15,33828,2,0,P|335:25|362:54,1,62.9999980773926,10|0,0:0|0:0,0:0:0:0:
422,163,34172,2,0,P|392:154|368:133,1,62.9999980773926,8|0,0:0|0:0,0:0:0:0:
448,14,34517,6,0,L|442:75,1,62.9999980773926,10|0,0:0|0:0,0:0:0:0:
506,195,34862,2,0,L|511:133,1,62.9999980773926,8|0,0:0|0:0,0:0:0:0:
422,163,35207,2,0,P|422:227|470:277,1,125.999996154785,10|8,0:0|0:0,0:0:0:0:
460,272,35724,1,0,0:0:0:0:
506,195,35897,5,10,0:0:0:0:
390,234,36069,2,0,B|350:226|326:234|326:234|302:242|264:234,1,125.999996154785,2|0,0:0|0:0,0:0:0:0:
231,162,36586,2,0,P|262:155|293:160,1,62.9999980773926,8|0,0:0|0:0,0:0:0:0:
183,228,36931,2,0,P|152:223|121:230,1,62.9999980773926,8|0,0:0|0:0,0:0:0:0:
46,288,37276,1,8,0:0:0:0:
46,288,37448,1,0,0:0:0:0:
157,341,37621,6,0,P|217:329|284:329,1,125.999996154785,10|8,0:0|0:0,0:0:0:0:
363,357,38138,1,0,0:0:0:0:
443,335,38310,2,0,P|431:307|396:282,1,62.9999980773926,10|0,0:0|0:0,0:0:0:0:
294,212,38655,5,10,0:0:0:0:
281,328,38828,1,8,0:0:0:0:
321,198,39000,1,8,0:0:0:0:
205,245,39173,1,8,0:0:0:0:
236,100,39345,5,10,0:0:0:0:
348,184,39517,1,8,0:0:0:0:
216,116,39690,1,8,0:0:0:0:
344,44,39862,1,8,0:0:0:0:
196,132,40035,5,10,0:0:0:0:
375,170,40207,1,8,0:0:0:0:
312,32,40379,1,8,0:0:0:0:
402,156,40552,1,8,0:0:0:0:
280,20,40724,5,10,0:0:0:0:
176,148,40897,1,8,0:0:0:0:
117,0,41069,1,8,0:0:0:0:
280,20,41242,1,8,0:0:0:0:
104,92,41414,6,0,L|73:105,3,31.4999990386963,10|8|10|8,0:0|0:0|0:0|0:0,0:0:0:0:
176,148,41759,2,0,L|205:160,3,31.4999990386963,8|8|8|8,0:0|0:0|0:0|0:0,0:0:0:0:
104,204,42103,5,8,0:0:0:0:
104,213,42190,1,8,0:0:0:0:
104,222,42276,1,8,0:0:0:0:
104,231,42362,1,8,0:0:0:0:
104,240,42448,1,8,0:0:0:0:
109,261,42534,1,8,0:0:0:0:
121,279,42620,1,8,0:0:0:0:
138,293,42706,1,8,0:0:0:0:
158,300,42792,5,8,0:0:0:0:
290,254,43138,5,2,0:0:0:0:
294,240,43483,5,2,0:0:0:0:
275,365,43655,1,0,0:0:0:0:
376,265,43828,1,2,0:0:0:0:
352,358,44000,1,0,0:0:0:0:
214,295,44172,5,6,0:1:0:0:
294,240,44345,1,0,3:0:0:0:
194,200,44517,1,0,3:0:0:0:
274,145,44690,1,0,3:0:0:0:
214,295,44862,1,10,0:0:0:0:
214,295,45207,6,0,L|206:381,1,70,0|0,3:0|3:0,0:0:0:0:
137,235,45552,6,0,P|161:210|193:200,1,70,6|0,0:0|3:0,0:0:0:0:
54,243,45897,2,0,P|56:208|74:178,1,70,4|0,0:0|0:0,0:0:0:0:
153,78,46241,2,0,P|78:87|25:23,1,157.500006008148,10|0,0:0|0:0,0:0:0:0:
107,8,46931,5,6,0:0:0:0:
153,78,47103,1,2,3:0:0:0:
221,22,47276,5,4,0:0:0:0:
212,136,47448,1,0,3:0:0:0:
300,61,47621,2,0,P|337:51|393:53,1,70,8|0,0:0|0:0,0:0:0:0:
450,116,47966,2,0,P|415:117|381:127,1,70,0|0,3:0|3:0,0:0:0:0:
300,147,48310,5,4,0:0:0:0:
356,229,48483,1,0,3:0:0:0:
243,216,48655,1,2,3:0:0:0:
378,211,48828,1,4,0:0:0:0:
314,330,49000,5,10,0:0:0:0:
265,234,49172,1,0,0:0:0:0:
198,323,49345,2,0,P|160:333|100:319,1,70,2|0,0:0|0:0,0:0:0:0:
42,246,49690,5,6,0:0:0:0:
26,363,49862,1,0,3:0:0:0:
45,228,50035,1,0,3:0:0:0:
129,330,50207,1,0,3:0:0:0:
145,213,50379,1,10,0:0:0:0:
145,213,50724,6,0,L|152:127,1,70,0|0,3:0|3:0,0:0:0:0:
242,253,51069,6,0,L|234:167,1,70,6|0,0:0|3:0,0:0:0:0:
333,96,51414,2,0,L|327:166,1,70,4|0,0:0|0:0,0:0:0:0:
418,18,51759,2,0,L|431:176,1,157.500006008148,10|0,0:0|0:0,0:0:0:0:
442,312,52448,5,6,0:0:0:0:
339,253,52621,1,2,3:0:0:0:
373,361,52793,5,4,0:0:0:0:
256,340,52966,1,0,3:0:0:0:
230,218,53138,2,0,P|248:182|290:154,1,70,8|0,0:0|0:0,0:0:0:0:
144,293,53483,2,0,P|126:257|84:229,1,70,0|0,3:0|3:0,0:0:0:0:
0,223,53828,5,4,0:0:0:0:
49,322,54000,1,0,3:0:0:0:
58,169,54172,1,2,3:0:0:0:
43,291,54345,1,4,0:0:0:0:
136,162,54517,5,10,0:0:0:0:
3,110,54690,1,4,0:0:0:0:
194,108,54862,5,10,0:0:0:0:
58,169,55035,1,10,0:0:0:0:
124,17,55207,5,6,0:1:0:0:
194,108,55379,1,0,3:0:0:0:
247,22,55552,1,0,3:0:0:0:
268,142,55724,1,0,3:0:0:0:
362,64,55897,1,10,0:0:0:0:
362,64,56241,6,0,L|372:139,1,70,0|0,3:0|3:0,0:0:0:0:
474,27,56586,6,0,L|464:102,1,70,6|0,0:0|3:0,0:0:0:0:
362,203,56931,2,0,L|371:133,1,70,4|0,0:0|0:0,0:0:0:0:
461,211,57276,2,0,P|429:278|345:301,1,157.500006008148,10|0,0:0|0:0,0:0:0:0:
265,218,57966,5,6,0:0:0:0:
239,332,58138,1,2,3:0:0:0:
174,201,58310,5,4,0:0:0:0:
208,312,58482,1,0,3:0:0:0:
230,148,58655,6,0,P|202:127|167:125,1,70,8|0,0:0|0:0,0:0:0:0:
307,139,59000,2,0,P|297:105|272:81,1,70,0|0,3:0|3:0,0:0:0:0:
159,45,59345,5,4,0:0:0:0:
270,0,59517,1,0,3:0:0:0:
138,49,59690,1,2,3:0:0:0:
273,82,59862,1,4,0:0:0:0:
174,201,60035,5,10,0:0:0:0:
117,53,60207,1,0,0:0:0:0:
290,87,60379,2,0,L|371:79,1,70,2|0,0:0|0:0,0:0:0:0:
480,105,60724,5,6,0:0:0:0:
398,12,60897,1,0,3:0:0:0:
359,80,61069,1,0,3:0:0:0:
473,29,61241,1,0,3:0:0:0:
412,138,61414,1,10,0:0:0:0:
412,138,61759,6,0,L|418:213,1,70,0|0,3:0|3:0,0:0:0:0:
484,282,62103,6,0,P|510:249|516:209,1,70,6|0,0:0|3:0,0:0:0:0:
358,287,62448,2,0,P|333:263|321:231,1,70,4|0,0:0|0:0,0:0:0:0:
428,361,62793,2,0,B|396:358|396:358|350:378|308:350|308:350|275:347,1,157.500006008148,10|0,0:0|0:0,0:0:0:0:
156,358,63483,5,6,0:0:0:0:
220,246,63655,1,2,3:0:0:0:
275,347,63828,5,4,0:0:0:0:
211,235,64000,1,0,3:0:0:0:
147,347,64172,2,0,L|75:340,1,70,8|0,0:0|0:0,0:0:0:0:
0,255,64517,2,0,L|69:261,1,70,0|0,3:0|3:0,0:0:0:0:
202,224,64862,5,4,0:0:0:0:
105,171,65035,1,0,0:0:0:0:
256,143,65207,2,0,P|288:180|298:212,1,70,2|4,0:0|0:0,0:0:0:0:
169,106,65552,5,2,0:0:0:0:
196,69,65724,1,0,0:0:0:0:
238,50,65897,1,2,0:0:0:0:
285,53,66069,1,0,0:0:0:0:
369,128,66241,6,0,P|334:61|399:21,1,168,6|0,0:1|3:0,0:0:0:0:
450,121,66931,1,8,0:0:0:0:
497,31,67103,1,0,0:0:0:0:
442,131,67276,1,0,3:0:0:0:
505,21,67448,1,0,3:0:0:0:
434,141,67621,6,0,B|466:189|433:239|433:239|466:289|433:339,1,195.999994018555,4|4,0:0|0:0,0:0:0:0:
358,186,68310,6,0,P|318:238|357:293,1,142.800000871582,8|0,0:0|0:0,0:0:0:0:
290,348,69000,6,0,P|263:326|248:294,1,70,4|0,0:0|3:0,0:0:0:0:
296,124,69345,2,0,P|268:145|250:176,1,70,4|0,0:0|3:0,0:0:0:0:
155,296,69690,5,8,0:0:0:0:
145,172,69862,1,0,0:0:0:0:
40,246,70035,1,0,3:0:0:0:
163,308,70207,1,0,3:0:0:0:
137,160,70379,6,0,L|130:88,1,70,4|0,0:0|3:0,0:0:0:0:
33,176,70724,2,0,L|39:245,1,70,2|4,3:0|0:0,0:0:0:0:
121,344,71069,5,10,0:0:0:0:
0,339,71241,1,0,0:0:0:0:
117,265,71414,5,2,0:0:0:0:
58,384,71586,1,0,0:0:0:0:
191,375,71759,6,0,B|263:384|309:342|309:342|284:346|258:329,1,168,6|0,0:0|3:0,0:0:0:0:
210,209,72448,1,8,0:0:0:0:
299,266,72621,1,0,0:0:0:0:
196,293,72793,1,0,3:0:0:0:
324,264,72966,1,0,3:0:0:0:
266,146,73138,6,0,P|182:127|124:212,1,196,4|4,0:0|0:0,0:0:0:0:
166,98,73828,6,0,P|216:47|271:35,1,125.999996154785,8|0,0:0|0:0,0:0:0:0:
279,27,74172,2,0,L|392:35,1,83.9999974365235
474,62,74517,6,0,P|492:39|491:3,3,41.9999987182618,4|0|0|0,0:0|0:0|3:0|0:0,0:0:0:0:
399,115,74862,2,0,P|381:138|382:174,3,41.9999987182618,4|0|0|0,0:0|0:0|3:0|0:0,0:0:0:0:
476,154,75207,5,8,0:0:0:0:
476,165,75293,1,0,0:0:0:0:
476,176,75379,1,0,0:0:0:0:
476,187,75466,1,0,0:0:0:0:
476,198,75552,2,0,P|482:217|496:233,3,41.9999987182618,0|0|0|0,3:0|0:0|3:0|0:0,0:0:0:0:
396,240,75897,6,0,P|377:246|361:260,3,41.9999987182618,4|0|0|0,0:0|0:0|3:0|0:0,0:0:0:0:
337,335,76241,2,0,P|321:348|301:355,3,41.9999987182618,2|0|4|0,3:0|0:0|0:0|0:0,0:0:0:0:
252,275,76586,5,10,0:0:0:0:
241,275,76672,1,0,0:0:0:0:
230,275,76758,1,4,3:2:0:0:
219,275,76845,1,0,0:0:0:0:
208,275,76931,2,0,L|211:233,1,41.9999987182618,10|0,0:0|0:0,0:0:0:0:
135,172,77103,2,0,L|132:214,1,41.9999987182618,10|0,0:0|0:0,0:0:0:0:
127,318,77276,6,0,P|57:288|28:202,1,168,6|0,0:2|3:0,0:0:0:0:
60,88,77966,1,8,0:0:0:0:
135,151,78138,1,0,0:0:0:0:
35,93,78310,1,0,3:0:0:0:
160,146,78483,1,0,3:0:0:0:
138,34,78655,6,0,B|221:28|257:93|257:93|250:63|263:28,1,195.999994018555,4|4,0:0|0:0,0:0:0:0:
399,36,79345,6,0,P|335:50|358:112,1,146.999995513916,8|0,0:0|0:0,0:0:0:0:
483,86,80035,6,0,P|495:53|495:19,1,70,4|0,0:0|3:0,0:0:0:0:
429,149,80379,2,0,P|428:183|440:216,1,70,4|0,0:0|3:0,0:0:0:0:
492,340,80724,5,8,0:0:0:0:
512,251,80897,1,0,0:0:0:0:
405,348,81069,1,0,3:0:0:0:
371,254,81241,1,0,3:0:0:0:
286,336,81414,6,0,P|248:343|203:332,1,70,4|0,0:0|3:0,0:0:0:0:
142,291,81759,2,0,P|107:286|73:292,1,70,8|4,3:0|0:0,0:0:0:0:
0,384,82103,5,10,0:0:0:0:
9,244,82276,1,2,0:0:0:0:
109,367,82448,5,2,0:0:0:0:
142,209,82621,1,2,0:0:0:0:
0,203,82793,6,0,B|45:183|45:183|60:139|91:111|147:107,1,168,6|0,0:0|3:0,0:0:0:0:
260,149,83483,1,8,0:0:0:0:
142,209,83655,1,0,0:0:0:0:
246,125,83828,1,0,3:0:0:0:
278,244,84000,1,0,3:0:0:0:
328,94,84172,6,0,B|358:133|341:180|341:180|376:223|357:279,1,195.999994018555,4|4,0:0|0:0,0:0:0:0:
441,290,84862,6,0,P|448:227|432:166,1,125.999996154785,8|0,0:0|0:0,0:0:0:0:
431,153,85207,2,0,P|429:112|413:73,1,83.9999974365235,8|0,0:0|0:0,0:0:0:0:
334,33,85552,6,0,P|348:11|377:-3,3,41.9999987182618,4|0|0|0,0:0|0:0|3:0|0:0,0:0:0:0:
285,103,85897,2,0,P|269:91|259:73,3,41.9999987182618,4|0|0|0,0:0|0:0|3:0|0:0,0:0:0:0:
346,172,86241,5,8,0:0:0:0:
325,186,86327,1,0,0:0:0:0:
301,194,86413,1,0,0:0:0:0:
276,195,86499,1,0,0:0:0:0:
252,189,86585,1,0,3:0:0:0:
230,177,86672,1,0,0:0:0:0:
212,159,86759,2,0,P|193:132|171:118,1,41.9999987182618,0|0,3:0|0:0,0:0:0:0:
114,58,86931,6,0,P|94:88|89:124,1,70,4|0,0:0|3:0,0:0:0:0:
2,131,87276,2,0,P|12:165|36:192,1,70,8|4,3:0|0:0,0:0:0:0:
160,233,87621,5,10,0:0:0:0:
54,334,87793,1,2,0:0:0:0:
200,303,87966,5,2,0:0:0:0:
76,258,88138,1,2,0:0:0:0:
240,233,88310,5,6,0:1:0:0:
256,192,88483,12,0,92448,0:0:0:0:
