osu file format v14

[General]
AudioFilename: audio.mp3
AudioLeadIn: 0
PreviewTime: -1
Countdown: 0
SampleSet: Soft
StackLeniency: 0.4
Mode: 0
LetterboxInBreaks: 0
WidescreenStoryboard: 1

[Editor]
DistanceSpacing: 1.3
BeatDivisor: 4
GridSize: 32
TimelineZoom: 1

[Metadata]
Title:Flower Bazooka
TitleUnicode:Flower Bazooka
Artist:F-777
ArtistUnicode:F-777
Creator:ZinedineZidane
Version:Hard
Source:
Tags:
BeatmapID:1566179
BeatmapSetID:735712

[Difficulty]
HPDrainRate:4.5
CircleSize:4
OverallDifficulty:6
ApproachRate:8
SliderMultiplier:1.4
SliderTickRate:1

[Events]
//Background and Video events
0,0,"cropped-1920-1080-693866.jpg",0,0
//Break Periods
2,235,10319
//Storyboard Layer 0 (Background)
//Storyboard Layer 1 (Fail)
//Storyboard Layer 2 (Pass)
//Storyboard Layer 3 (Foreground)
//Storyboard Sound Samples

[TimingPoints]
35,344.827586206897,4,2,1,40,1,0
11069,-172.413793103448,4,2,1,25,0,0
16586,-153.846153846154,4,2,1,30,0,0
22103,-125,4,2,1,40,0,0
33138,-111.111111111111,4,2,1,50,0,0
40035,-111.111111111111,4,2,3,40,0,0
40724,-111.111111111111,4,2,3,30,0,0
41414,-111.111111111111,4,2,3,40,0,0
42103,-111.111111111111,4,2,1,50,0,0
42793,-111.111111111111,4,2,1,55,0,0
43138,-111.111111111111,4,2,1,35,0,0
44172,-100,4,2,2,50,0,1
44862,-100,4,2,2,50,0,0
45207,-100,4,2,2,20,0,0
45552,-100,4,2,2,50,0,1
46241,-133.333333333333,4,2,2,50,0,0
46759,-100,4,2,2,5,0,0
46931,-100,4,2,2,50,0,1
50379,-100,4,2,2,50,0,0
50724,-100,4,2,2,20,0,0
51069,-100,4,2,2,50,0,1
51759,-133.333333333333,4,2,2,50,0,0
52276,-133.333333333333,4,2,2,5,0,0
52448,-100,4,2,2,50,0,1
55897,-100,4,2,2,50,0,0
56241,-100,4,2,2,20,0,0
56586,-100,4,2,2,50,0,1
57276,-133.333333333333,4,2,2,50,0,0
57793,-133.333333333333,4,2,2,5,0,0
57966,-100,4,2,2,50,0,1
61414,-100,4,2,2,50,0,0
61759,-100,4,2,2,20,0,0
62103,-100,4,2,2,50,0,1
62793,-133.333333333333,4,2,2,50,0,0
63310,-133.333333333333,4,2,2,5,0,0
63483,-100,4,2,2,50,0,1
66241,-83.3333333333333,4,2,2,55,0,0
69000,-83.3333333333333,4,2,2,55,0,0
70724,-83.3333333333333,4,2,4,55,0,0
72103,-83.3333333333333,4,2,2,55,0,0
73138,-55.5555555555556,4,2,2,55,0,0
73397,-55.5555555555556,4,2,2,5,0,0
73483,-55.5555555555556,4,2,2,55,0,0
73741,-55.5555555555556,4,2,2,5,0,0
73828,-83.3333333333333,4,2,2,55,0,0
74086,-83.3333333333333,4,2,2,5,0,0
74172,-83.3333333333333,4,2,2,55,0,0
74345,-83.3333333333333,4,2,2,5,0,0
74517,-83.3333333333333,4,2,2,55,0,0
75897,-83.3333333333333,4,2,2,60,0,0
76241,-83.3333333333333,4,2,4,60,0,0
76328,-83.3333333333333,4,2,2,60,0,0
76586,-83.3333333333333,4,2,4,60,0,0
76672,-83.3333333333333,4,2,2,60,0,0
76759,-83.3333333333333,4,2,4,60,0,0
76845,-83.3333333333333,4,2,2,60,0,0
76931,-83.3333333333333,4,2,4,60,0,0
77017,-83.3333333333333,4,2,2,60,0,0
77103,-83.3333333333333,4,2,4,60,0,0
77190,-83.3333333333333,4,2,2,60,0,0
77276,-100,4,2,2,60,0,0
77621,-100,4,2,2,60,0,1
78655,-55.5555555555556,4,2,2,60,0,1
78914,-55.5555555555556,4,2,2,5,0,1
79000,-55.5555555555556,4,2,2,60,0,1
79259,-55.5555555555556,4,2,2,5,0,1
79345,-83.3333333333333,4,2,2,60,0,1
79862,-83.3333333333333,4,2,2,5,0,1
80035,-83.3333333333333,4,2,2,60,0,1
81759,-83.3333333333333,4,2,5,60,0,1
82276,-83.3333333333333,4,2,4,60,0,1
82448,-83.3333333333333,4,2,5,60,0,1
82621,-83.3333333333333,4,2,4,60,0,1
82793,-83.3333333333333,4,2,5,60,0,1
83138,-83.3333333333333,4,2,2,60,0,1
84172,-55.5555555555556,4,2,2,60,0,1
84431,-55.5555555555556,4,2,2,5,0,1
84517,-55.5555555555556,4,2,2,60,0,1
84776,-55.5555555555556,4,2,2,5,0,1
84862,-83.3333333333333,4,2,2,60,0,1
85121,-83.3333333333333,4,2,2,5,0,1
85207,-83.3333333333333,4,2,2,40,0,1
85379,-83.3333333333333,4,2,2,5,0,1
85552,-83.3333333333333,4,2,2,65,0,1
86931,-83.3333333333333,4,2,2,60,0,1
87276,-83.3333333333333,4,2,5,60,0,1
87793,-83.3333333333333,4,2,4,60,0,1
87966,-83.3333333333333,4,2,5,60,0,1
88138,-83.3333333333333,4,2,4,60,0,1
88310,-100,4,2,2,60,0,0
88483,-100,4,2,2,30,0,0
89690,-100,4,2,2,20,0,0
91069,-100,4,2,2,10,0,0
92448,-100,4,2,2,5,0,0

[Colours]
Combo1 : 255,192,0
Combo2 : 0,202,0
Combo3 : 18,124,255
Combo4 : 242,24,57

[HitObjects]
256,192,35,5,4,0:1:0:0:
118,104,11069,6,0,B|100:184|100:184|119:268,1,162.400004956055
329,182,12448,2,0,P|257:149|185:182,1,162.400004956055
365,271,13828,1,0,0:0:0:0:
365,271,14000,2,0,P|306:276|256:244,1,121.800003717041
329,182,14862,5,0,0:0:0:0:
425,196,15207,1,0,0:0:0:0:
397,105,15552,2,0,P|362:83|316:80,1,81.2000024780274
323,78,16069,1,0,0:0:0:0:
323,78,16241,1,0,0:0:0:0:
200,11,16586,6,0,P|245:51|162:82,1,181.999991668702
49,11,17966,2,0,P|4:51|87:82,1,181.999991668702
122,209,19345,1,0,0:0:0:0:
122,209,19517,1,0,0:0:0:0:
122,209,19690,6,0,L|122:146,1,45.4999979171754
204,236,20035,2,0,L|198:173,1,45.4999979171754
282,259,20379,2,0,L|287:196,1,45.4999979171754
366,235,20724,2,0,L|369:280,1,45.4999979171754
415,361,21069,6,0,P|448:331|462:283,1,90.9999958343508
443,206,21586,1,0,0:0:0:0:
443,206,21759,2,0,L|446:161,1,45.4999979171754
488,81,22103,6,0,B|444:66|408:81|408:81|368:98|320:81,1,168
241,73,22793,2,0,P|286:7|367:10,1,168
324,82,23483,2,0,L|309:249,1,168
373,320,24172,2,0,P|306:273|230:301,1,168
180,371,24862,1,0,0:0:0:0:
180,371,25035,2,0,P|194:286|193:186,1,168
161,129,25724,5,0,0:0:0:0:
161,129,25897,2,0,P|128:151|121:170,1,56
53,132,26241,2,0,P|43:171|48:189,1,56
102,247,26586,2,0,L|92:358,1,112
92,358,27103,1,0,0:0:0:0:
92,358,27276,1,0,0:0:0:0:
245,291,27621,6,0,P|247:361|183:332,1,168
179,233,28310,2,0,P|250:203|326:259,1,168
357,334,29000,2,0,L|371:166,1,168
412,90,29690,2,0,B|372:70|332:90|332:90|288:70|250:89,1,168
287,166,30379,1,0,0:0:0:0:
287,166,30552,2,0,P|206:162|165:86,1,168
195,21,31241,5,0,0:0:0:0:
194,20,31414,2,0,P|165:14|129:28,1,56
86,87,31759,2,0,P|59:94|32:87,1,56
20,170,32103,6,0,P|30:224|20:285,1,112
1,356,32621,1,0,0:0:0:0:
77,334,32793,1,0,0:0:0:0:
146,373,32966,1,0,0:0:0:0:
222,351,33138,6,0,P|271:340|360:339,1,125.999996154785
429,344,33655,1,0,0:0:0:0:
393,268,33828,2,0,P|325:255|243:269,1,125.999996154785
187,279,34345,1,0,0:0:0:0:
209,196,34517,6,0,P|262:179|346:179,1,125.999996154785
417,187,35035,1,0,0:0:0:0:
378,108,35207,2,0,P|310:95|228:109,1,125.999996154785
164,123,35724,1,0,0:0:0:0:
193,42,35897,5,0,0:0:0:0:
103,56,36069,2,0,P|74:113|89:173,1,125.999996154785
161,220,36586,2,0,P|192:214|225:219,1,62.9999980773926
283,284,36931,2,0,P|314:288|345:283,1,62.9999980773926
421,240,37276,1,0,0:0:0:0:
421,240,37448,1,0,0:0:0:0:
459,316,37621,6,0,P|499:273|494:202,1,125.999996154785
424,158,38138,1,0,0:0:0:0:
490,104,38310,2,0,L|496:33,1,62.9999980773926
407,11,38655,6,0,L|401:73,1,62.9999980773926
318,58,39000,2,0,L|323:120,1,62.9999980773926
232,81,39345,6,0,L|237:18,1,62.9999980773926
154,127,39690,2,0,L|148:64,1,62.9999980773926
78,157,40035,6,0,P|94:185|123:202,1,62.9999980773926
204,218,40379,1,0,0:0:0:0:
204,218,40552,1,0,0:0:0:0:
175,297,40724,6,0,P|201:303|252:286,1,62.9999980773926
309,255,41069,1,0,0:0:0:0:
309,255,41241,1,0,0:0:0:0:
354,332,41414,6,0,L|349:377,7,31.4999990386963
391,302,42103,2,0,L|393:270,7,31.4999990386963
421,333,42793,5,0,0:0:0:0:
470,197,43138,2,0,P|409:164|355:170,1,125.999996154785
281,206,43655,1,0,0:0:0:0:
211,162,43828,1,0,0:0:0:0:
138,198,44000,1,0,0:0:0:0:
68,150,44172,6,0,P|100:120|147:116,1,70
138,198,44517,2,0,L|131:277,1,70
126,365,44862,1,0,0:0:0:0:
126,365,45207,6,0,P|88:356|58:331,1,70
132,268,45552,6,0,P|170:277|200:302,1,70
275,352,45897,2,0,L|283:259,1,70
358,384,46241,2,0,L|371:227,1,157.500006008148
379,132,46931,5,0,0:0:0:0:
463,191,47103,2,0,P|483:142|472:96,1,70
421,49,47448,1,0,0:0:0:0:
323,62,47621,2,0,L|224:53,1,70
170,20,47966,2,0,L|100:26,1,70
4,40,48310,5,0,0:0:0:0:
4,40,48483,1,0,0:0:0:0:
63,113,48655,2,0,P|71:149|72:183,1,70
85,278,49000,5,0,0:0:0:0:
26,363,49172,1,0,0:0:0:0:
123,372,49345,2,0,P|160:370|217:356,1,70
241,287,49690,6,0,P|275:280|310:278,1,70
394,325,50035,1,0,0:0:0:0:
394,325,50207,1,0,0:0:0:0:
480,265,50379,1,0,0:0:0:0:
480,265,50724,6,0,P|498:299|491:352,1,70
394,325,51069,6,0,P|392:287|402:230,1,70
440,178,51414,2,0,P|442:140|432:83,1,70
507,43,51759,2,0,P|438:77|367:50,1,157.500006008148
275,5,52448,5,0,0:0:0:0:
249,99,52621,2,0,L|256:190,1,70
274,264,52966,1,0,0:0:0:0:
189,239,53138,2,0,P|166:210|159:174,1,70
74,97,53483,2,0,L|68:166,1,70
28,266,53828,5,0,0:0:0:0:
28,266,54000,1,0,0:0:0:0:
94,340,54172,2,0,L|177:332,1,70
260,319,54517,5,0,0:0:0:0:
260,319,54690,1,0,0:0:0:0:
273,222,54862,5,0,0:0:0:0:
353,290,55035,1,0,0:0:0:0:
373,181,55207,6,0,P|345:140|309:121,1,70
247,93,55552,1,0,0:0:0:0:
247,93,55724,1,0,0:0:0:0:
312,34,55897,1,0,0:0:0:0:
312,34,56241,6,0,L|407:42,1,70
472,21,56586,6,0,P|464:56|464:91,1,70
498,181,56931,2,0,P|498:215|493:250,1,70
491,354,57276,2,0,P|423:318|347:334,1,157.500006008148
262,376,57966,5,0,0:0:0:0:
186,314,58138,2,0,L|100:321,2,70
266,255,58655,2,0,P|211:217|135:228,1,140
60,254,59172,1,0,0:0:0:0:
26,162,59345,6,0,L|33:76,1,70
30,10,59690,2,0,P|65:14|93:38,1,70
118,125,60035,1,0,0:0:0:0:
179,57,60207,1,0,0:0:0:0:
226,139,60379,2,0,P|258:150|296:154,1,70
