osu file format v14

[General]
AudioFilename: audio.mp3
AudioLeadIn: 0
PreviewTime: 90945
Countdown: 0
SampleSet: Normal
StackLeniency: 0.7
Mode: 1
LetterboxInBreaks: 0
WidescreenStoryboard: 1

[Editor]
Bookmarks: 156,4656,5208,10261,20366,30471,40577,50682,70892,80998,91103,101208,111313,121419,131524,141629,151734
DistanceSpacing: 0.8
BeatDivisor: 4
GridSize: 32
TimelineZoom: 1.800002

[Metadata]
Title:Fasten Your Seatbelts
TitleUnicode:Fasten Your Seatbelts
Artist:F-777
ArtistUnicode:F-777
Creator:Volta
Version:Oni
Source:osu!
Tags:Featured Artist FA Mappers' Guild MG F777 Jesse Valentine Ludicrous Speed Electronic Instrumental Nardoxyribonucleic
BeatmapID:2284843
BeatmapSetID:1093139

[Difficulty]
HPDrainRate:5.5
CircleSize:5
OverallDifficulty:6
ApproachRate:5
SliderMultiplier:1.4
SliderTickRate:1

[Events]
//Background and Video events
0,0,"aaaaaaaaaaaaaaaaaaaaaaaaaaaaaaaaaaaaaaaaaaaaaaa.jpeg",0,-70
//Break Periods
//Storyboard Layer 0 (Background)
//Storyboard Layer 1 (Fail)
//Storyboard Layer 2 (Pass)
//Storyboard Layer 3 (Foreground)
//Storyboard Layer 4 (Overlay)
//Storyboard Sound Samples

[TimingPoints]
172,315.789473684211,4,1,0,70,1,0
1435,-83.3333333333333,4,1,0,70,0,0
2698,-71.4285714285714,4,1,0,70,0,0
3961,-62.5,4,1,0,70,0,0
5224,-55.5555555555556,4,1,0,80,0,0
6487,-50,4,1,0,80,0,0
7750,-45.4545454545455,4,1,0,80,0,0
9014,-41.6666666666667,4,1,0,80,0,0
9645,-55.5555555555556,4,1,0,80,0,0
10277,-100,4,1,0,90,0,1
30487,-100,4,1,0,80,0,0
50698,-100,4,1,0,90,0,1
59540,-100,4,1,0,80,0,0
60803,-100,4,1,0,90,0,1
67119,-100,4,1,0,80,0,1
67435,-100,4,1,0,70,0,1
67750,-100,4,1,0,60,0,1
68066,-100,4,1,0,50,0,1
68382,-100,4,1,0,40,0,1
69645,-100,4,1,0,50,0,1
69961,-100,4,1,0,60,0,1
70277,-100,4,1,0,70,0,1
70593,-100,4,1,0,80,0,1
70908,-100,4,1,0,90,0,0
72172,-100,4,1,0,90,0,0
73435,-100,4,1,0,90,0,0
74698,-105.263157894737,4,1,0,90,0,0
75961,-111.111111111111,4,1,0,90,0,0
77224,-117.647058823529,4,1,0,90,0,0
78487,-125,4,1,0,90,0,0
79750,-133.333333333333,4,1,0,90,0,0
81014,-142.857142857143,4,1,0,80,0,0
81487,-137.816979051819,4,1,0,80,0,0
81645,-134.071315821427,4,1,0,80,0,0
81961,-130.523868628958,4,1,0,80,0,0
82119,-127.159309021113,4,1,0,80,0,0
82277,-123.963849334805,4,1,0,80,0,0
82593,-120.925053845873,4,1,0,80,0,0
82750,-118.031677029699,4,1,0,80,0,0
82908,-115.273524498886,4,1,0,80,0,0
83224,-112.641332993284,4,1,0,80,0,0
83540,-110.126666445028,4,1,0,80,0,0
84014,-107.721825661371,4,1,0,80,0,0
84172,-105.419769588187,4,1,0,80,0,0
84487,-103.214046458006,4,1,0,80,0,0
84645,-101.098733404548,4,1,0,80,0,0
84803,-99.0683833535208,4,1,0,80,0,0
85119,-97.1179781869356,4,1,0,80,0,0
85277,-95.2428873330554,4,1,0,80,0,0
85435,-93.4388310625934,4,1,0,80,0,0
85593,-91.7018478787459,4,1,0,80,0,0
85750,-90.0282654780671,4,1,0,80,0,0
85908,-88.4146748341808,4,1,0,80,0,0
86066,-86.8579070194299,4,1,0,80,0,0
86224,-85.3550124328433,4,1,0,80,0,0
86540,-83.903242147923,4,1,0,80,0,0
86698,-82.5000311320872,4,1,0,80,0,0
87014,-81.1429831222595,4,1,0,80,0,0
87172,-79.8298569689959,4,1,0,80,0,0
87329,-78.5585542854433,4,1,0,80,0,0
87487,-77.3271082579516,4,1,0,80,0,0
87566,-76.1336734928406,4,1,0,80,0,0
87645,-74.9765167890812,4,1,0,80,0,0
87803,-73.8540087398555,4,1,0,80,0,0
87961,-72.7646160774106,4,1,0,80,0,0
88277,-71.706894685572,4,1,0,80,0,0
88435,-70.6794832129559,4,1,0,80,0,0
88593,-69.6810972274812,4,1,0,80,0,0
88750,-68.7105238594053,4,1,0,80,0,0
88908,-67.7666168859066,4,1,0,80,0,0
88987,-66.8482922153272,4,1,0,80,0,0
89066,-65.9545237336731,4,1,0,80,0,0
89224,-65.0843394799147,4,1,0,80,0,0
89382,-64.2368181201156,4,1,0,80,0,0
89461,-63.4110856935019,4,1,0,80,0,0
89540,-62.6063126063126,4,1,0,80,0,0
89619,-61.8217108516932,4,1,0,80,0,0
89698,-61.0565314360496,4,1,0,80,0,0
89856,-60.310061994192,4,1,0,80,0,0
89935,-59.5816245773077,4,1,0,80,0,0
90014,-58.8705735993247,4,1,0,80,0,0
90093,-58.1762939285902,4,1,0,80,0,0
90172,-57.4981991130089,4,1,0,80,0,0
90250,-56.8357297278748,4,1,0,80,0,0
90329,-56.188351836617,4,1,0,80,0,0
90487,-55.5555555555556,4,1,0,80,0,0
91119,-100,4,1,0,90,0,1
111329,-100,4,1,0,80,0,0
131856,-100,4,1,0,80,0,0
141645,-100,4,1,0,80,0,0
141803,-98.9956958393113,4,1,0,80,0,0
141961,-98.0113636363636,4,1,0,80,0,0
142198,-97.0464135021097,4,1,0,80,0,0
142277,-96.100278551532,4,1,0,80,0,0
142435,-95.1724137931034,4,1,0,80,0,0
142593,-94.2622950819672,4,1,0,80,0,0
142908,-92.4932975871314,4,1,0,80,0,0
143066,-91.6334661354582,4,1,0,80,0,0
143224,-90.7894736842105,4,1,0,80,0,0
143382,-89.9608865710561,4,1,0,80,0,0
143540,-88.348271446863,4,1,0,80,0,0
143698,-87.5634517766498,4,1,0,80,0,0
143856,-86.7924528301887,4,1,0,80,0,0
144172,-86.0349127182045,4,1,0,80,0,0
144329,-85.2904820766378,4,1,0,80,0,0
144487,-84.5588235294118,4,1,0,80,0,0
144724,-83.8396111786148,4,1,0,80,0,0
144803,-83.1325301204819,4,1,0,80,0,0
144961,-82.4372759856631,4,1,0,80,0,0
145119,-81.7535545023697,4,1,0,80,0,0
145435,-80.4195804195804,4,1,0,80,0,0
145593,-79.7687861271676,4,1,0,80,0,0
145750,-79.1284403669725,4,1,0,80,0,0
145908,-78.4982935153584,4,1,0,80,0,0
145987,-77.8781038374718,4,1,0,80,0,0
146066,-77.2676371780515,4,1,0,80,0,0
146224,-76.6666666666667,4,1,0,80,0,0
146382,-76.0749724366042,4,1,0,80,0,0
146540,-75.492341356674,4,1,0,80,0,0
146619,-74.9185667752443,4,1,0,80,0,0
146698,-74.3534482758621,4,1,0,80,0,0
146856,-73.7967914438503,4,1,0,80,0,0
147014,-73.2484076433121,4,1,0,80,0,0
147329,-72.1757322175732,4,1,0,80,0,0
147487,-71.6510903426791,4,1,0,80,0,0
147645,-71.1340206185567,4,1,0,80,0,0
147882,-70.6243602865916,4,1,0,80,0,0
147961,-70.1219512195122,4,1,0,80,0,0
148119,-69.6266397578204,4,1,0,80,0,0
148277,-69.1382765531062,4,1,0,70,0,0
148435,-68.6567164179104,4,1,0,70,0,0
148514,-68.1818181818182,4,1,0,70,0,0
148593,-67.7134445534838,4,1,0,60,0,0
148750,-67.2514619883041,4,1,0,60,0,0
148908,-66.7957405614714,4,1,0,50,0,0
149224,-66.3461538461538,4,1,0,40,0,0
149382,-65.9025787965616,4,1,0,40,0,0
149540,-65.4648956356736,4,1,0,40,0,0
149777,-65.0329877474081,4,1,0,40,0,0
149856,-64.6067415730337,4,1,0,40,0,0
150014,-64.1860465116279,4,1,0,40,0,0
150172,-63.7707948243993,4,1,0,40,0,0
150329,-63.3608815426997,4,1,0,40,0,0
150487,-62.5566636446056,4,1,0,50,0,0
150645,-62.1621621621622,4,1,0,50,0,0
150803,-61.7726051924799,4,1,0,60,0,0
150882,-61.3879003558719,4,1,0,60,0,0
150961,-61.0079575596817,4,1,0,60,0,0
151119,-60.2620087336245,4,1,0,70,0,0
151277,-59.8958333333333,4,1,0,70,0,0
151435,-59.5340811044003,4,1,0,80,0,0
151593,-59.1766723842196,4,1,0,80,0,0
151672,-58.8235294117647,4,1,0,80,0,0

[HitObjects]
256,192,172,12,0,5066,0:0:0:0:
145,338,5224,6,4,B|60:273|57:188|54:44|103:28|341:11|240:257|344:146|424:211,6,566.999982696534
160,288,9645,5,4,0:0:0:0:
216,159,10277,1,12,0:0:0:0:
352,96,10593,1,0,0:0:0:0:
132,151,10750,1,0,0:0:0:0:
352,96,10908,1,8,0:0:0:0:
352,96,10987,1,8,0:0:0:0:
352,96,11066,1,8,0:0:0:0:
352,96,11145,1,8,0:0:0:0:
352,96,11224,1,0,0:0:0:0:
352,96,11382,1,0,0:0:0:0:
352,96,11540,1,8,0:0:0:0:
352,96,11619,1,8,0:0:0:0:
352,96,11698,1,8,0:0:0:0:
352,96,11777,1,8,0:0:0:0:
352,96,11856,1,0,0:0:0:0:
352,96,12014,1,0,0:0:0:0:
160,96,12172,1,8,0:0:0:0:
288,151,12250,1,0,0:0:0:0:
352,96,12329,1,8,0:0:0:0:
160,96,12487,1,0,0:0:0:0:
352,96,12645,1,8,0:0:0:0:
160,96,12803,1,0,0:0:0:0:
130,158,12882,1,0,0:0:0:0:
160,96,12961,1,0,0:0:0:0:
160,96,13040,1,0,0:0:0:0:
160,96,13119,1,8,0:0:0:0:
160,96,13277,1,8,0:0:0:0:
160,96,13435,1,0,0:0:0:0:
160,96,13514,1,0,0:0:0:0:
160,96,13593,1,0,0:0:0:0:
160,96,13672,1,0,0:0:0:0:
160,96,13750,1,8,0:0:0:0:
160,96,13908,1,0,0:0:0:0:
352,96,14066,1,8,0:0:0:0:
43,145,14145,1,8,0:0:0:0:
43,145,14224,1,8,0:0:0:0:
352,96,14382,1,0,0:0:0:0:
352,96,14540,1,8,0:0:0:0:
37,133,14619,1,8,0:0:0:0:
70,131,14698,1,8,0:0:0:0:
102,128,14856,1,0,0:0:0:0:
352,96,15014,1,8,0:0:0:0:
177,99,15093,1,8,0:0:0:0:
28,148,15172,1,8,0:0:0:0:
176,128,15250,1,8,0:0:0:0:
160,96,15329,1,0,0:0:0:0:
160,96,15645,1,8,0:0:0:0:
160,96,15803,1,8,0:0:0:0:
160,96,15961,1,0,0:0:0:0:
160,96,16040,1,0,0:0:0:0:
160,96,16119,1,0,0:0:0:0:
160,96,16198,1,0,0:0:0:0:
160,96,16277,1,8,0:0:0:0:
160,96,16435,1,8,0:0:0:0:
160,96,16593,1,0,0:0:0:0:
160,96,16672,1,0,0:0:0:0:
160,96,16750,1,0,0:0:0:0:
202,100,16829,1,0,0:0:0:0:
160,96,16908,1,8,0:0:0:0:
160,96,17066,1,0,0:0:0:0:
352,96,17224,1,8,0:0:0:0:
214,140,17303,1,8,0:0:0:0:
160,96,17382,1,0,0:0:0:0:
352,96,17540,1,8,0:0:0:0:
160,96,17698,1,0,0:0:0:0:
352,96,17856,1,8,0:0:0:0:
352,96,17935,1,8,0:0:0:0:
352,96,18014,1,8,0:0:0:0:
352,96,18093,1,8,0:0:0:0:
352,96,18172,1,0,0:0:0:0:
352,96,18329,1,0,0:0:0:0:
352,96,18487,1,8,0:0:0:0:
352,96,18566,1,8,0:0:0:0:
352,96,18645,1,8,0:0:0:0:
352,96,18724,1,8,0:0:0:0:
352,96,18803,1,0,0:0:0:0:
352,96,18961,1,0,0:0:0:0:
160,96,19119,1,8,0:0:0:0:
352,96,19198,1,8,0:0:0:0:
352,96,19277,1,0,0:0:0:0:
352,96,19435,1,0,0:0:0:0:
160,96,19593,1,8,0:0:0:0:
352,96,19672,1,8,0:0:0:0:
352,96,19750,1,8,0:0:0:0:
63,142,19908,1,0,0:0:0:0:
148,110,19987,1,0,0:0:0:0:
160,96,20066,1,8,0:0:0:0:
352,96,20145,1,0,0:0:0:0:
352,96,20224,1,8,0:0:0:0:
81,144,20303,1,8,0:0:0:0:
160,96,20382,1,0,0:0:0:0:
352,96,20698,1,8,0:0:0:0:
352,96,20856,1,8,0:0:0:0:
160,96,21014,1,0,0:0:0:0:
160,96,21093,1,0,0:0:0:0:
160,96,21172,1,8,0:0:0:0:
160,96,21250,1,8,0:0:0:0:
352,96,21329,1,0,0:0:0:0:
352,96,21487,1,8,0:0:0:0:
160,96,21645,1,0,0:0:0:0:
160,96,21724,1,0,0:0:0:0:
160,96,21803,1,0,0:0:0:0:
160,96,21882,1,0,0:0:0:0:
352,96,21961,1,8,0:0:0:0:
352,96,22119,1,8,0:0:0:0:
160,96,22277,1,0,0:0:0:0:
352,96,22435,1,8,0:0:0:0:
352,96,22514,1,8,0:0:0:0:
160,96,22593,1,0,0:0:0:0:
352,96,22750,1,0,0:0:0:0:
160,96,22908,1,8,0:0:0:0:
101,153,22987,1,8,0:0:0:0:
101,153,23066,1,8,0:0:0:0:
101,153,23145,1,8,0:0:0:0:
352,96,23224,1,0,0:0:0:0:
352,96,23382,1,0,0:0:0:0:
160,96,23540,1,8,0:0:0:0:
160,96,23619,1,8,0:0:0:0:
160,96,23698,1,0,0:0:0:0:
160,96,23777,1,0,0:0:0:0:
352,96,23856,1,8,0:0:0:0:
160,96,24014,1,0,0:0:0:0:
352,96,24172,1,8,0:0:0:0:
352,96,24250,1,8,0:0:0:0:
160,96,24329,1,8,0:0:0:0:
352,96,24487,1,0,0:0:0:0:
160,96,24645,1,8,0:0:0:0:
352,96,24724,1,8,0:0:0:0:
352,96,24803,1,8,0:0:0:0:
160,96,24961,1,0,0:0:0:0:
352,96,25119,1,8,0:0:0:0:
352,96,25198,1,8,0:0:0:0:
160,96,25277,1,8,0:0:0:0:
116,102,25356,1,8,0:0:0:0:
352,96,25435,1,0,0:0:0:0:
160,96,25750,1,8,0:0:0:0:
160,96,25908,1,8,0:0:0:0:
352,96,26066,1,0,0:0:0:0:
352,96,26145,1,0,0:0:0:0:
352,96,26224,1,8,0:0:0:0:
352,96,26303,1,8,0:0:0:0:
160,96,26382,1,0,0:0:0:0:
160,96,26540,1,8,0:0:0:0:
352,96,26698,1,0,0:0:0:0:
352,96,26777,1,0,0:0:0:0:
352,96,26856,1,0,0:0:0:0:
352,96,26935,1,0,0:0:0:0:
160,96,27014,1,8,0:0:0:0:
160,96,27172,1,8,0:0:0:0:
352,96,27329,1,0,0:0:0:0:
160,96,27487,1,8,0:0:0:0:
61,154,27566,1,8,0:0:0:0:
352,96,27645,1,0,0:0:0:0:
160,96,27803,1,0,0:0:0:0:
352,96,27961,1,8,0:0:0:0:
220,36,28040,1,8,0:0:0:0:
220,36,28119,1,8,0:0:0:0:
352,96,28198,1,8,0:0:0:0:
160,96,28277,1,0,0:0:0:0:
160,96,28435,1,0,0:0:0:0:
352,96,28593,1,8,0:0:0:0:
352,96,28672,1,8,0:0:0:0:
352,96,28750,1,0,0:0:0:0:
352,96,28829,1,0,0:0:0:0:
160,96,28908,1,8,0:0:0:0:
160,96,29066,1,0,0:0:0:0:
352,96,29224,1,8,0:0:0:0:
160,96,29303,5,0,0:0:0:0:
352,96,29461,1,8,0:0:0:0:
160,96,29540,1,0,0:0:0:0:
352,96,29698,1,8,0:0:0:0:
160,96,29856,1,8,0:0:0:0:
160,96,29935,1,8,0:0:0:0:
352,96,30014,1,0,0:0:0:0:
176,115,30172,1,8,0:0:0:0:
177,112,30487,1,4,0:0:0:0:
181,119,30645,1,0,0:0:0:0:
301,146,30803,1,8,0:0:0:0:
208,101,30882,1,8,0:0:0:0:
160,96,30961,1,0,0:0:0:0:
168,86,31040,1,0,0:0:0:0:
352,96,31119,1,8,0:0:0:0:
29,159,31277,1,0,0:0:0:0:
352,96,31435,1,8,0:0:0:0:
160,96,31593,1,0,0:0:0:0:
41,168,31672,1,0,0:0:0:0:
352,96,31750,1,8,0:0:0:0:
189,148,31908,1,0,0:0:0:0:
352,96,32066,1,8,0:0:0:0:
160,96,32224,1,0,0:0:0:0:
55,88,32303,1,0,0:0:0:0:
352,96,32382,1,8,0:0:0:0:
189,148,32540,1,0,0:0:0:0:
352,96,32698,1,8,0:0:0:0:
160,96,32856,1,0,0:0:0:0:
0,81,33014,2,0,L|381:275,1,420
352,96,34277,1,8,0:0:0:0:
104,135,34356,1,8,0:0:0:0:
160,96,34435,1,0,0:0:0:0:
352,96,34593,1,8,0:0:0:0:
47,170,34750,1,0,0:0:0:0:
352,96,34908,1,8,0:0:0:0:
145,140,34987,1,8,0:0:0:0:
160,96,35066,1,0,0:0:0:0:
352,96,35224,1,8,0:0:0:0:
160,96,35540,1,0,0:0:0:0:
136,131,35698,1,0,0:0:0:0:
136,131,35777,1,0,0:0:0:0:
352,96,35856,1,8,0:0:0:0:
203,93,35935,1,8,0:0:0:0:
160,96,36014,1,0,0:0:0:0:
352,96,36172,1,8,0:0:0:0:
160,96,36329,1,0,0:0:0:0:
352,96,36487,1,8,0:0:0:0:
352,96,36566,1,8,0:0:0:0:
160,96,36645,1,0,0:0:0:0:
352,96,36803,1,8,0:0:0:0:
160,96,36961,5,0,0:0:0:0:
352,96,37119,1,8,0:0:0:0:
352,96,37198,1,8,0:0:0:0:
160,96,37277,1,0,0:0:0:0:
352,96,37435,1,8,0:0:0:0:
160,96,37593,1,0,0:0:0:0:
352,96,37750,1,8,0:0:0:0:
352,96,37829,1,8,0:0:0:0:
160,96,37908,1,0,0:0:0:0:
167,293,38066,6,0,L|378:206,1,210
352,96,38698,1,8,0:0:0:0:
352,96,38777,1,8,0:0:0:0:
160,96,38856,1,0,0:0:0:0:
160,96,38935,1,0,0:0:0:0:
352,96,39014,1,8,0:0:0:0:
160,96,39172,1,0,0:0:0:0:
352,96,39329,1,8,0:0:0:0:
352,96,39487,1,8,0:0:0:0:
160,96,39566,1,0,0:0:0:0:
352,96,39645,1,8,0:0:0:0:
160,96,39803,1,0,0:0:0:0:
160,96,39882,1,0,0:0:0:0:
352,96,39961,1,8,0:0:0:0:
160,96,40119,1,0,0:0:0:0:
352,96,40277,1,8,0:0:0:0:
160,288,40593,5,4,0:0:0:0:
352,96,40908,1,8,0:0:0:0:
352,96,41066,1,8,0:0:0:0:
352,96,41382,1,8,0:0:0:0:
160,96,41540,1,0,0:0:0:0:
160,96,41619,1,0,0:0:0:0:
352,96,41698,1,8,0:0:0:0:
160,96,41856,1,0,0:0:0:0:
352,96,42172,1,8,0:0:0:0:
352,96,42329,1,8,0:0:0:0:
352,96,42645,1,8,0:0:0:0:
160,96,42803,1,0,0:0:0:0:
160,96,42882,1,0,0:0:0:0:
352,96,42961,1,8,0:0:0:0:
160,96,43119,1,0,0:0:0:0:
352,96,43435,1,8,0:0:0:0:
352,96,43593,1,8,0:0:0:0:
352,96,43908,1,8,0:0:0:0:
160,96,44066,1,0,0:0:0:0:
160,96,44145,1,0,0:0:0:0:
352,96,44224,1,8,0:0:0:0:
160,96,44382,1,0,0:0:0:0:
352,96,44698,1,8,0:0:0:0:
352,96,44856,1,8,0:0:0:0:
352,96,45172,1,8,0:0:0:0:
160,96,45250,1,0,0:0:0:0:
352,96,45329,1,8,0:0:0:0:
352,96,45408,1,8,0:0:0:0:
160,96,45487,1,0,0:0:0:0:
160,96,45645,1,0,0:0:0:0:
352,96,45961,1,8,0:0:0:0:
352,96,46119,1,8,0:0:0:0:
352,96,46435,1,8,0:0:0:0:
160,96,46593,1,0,0:0:0:0:
160,96,46672,1,0,0:0:0:0:
352,96,46750,1,8,0:0:0:0:
160,96,46908,1,0,0:0:0:0:
352,96,47224,1,8,0:0:0:0:
352,96,47382,1,8,0:0:0:0:
352,96,47698,1,8,0:0:0:0:
160,96,47856,1,0,0:0:0:0:
160,96,47935,1,0,0:0:0:0:
352,96,48014,1,8,0:0:0:0:
160,96,48172,1,0,0:0:0:0:
352,96,48487,5,8,0:0:0:0:
352,96,48645,1,8,0:0:0:0:
352,96,48961,1,8,0:0:0:0:
160,96,49119,1,0,0:0:0:0:
160,96,49198,1,0,0:0:0:0:
352,96,49277,1,8,0:0:0:0:
352,96,49435,5,8,0:0:0:0:
132,164,49514,1,8,0:0:0:0:
160,96,49593,1,0,0:0:0:0:
352,96,49750,1,8,0:0:0:0:
160,96,49908,1,0,0:0:0:0:
352,96,50066,1,8,0:0:0:0:
236,110,50145,1,8,0:0:0:0:
352,96,50224,1,0,0:0:0:0:
39,139,50303,1,0,0:0:0:0:
352,96,50382,1,8,0:0:0:0:
352,96,50540,1,0,0:0:0:0:
352,96,50698,5,8,0:0:0:0:
352,96,50777,1,8,0:0:0:0:
352,96,50856,1,8,0:0:0:0:
352,96,50935,1,8,0:0:0:0:
352,96,51014,1,8,0:0:0:0:
352,96,51093,1,8,0:0:0:0:
352,96,51172,1,8,0:0:0:0:
352,96,51250,1,8,0:0:0:0:
352,96,51329,1,8,0:0:0:0:
352,96,51487,1,0,0:0:0:0:
160,96,51645,1,8,0:0:0:0:
352,96,51724,1,8,0:0:0:0:
352,96,51803,1,0,0:0:0:0:
160,96,51961,1,0,0:0:0:0:
160,96,52277,1,8,0:0:0:0:
160,96,52435,1,0,0:0:0:0:
160,96,52514,1,0,0:0:0:0:
352,96,52593,1,8,0:0:0:0:
160,96,52750,1,0,0:0:0:0:
352,96,52908,1,8,0:0:0:0:
160,96,52987,1,8,0:0:0:0:
160,96,53066,1,0,0:0:0:0:
352,96,53224,5,8,0:0:0:0:
352,96,53303,1,8,0:0:0:0:
352,96,53382,1,8,0:0:0:0:
352,96,53461,1,8,0:0:0:0:
352,96,53540,1,8,0:0:0:0:
352,96,53619,1,8,0:0:0:0:
352,96,53698,1,8,0:0:0:0:
352,96,53777,1,8,0:0:0:0:
352,96,53856,1,8,0:0:0:0:
352,96,54014,1,0,0:0:0:0:
160,96,54172,1,8,0:0:0:0:
160,96,54250,1,8,0:0:0:0:
352,96,54329,1,0,0:0:0:0:
160,96,54487,5,0,0:0:0:0:
160,96,54803,1,8,0:0:0:0:
160,96,54961,1,0,0:0:0:0:
352,96,55119,1,8,0:0:0:0:
352,96,55277,1,8,0:0:0:0:
352,96,55356,1,8,0:0:0:0:
160,96,55435,1,0,0:0:0:0:
352,96,55514,1,8,0:0:0:0:
352,96,55593,1,0,0:0:0:0:
352,96,55750,5,8,0:0:0:0:
352,96,55829,1,8,0:0:0:0:
352,96,55908,1,8,0:0:0:0:
352,96,55987,1,8,0:0:0:0:
352,96,56066,1,8,0:0:0:0:
352,96,56145,1,8,0:0:0:0:
352,96,56224,1,8,0:0:0:0:
352,96,56303,1,8,0:0:0:0:
352,96,56382,1,8,0:0:0:0:
352,96,56540,1,0,0:0:0:0:
160,96,56698,1,8,0:0:0:0:
160,96,56777,1,8,0:0:0:0:
352,96,56856,1,0,0:0:0:0:
160,96,57014,5,0,0:0:0:0:
160,96,57329,1,8,0:0:0:0:
160,96,57487,1,0,0:0:0:0:
160,96,57566,1,0,0:0:0:0:
352,96,57645,1,8,0:0:0:0:
160,96,57803,1,0,0:0:0:0:
352,96,57961,1,8,0:0:0:0:
352,96,58040,1,8,0:0:0:0:
160,96,58119,1,0,0:0:0:0:
352,96,58277,5,8,0:0:0:0:
352,96,58356,1,8,0:0:0:0:
352,96,58435,1,8,0:0:0:0:
352,96,58514,1,8,0:0:0:0:
352,96,58593,1,8,0:0:0:0:
352,96,58672,1,8,0:0:0:0:
352,96,58750,1,8,0:0:0:0:
352,96,58829,1,8,0:0:0:0:
352,96,58908,1,8,0:0:0:0:
352,96,59066,1,0,0:0:0:0:
160,96,59224,1,8,0:0:0:0:
160,96,59303,1,8,0:0:0:0:
352,96,59382,1,0,0:0:0:0:
160,96,59540,1,0,0:0:0:0:
160,96,59856,1,8,0:0:0:0:
160,96,60014,1,0,0:0:0:0:
160,96,60093,1,0,0:0:0:0:
352,96,60172,1,8,0:0:0:0:
352,96,60329,1,8,0:0:0:0:
352,96,60408,1,8,0:0:0:0:
160,96,60487,1,0,0:0:0:0:
352,96,60566,1,8,0:0:0:0:
352,96,60645,1,0,0:0:0:0:
352,96,60803,5,8,0:0:0:0:
352,96,60882,1,8,0:0:0:0:
352,96,60961,1,8,0:0:0:0:
352,96,61040,1,8,0:0:0:0:
352,96,61119,1,8,0:0:0:0:
352,96,61198,1,8,0:0:0:0:
352,96,61277,1,8,0:0:0:0:
352,96,61356,1,8,0:0:0:0:
352,96,61435,1,8,0:0:0:0:
352,96,61593,1,0,0:0:0:0:
160,96,61750,1,8,0:0:0:0:
352,96,61829,1,0,0:0:0:0:
352,96,61908,1,8,0:0:0:0:
160,96,62066,1,0,0:0:0:0:
160,96,62382,1,8,0:0:0:0:
160,96,62540,1,0,0:0:0:0:
160,96,62619,1,0,0:0:0:0:
352,96,62698,1,8,0:0:0:0:
160,96,62856,1,0,0:0:0:0:
352,96,63014,1,0,0:0:0:0:
160,96,63093,1,8,0:0:0:0:
160,96,63172,1,0,0:0:0:0:
352,96,63329,5,8,0:0:0:0:
352,96,63408,1,8,0:0:0:0:
352,96,63487,1,8,0:0:0:0:
352,96,63566,1,8,0:0:0:0:
352,96,63645,1,8,0:0:0:0:
352,96,63724,1,8,0:0:0:0:
352,96,63803,1,8,0:0:0:0:
352,96,63882,1,8,0:0:0:0:
352,96,63961,1,8,0:0:0:0:
352,96,64119,1,0,0:0:0:0:
160,96,64277,1,8,0:0:0:0:
160,96,64356,1,0,0:0:0:0:
352,96,64435,1,8,0:0:0:0:
160,96,64593,5,0,0:0:0:0:
160,96,64908,1,8,0:0:0:0:
160,96,65066,1,0,0:0:0:0:
352,96,65224,1,8,0:0:0:0:
352,96,65382,1,8,0:0:0:0:
352,96,65461,1,0,0:0:0:0:
160,96,65540,1,0,0:0:0:0:
352,96,65619,1,8,0:0:0:0:
352,96,65698,1,0,0:0:0:0:
352,96,65856,5,8,0:0:0:0:
352,96,65935,1,8,0:0:0:0:
352,96,66014,1,8,0:0:0:0:
352,96,66093,1,8,0:0:0:0:
352,96,66172,1,8,0:0:0:0:
352,96,66250,1,8,0:0:0:0:
352,96,66329,1,8,0:0:0:0:
352,96,66408,1,8,0:0:0:0:
352,96,66487,1,8,0:0:0:0:
352,96,66645,1,0,0:0:0:0:
160,96,66803,1,8,0:0:0:0:
160,96,66882,1,0,0:0:0:0:
352,96,66961,1,8,0:0:0:0:
160,96,67119,5,0,0:0:0:0:
160,96,67435,1,8,0:0:0:0:
160,96,67593,1,0,0:0:0:0:
160,96,67672,1,0,0:0:0:0:
352,96,67750,1,8,0:0:0:0:
160,96,67908,1,0,0:0:0:0:
352,96,68066,1,0,0:0:0:0:
352,96,68145,1,8,0:0:0:0:
160,96,68224,1,0,0:0:0:0:
352,96,68382,5,8,0:0:0:0:
352,96,68461,1,8,0:0:0:0:
352,96,68540,1,8,0:0:0:0:
352,96,68619,1,8,0:0:0:0:
352,96,68698,1,8,0:0:0:0:
352,96,68777,1,8,0:0:0:0:
352,96,68856,1,8,0:0:0:0:
352,96,68935,1,8,0:0:0:0:
352,96,69014,1,8,0:0:0:0:
352,96,69172,1,0,0:0:0:0:
160,96,69329,1,8,0:0:0:0:
160,96,69408,1,0,0:0:0:0:
352,96,69487,1,8,0:0:0:0:
160,96,69645,1,0,0:0:0:0:
160,96,69961,1,8,0:0:0:0:
160,96,70119,1,0,0:0:0:0:
160,96,70198,1,0,0:0:0:0:
352,96,70277,1,8,0:0:0:0:
352,96,70435,1,8,0:0:0:0:
352,96,70514,1,0,0:0:0:0:
160,96,70593,1,0,0:0:0:0:
352,96,70672,1,8,0:0:0:0:
352,96,70750,1,0,0:0:0:0:
131,139,70908,1,6,0:0:0:0:
256,192,71066,12,0,80856,0:0:0:0:
160,288,81014,5,4,0:0:0:0:
164,66,81487,1,0,0:0:0:0:
352,96,81645,1,8,0:0:0:0:
160,96,81961,1,0,0:0:0:0:
352,96,82119,1,8,0:0:0:0:
160,96,82277,1,0,0:0:0:0:
352,96,82593,1,8,0:0:0:0:
160,96,82750,1,0,0:0:0:0:
352,96,82908,1,8,0:0:0:0:
352,96,83224,1,8,0:0:0:0:
160,96,83540,1,0,0:0:0:0:
140,32,84014,1,0,0:0:0:0:
352,96,84172,1,8,0:0:0:0:
160,96,84487,1,0,0:0:0:0:
352,96,84645,1,8,0:0:0:0:
160,96,84803,1,0,0:0:0:0:
160,96,85119,1,0,0:0:0:0:
160,96,85277,1,0,0:0:0:0:
352,96,85435,1,8,0:0:0:0:
160,96,85593,1,0,0:0:0:0:
352,96,85750,1,8,0:0:0:0:
160,96,86066,1,0,0:0:0:0:
38,121,86224,1,0,0:0:0:0:
160,96,86540,1,0,0:0:0:0:
352,96,86698,1,8,0:0:0:0:
160,96,87014,1,0,0:0:0:0:
352,96,87172,1,8,0:0:0:0:
160,96,87329,1,0,0:0:0:0:
160,96,87645,1,0,0:0:0:0:
160,96,87803,1,0,0:0:0:0:
352,96,87961,1,8,0:0:0:0:
196,78,88119,1,0,0:0:0:0:
352,96,88277,1,8,0:0:0:0:
160,96,88593,1,0,0:0:0:0:
352,96,88750,1,8,0:0:0:0:
160,96,88908,1,0,0:0:0:0:
160,96,89066,1,0,0:0:0:0:
352,96,89224,1,8,0:0:0:0:
197,160,89303,1,8,0:0:0:0:
197,160,89382,1,8,0:0:0:0:
352,96,89540,1,0,0:0:0:0:
129,138,89619,1,0,0:0:0:0:
352,96,89698,1,8,0:0:0:0:
160,96,89856,1,0,0:0:0:0:
160,96,90014,1,0,0:0:0:0:
352,96,90172,1,8,0:0:0:0:
352,96,90250,1,8,0:0:0:0:
160,96,90329,1,0,0:0:0:0:
352,288,90487,1,12,0:0:0:0:
216,159,91119,1,12,0:0:0:0:
352,96,91435,1,0,0:0:0:0:
132,151,91593,1,0,0:0:0:0:
352,96,91750,1,8,0:0:0:0:
352,96,91829,1,8,0:0:0:0:
352,96,91908,1,8,0:0:0:0:
352,96,91987,1,8,0:0:0:0:
352,96,92066,1,0,0:0:0:0:
352,96,92224,1,0,0:0:0:0:
352,96,92382,1,8,0:0:0:0:
352,96,92461,1,8,0:0:0:0:
352,96,92540,1,8,0:0:0:0:
352,96,92619,1,8,0:0:0:0:
352,96,92698,1,0,0:0:0:0:
352,96,92856,1,0,0:0:0:0:
160,96,93014,1,8,0:0:0:0:
245,103,93093,1,0,0:0:0:0:
352,96,93172,1,8,0:0:0:0:
160,96,93329,1,0,0:0:0:0:
352,96,93487,1,8,0:0:0:0:
160,96,93645,1,0,0:0:0:0:
160,96,93724,1,0,0:0:0:0:
160,96,93803,1,0,0:0:0:0:
160,96,93882,1,0,0:0:0:0:
160,96,93961,1,8,0:0:0:0:
160,96,94119,1,8,0:0:0:0:
160,96,94277,1,0,0:0:0:0:
160,96,94356,1,0,0:0:0:0:
160,96,94435,1,0,0:0:0:0:
160,96,94514,1,0,0:0:0:0:
160,96,94593,1,8,0:0:0:0:
160,96,94750,1,0,0:0:0:0:
352,96,94908,1,8,0:0:0:0:
43,145,94987,1,8,0:0:0:0:
43,145,95066,1,8,0:0:0:0:
352,96,95224,1,0,0:0:0:0:
352,96,95382,1,8,0:0:0:0:
37,133,95461,1,8,0:0:0:0:
70,131,95540,1,8,0:0:0:0:
102,128,95698,1,0,0:0:0:0:
352,96,95856,1,8,0:0:0:0:
177,99,95935,1,8,0:0:0:0:
28,148,96014,1,8,0:0:0:0:
176,128,96093,1,8,0:0:0:0:
160,96,96172,1,0,0:0:0:0:
160,96,96487,1,8,0:0:0:0:
160,96,96645,1,8,0:0:0:0:
160,96,96803,1,0,0:0:0:0:
160,96,96882,1,0,0:0:0:0:
160,96,96961,1,0,0:0:0:0:
160,96,97040,1,0,0:0:0:0:
160,96,97119,1,8,0:0:0:0:
160,96,97277,1,8,0:0:0:0:
160,96,97435,1,0,0:0:0:0:
160,96,97514,1,0,0:0:0:0:
160,96,97593,1,0,0:0:0:0:
202,100,97672,1,0,0:0:0:0:
160,96,97750,1,8,0:0:0:0:
160,96,97908,1,0,0:0:0:0:
352,96,98066,1,8,0:0:0:0:
214,140,98145,1,8,0:0:0:0:
160,96,98224,1,0,0:0:0:0:
352,96,98382,1,8,0:0:0:0:
160,96,98540,1,0,0:0:0:0:
352,96,98698,1,8,0:0:0:0:
352,96,98777,1,8,0:0:0:0:
352,96,98856,1,8,0:0:0:0:
352,96,98935,1,8,0:0:0:0:
352,96,99014,1,0,0:0:0:0:
352,96,99172,1,0,0:0:0:0:
352,96,99329,1,8,0:0:0:0:
352,96,99408,1,8,0:0:0:0:
352,96,99487,1,8,0:0:0:0:
352,96,99566,1,8,0:0:0:0:
352,96,99645,1,0,0:0:0:0:
352,96,99803,1,0,0:0:0:0:
160,96,99961,1,8,0:0:0:0:
352,96,100040,1,8,0:0:0:0:
352,96,100119,1,0,0:0:0:0:
352,96,100277,1,0,0:0:0:0:
160,96,100435,1,8,0:0:0:0:
352,96,100514,1,8,0:0:0:0:
352,96,100593,1,8,0:0:0:0:
170,142,100750,1,0,0:0:0:0:
183,143,100829,1,0,0:0:0:0:
160,96,100908,1,8,0:0:0:0:
352,96,100987,1,0,0:0:0:0:
352,96,101066,1,8,0:0:0:0:
155,149,101145,1,8,0:0:0:0:
160,96,101224,1,0,0:0:0:0:
352,96,101540,1,8,0:0:0:0:
352,96,101698,1,8,0:0:0:0:
160,96,101856,1,0,0:0:0:0:
160,96,101935,1,0,0:0:0:0:
160,96,102014,1,8,0:0:0:0:
160,96,102093,1,8,0:0:0:0:
352,96,102172,1,0,0:0:0:0:
352,96,102329,1,8,0:0:0:0:
160,96,102487,1,0,0:0:0:0:
160,96,102566,1,0,0:0:0:0:
160,96,102645,1,0,0:0:0:0:
160,96,102724,1,0,0:0:0:0:
352,96,102803,1,8,0:0:0:0:
352,96,102961,1,8,0:0:0:0:
160,96,103119,1,0,0:0:0:0:
352,96,103277,1,8,0:0:0:0:
352,96,103356,1,8,0:0:0:0:
160,96,103435,1,0,0:0:0:0:
352,96,103593,1,0,0:0:0:0:
160,96,103750,1,8,0:0:0:0:
101,153,103829,1,8,0:0:0:0:
101,153,103908,1,8,0:0:0:0:
101,153,103987,1,8,0:0:0:0:
352,96,104066,1,0,0:0:0:0:
352,96,104224,1,0,0:0:0:0:
160,96,104382,1,8,0:0:0:0:
160,96,104461,1,8,0:0:0:0:
160,96,104540,1,0,0:0:0:0:
160,96,104619,1,0,0:0:0:0:
352,96,104698,1,8,0:0:0:0:
160,96,104856,1,0,0:0:0:0:
352,96,105014,1,8,0:0:0:0:
352,96,105093,1,8,0:0:0:0:
160,96,105172,1,8,0:0:0:0:
352,96,105329,1,0,0:0:0:0:
160,96,105487,1,8,0:0:0:0:
352,96,105566,1,8,0:0:0:0:
352,96,105645,1,8,0:0:0:0:
160,96,105803,1,0,0:0:0:0:
352,96,105961,1,8,0:0:0:0:
352,96,106040,1,8,0:0:0:0:
160,96,106119,1,8,0:0:0:0:
116,102,106198,1,8,0:0:0:0:
352,96,106277,1,0,0:0:0:0:
160,96,106593,1,8,0:0:0:0:
160,96,106750,1,8,0:0:0:0:
352,96,106908,1,0,0:0:0:0:
352,96,106987,1,0,0:0:0:0:
352,96,107066,1,8,0:0:0:0:
352,96,107145,1,8,0:0:0:0:
160,96,107224,1,0,0:0:0:0:
160,96,107382,1,8,0:0:0:0:
352,96,107540,1,0,0:0:0:0:
352,96,107619,1,0,0:0:0:0:
352,96,107698,1,0,0:0:0:0:
352,96,107777,1,0,0:0:0:0:
160,96,107856,1,8,0:0:0:0:
160,96,108014,1,8,0:0:0:0:
352,96,108172,1,0,0:0:0:0:
160,96,108329,1,8,0:0:0:0:
61,154,108408,1,8,0:0:0:0:
352,96,108487,1,0,0:0:0:0:
160,96,108645,1,0,0:0:0:0:
352,96,108803,1,8,0:0:0:0:
220,36,108882,1,8,0:0:0:0:
220,36,108961,1,8,0:0:0:0:
352,96,109040,1,8,0:0:0:0:
160,96,109119,1,0,0:0:0:0:
160,96,109277,1,0,0:0:0:0:
352,96,109435,1,8,0:0:0:0:
352,96,109514,1,8,0:0:0:0:
352,96,109593,1,0,0:0:0:0:
352,96,109672,1,0,0:0:0:0:
160,96,109750,1,8,0:0:0:0:
160,96,109908,1,0,0:0:0:0:
352,96,110066,1,8,0:0:0:0:
160,96,110145,5,0,0:0:0:0:
352,96,110303,1,8,0:0:0:0:
160,96,110382,1,0,0:0:0:0:
352,96,110540,1,8,0:0:0:0:
160,96,110698,1,8,0:0:0:0:
160,96,110777,1,8,0:0:0:0:
352,96,110856,1,0,0:0:0:0:
352,96,111014,1,8,0:0:0:0:
160,96,111329,5,4,0:0:0:0:
100,177,111487,1,0,0:0:0:0:
301,146,111645,1,8,0:0:0:0:
100,177,111724,1,8,0:0:0:0:
160,96,111803,1,0,0:0:0:0:
168,86,111882,1,0,0:0:0:0:
352,96,111961,1,8,0:0:0:0:
29,159,112119,1,0,0:0:0:0:
352,96,112277,1,8,0:0:0:0:
160,96,112435,1,0,0:0:0:0:
41,168,112514,1,0,0:0:0:0:
352,96,112593,1,8,0:0:0:0:
189,148,112750,1,0,0:0:0:0:
352,96,112908,1,8,0:0:0:0:
160,96,113066,1,0,0:0:0:0:
100,151,113145,1,0,0:0:0:0:
352,96,113224,1,8,0:0:0:0:
189,148,113382,1,0,0:0:0:0:
352,96,113540,1,8,0:0:0:0:
160,96,113698,1,0,0:0:0:0:
1,109,113856,2,0,L|388:294,1,420
352,96,115119,1,8,0:0:0:0:
352,96,115198,1,8,0:0:0:0:
160,96,115277,1,0,0:0:0:0:
104,135,115435,1,8,0:0:0:0:
152,131,115593,1,0,0:0:0:0:
352,96,115750,1,8,0:0:0:0:
145,140,115829,1,8,0:0:0:0:
160,96,115908,1,0,0:0:0:0:
352,96,116066,1,8,0:0:0:0:
160,96,116382,1,0,0:0:0:0:
136,131,116540,1,0,0:0:0:0:
136,131,116619,1,0,0:0:0:0:
352,96,116698,1,8,0:0:0:0:
136,131,116777,1,8,0:0:0:0:
160,96,116856,1,0,0:0:0:0:
352,96,117014,1,8,0:0:0:0:
160,96,117172,1,0,0:0:0:0:
352,96,117329,1,8,0:0:0:0:
352,96,117408,1,8,0:0:0:0:
160,96,117487,1,0,0:0:0:0:
352,96,117645,1,8,0:0:0:0:
160,96,117803,5,0,0:0:0:0:
352,96,117961,1,8,0:0:0:0:
352,96,118040,1,8,0:0:0:0:
160,96,118119,1,0,0:0:0:0:
352,96,118277,1,8,0:0:0:0:
160,96,118435,1,0,0:0:0:0:
352,96,118593,1,8,0:0:0:0:
352,96,118672,1,8,0:0:0:0:
160,96,118750,1,0,0:0:0:0:
167,293,118908,6,0,L|374:199,1,210
352,96,119540,1,8,0:0:0:0:
352,96,119619,1,8,0:0:0:0:
160,96,119698,1,0,0:0:0:0:
160,96,119777,1,0,0:0:0:0:
352,96,119856,1,8,0:0:0:0:
160,96,120014,1,0,0:0:0:0:
352,96,120172,1,8,0:0:0:0:
352,96,120329,1,8,0:0:0:0:
160,96,120408,1,0,0:0:0:0:
352,96,120487,1,8,0:0:0:0:
160,96,120645,1,0,0:0:0:0:
160,96,120724,1,0,0:0:0:0:
352,96,120803,1,8,0:0:0:0:
160,96,120961,1,0,0:0:0:0:
352,96,121119,1,8,0:0:0:0:
160,288,121435,5,4,0:0:0:0:
352,96,121750,1,8,0:0:0:0:
352,96,121908,1,8,0:0:0:0:
352,96,122224,1,8,0:0:0:0:
160,96,122382,1,0,0:0:0:0:
160,96,122461,1,0,0:0:0:0:
352,96,122540,1,8,0:0:0:0:
160,96,122698,1,0,0:0:0:0:
352,96,123014,1,8,0:0:0:0:
352,96,123172,1,8,0:0:0:0:
352,96,123487,1,8,0:0:0:0:
160,96,123645,1,0,0:0:0:0:
160,96,123724,1,0,0:0:0:0:
352,96,123803,1,8,0:0:0:0:
160,96,123961,1,0,0:0:0:0:
352,96,124277,1,8,0:0:0:0:
352,96,124435,1,8,0:0:0:0:
352,96,124750,1,8,0:0:0:0:
160,96,124908,1,0,0:0:0:0:
160,96,124987,1,0,0:0:0:0:
352,96,125066,1,8,0:0:0:0:
160,96,125224,1,0,0:0:0:0:
352,96,125540,1,8,0:0:0:0:
352,96,125698,1,8,0:0:0:0:
352,96,126014,1,8,0:0:0:0:
160,96,126093,1,0,0:0:0:0:
352,96,126172,1,8,0:0:0:0:
352,96,126250,1,8,0:0:0:0:
160,96,126329,1,0,0:0:0:0:
160,96,126487,1,0,0:0:0:0:
352,96,126803,1,8,0:0:0:0:
352,96,126961,1,8,0:0:0:0:
352,96,127277,1,8,0:0:0:0:
160,96,127435,1,0,0:0:0:0:
160,96,127514,1,0,0:0:0:0:
352,96,127593,1,8,0:0:0:0:
160,96,127750,1,0,0:0:0:0:
352,96,128066,1,8,0:0:0:0:
352,96,128224,1,8,0:0:0:0:
352,96,128540,1,8,0:0:0:0:
160,96,128698,1,0,0:0:0:0:
160,96,128777,1,0,0:0:0:0:
352,96,128856,1,8,0:0:0:0:
160,96,129014,1,0,0:0:0:0:
352,96,129329,5,8,0:0:0:0:
352,96,129487,1,8,0:0:0:0:
352,96,129803,1,8,0:0:0:0:
160,96,129961,1,0,0:0:0:0:
160,96,130040,1,0,0:0:0:0:
352,96,130119,1,8,0:0:0:0:
352,96,130277,5,8,0:0:0:0:
352,96,130356,1,8,0:0:0:0:
160,96,130435,1,0,0:0:0:0:
352,96,130593,1,8,0:0:0:0:
352,96,130672,5,8,0:0:0:0:
160,96,130750,1,0,0:0:0:0:
352,96,130908,5,8,0:0:0:0:
352,96,130987,1,8,0:0:0:0:
352,96,131066,1,0,0:0:0:0:
160,96,131145,1,0,0:0:0:0:
352,96,131224,1,8,0:0:0:0:
130,140,131303,1,8,0:0:0:0:
352,96,131382,1,8,0:0:0:0:
211,97,131461,1,8,0:0:0:0:
187,150,131540,1,0,0:0:0:0:
352,96,131856,5,8,0:0:0:0:
160,96,132172,1,0,0:0:0:0:
160,96,132329,1,0,0:0:0:0:
352,96,132487,1,8,0:0:0:0:
221,78,132724,1,8,0:0:0:0:
160,96,132803,1,0,0:0:0:0:
160,96,132961,1,0,0:0:0:0:
352,96,133119,1,8,0:0:0:0:
160,96,133435,1,0,0:0:0:0:
160,96,133593,1,0,0:0:0:0:
352,96,133750,1,8,0:0:0:0:
352,96,133908,1,8,0:0:0:0:
352,96,133987,1,8,0:0:0:0:
160,96,134066,1,0,0:0:0:0:
160,96,134224,1,0,0:0:0:0:
352,96,134382,1,8,0:0:0:0:
160,96,134698,1,0,0:0:0:0:
160,96,134856,1,0,0:0:0:0:
352,96,135014,1,8,0:0:0:0:
200,61,135250,1,8,0:0:0:0:
160,96,135329,1,0,0:0:0:0:
160,96,135487,1,0,0:0:0:0:
352,96,135645,1,8,0:0:0:0:
160,96,135961,1,0,0:0:0:0:
160,96,136119,1,0,0:0:0:0:
352,96,136277,1,8,0:0:0:0:
160,96,136435,1,0,0:0:0:0:
160,96,136514,1,0,0:0:0:0:
160,96,136593,1,0,0:0:0:0:
352,96,136908,1,8,0:0:0:0:
160,96,137224,1,0,0:0:0:0:
160,96,137382,1,0,0:0:0:0:
352,96,137540,1,8,0:0:0:0:
212,58,137777,1,8,0:0:0:0:
160,96,137856,1,0,0:0:0:0:
160,96,138014,1,0,0:0:0:0:
352,96,138172,1,8,0:0:0:0:
160,96,138487,1,0,0:0:0:0:
160,96,138645,1,0,0:0:0:0:
352,96,138803,1,8,0:0:0:0:
352,96,138961,1,8,0:0:0:0:
352,96,139040,1,8,0:0:0:0:
160,96,139119,1,0,0:0:0:0:
160,96,139277,1,0,0:0:0:0:
352,96,139435,1,8,0:0:0:0:
160,96,139750,1,0,0:0:0:0:
160,96,139908,1,0,0:0:0:0:
352,96,140066,1,8,0:0:0:0:
352,96,140698,1,8,0:0:0:0:
352,96,141329,1,8,0:0:0:0:
160,288,141645,1,4,0:0:0:0:
160,96,141803,1,0,0:0:0:0:
352,96,141961,1,8,0:0:0:0:
229,78,142198,1,8,0:0:0:0:
160,96,142277,1,0,0:0:0:0:
160,96,142435,1,0,0:0:0:0:
352,96,142593,1,8,0:0:0:0:
160,96,142908,1,0,0:0:0:0:
160,96,143066,1,0,0:0:0:0:
352,96,143224,1,8,0:0:0:0:
140,137,143382,1,8,0:0:0:0:
160,96,143540,1,0,0:0:0:0:
205,105,143698,1,0,0:0:0:0:
352,96,143856,1,8,0:0:0:0:
160,96,144172,1,0,0:0:0:0:
160,96,144329,1,0,0:0:0:0:
352,96,144487,1,8,0:0:0:0:
198,82,144724,1,8,0:0:0:0:
160,96,144803,1,0,0:0:0:0:
160,96,144961,1,0,0:0:0:0:
352,96,145119,1,8,0:0:0:0:
160,96,145435,1,0,0:0:0:0:
160,96,145593,1,0,0:0:0:0:
352,96,145750,1,8,0:0:0:0:
168,117,145908,1,8,0:0:0:0:
86,132,145987,1,8,0:0:0:0:
160,96,146066,1,0,0:0:0:0:
160,96,146224,1,0,0:0:0:0:
352,96,146382,1,8,0:0:0:0:
160,96,146540,1,0,0:0:0:0:
160,96,146619,1,0,0:0:0:0:
160,96,146698,1,0,0:0:0:0:
160,96,146856,1,0,0:0:0:0:
352,96,147014,1,8,0:0:0:0:
160,96,147329,1,0,0:0:0:0:
51,157,147487,1,0,0:0:0:0:
352,96,147645,1,8,0:0:0:0:
244,36,147882,1,8,0:0:0:0:
160,96,147961,1,0,0:0:0:0:
160,96,148119,1,0,0:0:0:0:
352,96,148277,1,8,0:0:0:0:
352,96,148435,1,8,0:0:0:0:
125,70,148514,1,8,0:0:0:0:
160,96,148593,1,0,0:0:0:0:
160,96,148750,1,0,0:0:0:0:
352,96,148908,1,8,0:0:0:0:
160,96,149224,1,0,0:0:0:0:
160,96,149382,1,0,0:0:0:0:
352,96,149540,1,8,0:0:0:0:
267,97,149777,1,8,0:0:0:0:
160,96,149856,1,0,0:0:0:0:
160,96,150014,1,0,0:0:0:0:
352,96,150172,1,8,0:0:0:0:
52,133,150329,1,8,0:0:0:0:
160,96,150487,1,0,0:0:0:0:
160,96,150645,1,0,0:0:0:0:
352,96,150803,5,8,0:0:0:0:
160,96,150882,1,0,0:0:0:0:
352,96,150961,1,8,0:0:0:0:
160,96,151119,1,0,0:0:0:0:
160,96,151277,1,0,0:0:0:0:
352,96,151435,1,8,0:0:0:0:
160,96,151593,1,0,0:0:0:0:
160,96,151672,1,0,0:0:0:0:
