osu file format v14

[General]
AudioFilename: audio.mp3
AudioLeadIn: 0
PreviewTime: 90945
Countdown: 0
SampleSet: Normal
StackLeniency: 0.7
Mode: 1
LetterboxInBreaks: 0
WidescreenStoryboard: 1

[Editor]
Bookmarks: 156,4656,5208,10261,20366,30471,40577,50682,70892,80998,91103,101208,111313,121419,131524,141629,151734
DistanceSpacing: 0.8
BeatDivisor: 2
GridSize: 32
TimelineZoom: 1.300002

[Metadata]
Title:Fasten Your Seatbelts
TitleUnicode:Fasten Your Seatbelts
Artist:F-777
ArtistUnicode:F-777
Creator:Volta
Version:Muzukashii
Source:osu!
Tags:Featured Artist FA Mappers' Guild MG F777 Jesse Valentine Ludicrous Speed Electronic Instrumental Nardoxyribonucleic
BeatmapID:2400193
BeatmapSetID:1093139

[Difficulty]
HPDrainRate:6
CircleSize:5
OverallDifficulty:5
ApproachRate:5
SliderMultiplier:1.4
SliderTickRate:1

[Events]
//Background and Video events
0,0,"aaaaaaaaaaaaaaaaaaaaaaaaaaaaaaaaaaaaaaaaaaaaaaa.jpeg",0,-70
//Break Periods
//Storyboard Layer 0 (Background)
//Storyboard Layer 1 (Fail)
//Storyboard Layer 2 (Pass)
//Storyboard Layer 3 (Foreground)
//Storyboard Layer 4 (Overlay)
//Storyboard Sound Samples

[TimingPoints]
172,315.789473684211,4,1,0,70,1,0
1435,-83.3333333333333,4,1,0,70,0,0
2698,-71.4285714285714,4,1,0,70,0,0
3961,-62.5,4,1,0,70,0,0
5224,-55.5555555555556,4,1,0,80,0,0
6487,-50,4,1,0,80,0,0
7750,-45.4545454545455,4,1,0,80,0,0
9014,-41.6666666666667,4,1,0,80,0,0
9645,-55.5555555555556,4,1,0,80,0,0
10277,-100,4,1,0,90,0,1
30487,-100,4,1,0,80,0,0
50698,-100,4,1,0,90,0,1
59540,-100,4,1,0,80,0,0
60803,-100,4,1,0,90,0,1
67119,-100,4,1,0,80,0,1
67435,-100,4,1,0,70,0,1
67750,-100,4,1,0,60,0,1
68066,-100,4,1,0,50,0,1
68382,-100,4,1,0,40,0,1
69645,-100,4,1,0,50,0,1
69961,-100,4,1,0,60,0,1
70277,-100,4,1,0,70,0,1
70593,-100,4,1,0,80,0,1
70908,-100,4,1,0,90,0,0
72172,-100,4,1,0,90,0,0
73435,-100,4,1,0,90,0,0
74698,-105.263157894737,4,1,0,90,0,0
75961,-111.111111111111,4,1,0,90,0,0
77224,-117.647058823529,4,1,0,90,0,0
78487,-125,4,1,0,90,0,0
79750,-133.333333333333,4,1,0,90,0,0
81014,-142.857142857143,4,1,0,80,0,0
81645,-139.072847682119,4,1,0,80,0,0
81961,-135.483870967742,4,1,0,80,0,0
82119,-132.075471698113,4,1,0,80,0,0
82277,-128.834355828221,4,1,0,80,0,0
82593,-125.748502994012,4,1,0,80,0,0
82750,-122.80701754386,4,1,0,80,0,0
82908,-120,4,1,0,80,0,0
83224,-117.31843575419,4,1,0,80,0,0
83540,-114.754098360656,4,1,0,80,0,0
84172,-112.299465240642,4,1,0,80,0,0
84487,-109.947643979058,4,1,0,80,0,0
84645,-107.692307692308,4,1,0,80,0,0
84803,-105.527638190955,4,1,0,80,0,0
85119,-103.448275862069,4,1,0,80,0,0
85277,-101.449275362319,4,1,0,80,0,0
85435,-99.5260663507109,4,1,0,80,0,0
85750,-97.6744186046512,4,1,0,80,0,0
86066,-95.8904109589041,4,1,0,80,0,0
86224,-94.1704035874439,4,1,0,80,0,0
86540,-92.511013215859,4,1,0,80,0,0
86698,-90.9090909090909,4,1,0,80,0,0
87014,-89.3617021276596,4,1,0,80,0,0
87172,-87.8661087866109,4,1,0,80,0,0
87329,-86.4197530864198,4,1,0,80,0,0
87645,-85.0202429149798,4,1,0,80,0,0
87803,-83.6653386454183,4,1,0,80,0,0
87961,-82.3529411764706,4,1,0,80,0,0
88277,-81.0810810810811,4,1,0,80,0,0
88593,-79.8479087452472,4,1,0,80,0,0
88750,-78.6516853932584,4,1,0,80,0,0
88908,-77.4907749077491,4,1,0,80,0,0
88987,-76.3636363636364,4,1,0,80,0,0
89066,-75.2688172043011,4,1,0,80,0,0
89224,-74.2049469964664,4,1,0,80,0,0
89540,-73.1707317073171,4,1,0,80,0,0
89698,-72.1649484536082,4,1,0,80,0,0
89856,-71.1864406779661,4,1,0,80,0,0
89935,-70.2341137123746,4,1,0,80,0,0
90014,-69.3069306930693,4,1,0,80,0,0
90172,-68.4039087947883,4,1,0,80,0,0
90329,-67.524115755627,4,1,0,80,0,0
90487,-66.6666666666667,4,1,0,80,0,0
91119,-100,4,1,0,90,0,1
111329,-100,4,1,0,80,0,0
131856,-100,4,1,0,80,0,0
141645,-100,4,1,0,80,0,0
141961,-98.9473684210526,4,1,0,80,0,0
142435,-97.9166666666667,4,1,0,80,0,0
142593,-96.9072164948454,4,1,0,80,0,0
142908,-95.9183673469388,4,1,0,80,0,0
143066,-94.949494949495,4,1,0,80,0,0
143224,-94,4,1,0,80,0,0
143540,-93.0693069306931,4,1,0,80,0,0
143698,-92.1568627450981,4,1,0,80,0,0
143856,-91.2621359223301,4,1,0,80,0,0
144014,-90.3846153846154,4,1,0,80,0,0
144172,-89.5238095238095,4,1,0,80,0,0
144487,-88.6792452830189,4,1,0,80,0,0
144803,-87.8504672897196,4,1,0,80,0,0
144961,-87.037037037037,4,1,0,80,0,0
145119,-86.2385321100918,4,1,0,80,0,0
145435,-85.4545454545455,4,1,0,80,0,0
145750,-84.6846846846847,4,1,0,80,0,0
145908,-83.9285714285714,4,1,0,80,0,0
146066,-83.1858407079646,4,1,0,80,0,0
146224,-82.4561403508772,4,1,0,80,0,0
146382,-81.7391304347826,4,1,0,80,0,0
146540,-81.0344827586207,4,1,0,80,0,0
146619,-80.3418803418803,4,1,0,80,0,0
146698,-79.6610169491526,4,1,0,80,0,0
147014,-78.9915966386555,4,1,0,80,0,0
147487,-78.3333333333333,4,1,0,80,0,0
147645,-77.6859504132231,4,1,0,80,0,0
147961,-77.0491803278689,4,1,0,80,0,0
148119,-76.4227642276423,4,1,0,80,0,0
148277,-75.8064516129032,4,1,0,70,0,0
148593,-75.2,4,1,0,60,0,0
148750,-74.6031746031746,4,1,0,60,0,0
148908,-74.0157480314961,4,1,0,50,0,0
149066,-73.4375,4,1,0,50,0,0
149224,-72.8682170542636,4,1,0,40,0,0
149540,-72.3076923076923,4,1,0,40,0,0
149856,-71.7557251908397,4,1,0,40,0,0
150014,-71.2121212121212,4,1,0,40,0,0
150172,-70.6766917293233,4,1,0,40,0,0
150487,-70.1492537313433,4,1,0,50,0,0
150803,-69.6296296296296,4,1,0,60,0,0
150961,-69.1176470588235,4,1,0,60,0,0
151119,-68.6131386861314,4,1,0,70,0,0
151277,-68.1159420289855,4,1,0,70,0,0
151435,-67.6258992805756,4,1,0,80,0,0
151593,-67.1428571428572,4,1,0,80,0,0
151672,-66.6666666666667,4,1,0,80,0,0

[HitObjects]
256,192,172,12,0,5066,0:0:0:0:
145,338,5224,6,4,B|60:273|57:188|54:44|103:28|341:11|240:257|344:146|416:37,6,566.999982696534
160,288,9645,5,4,0:0:0:0:
216,159,10277,1,12,0:0:0:0:
352,96,10593,1,0,0:0:0:0:
169,120,10750,1,0,0:0:0:0:
352,96,10908,1,8,0:0:0:0:
352,96,10987,1,8,0:0:0:0:
352,96,11066,1,8,0:0:0:0:
352,96,11224,1,0,0:0:0:0:
352,96,11382,1,0,0:0:0:0:
352,96,11540,1,8,0:0:0:0:
352,96,11856,1,0,0:0:0:0:
180,121,12014,1,0,0:0:0:0:
160,96,12172,1,8,0:0:0:0:
352,96,12329,1,8,0:0:0:0:
160,96,12487,1,0,0:0:0:0:
352,96,12645,1,8,0:0:0:0:
160,96,12803,1,0,0:0:0:0:
160,96,13119,1,8,0:0:0:0:
160,96,13435,1,0,0:0:0:0:
160,96,13514,1,0,0:0:0:0:
160,96,13593,1,0,0:0:0:0:
160,96,13750,1,8,0:0:0:0:
160,96,13908,1,0,0:0:0:0:
352,96,14066,1,8,0:0:0:0:
280,157,14540,1,0,0:0:0:0:
70,131,14698,1,8,0:0:0:0:
105,138,14856,1,0,0:0:0:0:
352,96,15014,1,8,0:0:0:0:
177,99,15093,1,8,0:0:0:0:
28,148,15172,1,8,0:0:0:0:
160,96,15329,1,0,0:0:0:0:
160,96,15645,1,8,0:0:0:0:
152,134,15803,1,8,0:0:0:0:
160,96,15961,1,0,0:0:0:0:
160,96,16040,1,0,0:0:0:0:
160,96,16119,1,0,0:0:0:0:
160,96,16277,1,8,0:0:0:0:
160,96,16435,1,8,0:0:0:0:
160,96,16593,1,0,0:0:0:0:
160,96,16908,1,8,0:0:0:0:
152,134,17066,1,0,0:0:0:0:
352,96,17224,1,8,0:0:0:0:
214,140,17382,1,8,0:0:0:0:
352,96,17540,1,0,0:0:0:0:
160,96,17698,1,0,0:0:0:0:
352,96,17856,1,8,0:0:0:0:
352,96,18172,1,0,0:0:0:0:
352,96,18487,1,8,0:0:0:0:
352,96,18566,1,8,0:0:0:0:
352,96,18645,1,8,0:0:0:0:
352,96,18803,1,0,0:0:0:0:
352,96,18961,1,0,0:0:0:0:
160,96,19119,1,8,0:0:0:0:
352,96,19356,1,8,0:0:0:0:
160,96,19593,1,8,0:0:0:0:
70,149,19750,1,0,0:0:0:0:
238,111,19829,1,0,0:0:0:0:
238,111,19908,1,0,0:0:0:0:
238,111,20066,1,8,0:0:0:0:
160,96,20382,1,4,0:0:0:0:
352,96,20698,1,8,0:0:0:0:
103,85,20856,1,8,0:0:0:0:
160,96,21014,1,0,0:0:0:0:
160,96,21093,1,0,0:0:0:0:
160,96,21172,1,0,0:0:0:0:
352,96,21329,1,8,0:0:0:0:
352,96,21487,1,8,0:0:0:0:
160,96,21645,1,0,0:0:0:0:
352,96,21961,1,8,0:0:0:0:
352,96,22119,1,8,0:0:0:0:
160,96,22277,1,0,0:0:0:0:
352,96,22435,1,8,0:0:0:0:
160,96,22593,1,0,0:0:0:0:
352,96,22750,1,0,0:0:0:0:
160,96,22908,1,8,0:0:0:0:
352,96,23224,1,0,0:0:0:0:
160,96,23540,1,8,0:0:0:0:
160,96,23619,1,8,0:0:0:0:
160,96,23698,1,8,0:0:0:0:
352,96,23856,1,0,0:0:0:0:
160,96,24014,1,0,0:0:0:0:
352,96,24172,1,8,0:0:0:0:
264,78,24645,1,0,0:0:0:0:
352,96,24803,1,8,0:0:0:0:
160,96,24961,1,0,0:0:0:0:
352,96,25119,1,8,0:0:0:0:
352,96,25198,1,8,0:0:0:0:
160,96,25277,1,8,0:0:0:0:
352,96,25435,1,0,0:0:0:0:
160,96,25750,1,8,0:0:0:0:
160,96,25908,1,8,0:0:0:0:
352,96,26066,1,0,0:0:0:0:
352,96,26145,1,0,0:0:0:0:
352,96,26224,1,0,0:0:0:0:
160,96,26382,1,8,0:0:0:0:
160,96,26540,1,8,0:0:0:0:
352,96,26698,1,0,0:0:0:0:
160,96,27014,1,8,0:0:0:0:
160,96,27172,1,8,0:0:0:0:
352,96,27329,1,0,0:0:0:0:
160,96,27487,1,8,0:0:0:0:
352,96,27645,1,0,0:0:0:0:
160,96,27803,1,0,0:0:0:0:
352,96,27961,1,8,0:0:0:0:
160,96,28277,1,0,0:0:0:0:
352,96,28593,1,8,0:0:0:0:
352,96,28672,1,8,0:0:0:0:
352,96,28750,1,8,0:0:0:0:
160,96,28908,1,0,0:0:0:0:
160,96,29066,1,0,0:0:0:0:
352,96,29224,1,8,0:0:0:0:
352,96,29461,1,8,0:0:0:0:
352,96,29698,1,8,0:0:0:0:
126,123,29856,1,0,0:0:0:0:
132,145,29935,1,0,0:0:0:0:
132,145,30014,1,0,0:0:0:0:
163,118,30172,1,8,0:0:0:0:
177,112,30487,1,4,0:0:0:0:
374,191,30645,1,0,0:0:0:0:
374,191,30724,1,0,0:0:0:0:
301,146,30803,1,0,0:0:0:0:
160,96,30961,1,0,0:0:0:0:
352,96,31119,1,8,0:0:0:0:
352,96,31435,1,8,0:0:0:0:
29,159,31593,1,0,0:0:0:0:
352,96,31750,1,8,0:0:0:0:
352,96,32066,1,8,0:0:0:0:
189,148,32224,1,0,0:0:0:0:
352,96,32382,1,8,0:0:0:0:
352,96,32698,1,8,0:0:0:0:
189,148,32856,1,0,0:0:0:0:
0,81,33014,2,0,L|279:154,1,280
352,96,34277,1,8,0:0:0:0:
160,96,34435,1,0,0:0:0:0:
352,96,34593,1,8,0:0:0:0:
352,96,34908,1,8,0:0:0:0:
160,96,35066,1,0,0:0:0:0:
352,96,35224,1,8,0:0:0:0:
160,96,35540,1,0,0:0:0:0:
136,131,35698,1,8,0:0:0:0:
136,131,35777,1,8,0:0:0:0:
203,93,35856,1,8,0:0:0:0:
160,96,36014,1,0,0:0:0:0:
352,96,36172,1,8,0:0:0:0:
352,96,36487,1,8,0:0:0:0:
160,96,36645,1,0,0:0:0:0:
352,96,36803,1,8,0:0:0:0:
352,96,37119,1,8,0:0:0:0:
160,96,37277,5,0,0:0:0:0:
352,96,37435,1,8,0:0:0:0:
352,96,37750,1,8,0:0:0:0:
160,96,37908,1,0,0:0:0:0:
167,293,38066,6,0,L|378:206,1,210
352,96,38698,1,8,0:0:0:0:
352,96,38777,1,8,0:0:0:0:
160,96,38856,1,8,0:0:0:0:
352,96,39014,1,8,0:0:0:0:
160,96,39172,1,0,0:0:0:0:
352,96,39329,1,8,0:0:0:0:
352,96,39487,1,0,0:0:0:0:
352,96,39645,1,8,0:0:0:0:
352,96,39961,1,8,0:0:0:0:
160,96,40119,1,0,0:0:0:0:
352,96,40277,1,8,0:0:0:0:
160,288,40593,5,4,0:0:0:0:
352,96,40908,1,8,0:0:0:0:
352,96,41382,1,8,0:0:0:0:
160,96,41540,1,0,0:0:0:0:
352,96,41698,1,8,0:0:0:0:
160,96,41856,1,0,0:0:0:0:
352,96,42172,1,8,0:0:0:0:
352,96,42645,1,8,0:0:0:0:
160,96,42803,1,0,0:0:0:0:
352,96,42961,1,8,0:0:0:0:
160,96,43119,1,0,0:0:0:0:
352,96,43435,1,8,0:0:0:0:
352,96,43908,1,8,0:0:0:0:
160,96,44066,1,0,0:0:0:0:
352,96,44224,1,8,0:0:0:0:
160,96,44382,1,0,0:0:0:0:
352,96,44698,1,8,0:0:0:0:
352,96,45172,1,8,0:0:0:0:
352,96,45329,1,8,0:0:0:0:
352,96,45408,1,8,0:0:0:0:
160,96,45487,1,8,0:0:0:0:
160,96,45645,1,0,0:0:0:0:
352,96,45961,1,8,0:0:0:0:
352,96,46435,1,8,0:0:0:0:
160,96,46593,1,0,0:0:0:0:
352,96,46750,1,8,0:0:0:0:
160,96,46908,1,0,0:0:0:0:
352,96,47224,1,8,0:0:0:0:
352,96,47698,1,8,0:0:0:0:
160,96,47856,1,0,0:0:0:0:
352,96,48014,1,8,0:0:0:0:
160,96,48172,1,0,0:0:0:0:
352,96,48487,5,8,0:0:0:0:
352,96,48961,1,8,0:0:0:0:
160,96,49119,1,0,0:0:0:0:
352,96,49277,1,8,0:0:0:0:
352,96,49435,5,8,0:0:0:0:
110,138,49514,1,8,0:0:0:0:
160,96,49593,1,8,0:0:0:0:
166,34,49750,1,0,0:0:0:0:
150,113,49829,1,0,0:0:0:0:
152,166,49908,1,0,0:0:0:0:
352,96,50066,1,8,0:0:0:0:
352,96,50224,1,0,0:0:0:0:
352,96,50382,1,8,0:0:0:0:
352,96,50698,5,8,0:0:0:0:
352,96,50777,1,8,0:0:0:0:
352,96,50856,1,8,0:0:0:0:
352,96,51014,1,8,0:0:0:0:
352,96,51093,1,8,0:0:0:0:
352,96,51172,1,8,0:0:0:0:
352,96,51329,1,8,0:0:0:0:
160,96,51645,1,8,0:0:0:0:
127,106,51803,1,0,0:0:0:0:
160,96,51961,1,0,0:0:0:0:
131,115,52040,1,0,0:0:0:0:
131,115,52119,1,0,0:0:0:0:
160,96,52277,1,8,0:0:0:0:
352,96,52593,1,8,0:0:0:0:
160,96,52750,1,0,0:0:0:0:
352,96,52908,1,8,0:0:0:0:
160,96,53066,1,0,0:0:0:0:
352,96,53224,5,8,0:0:0:0:
352,96,53303,1,8,0:0:0:0:
352,96,53382,1,8,0:0:0:0:
352,96,53540,1,8,0:0:0:0:
352,96,53619,1,8,0:0:0:0:
352,96,53698,1,8,0:0:0:0:
352,96,53856,1,8,0:0:0:0:
160,96,54172,1,8,0:0:0:0:
352,96,54329,1,0,0:0:0:0:
160,96,54487,5,0,0:0:0:0:
131,115,54566,1,0,0:0:0:0:
131,115,54645,1,0,0:0:0:0:
160,96,54803,1,8,0:0:0:0:
352,96,55119,1,8,0:0:0:0:
352,96,55435,1,0,0:0:0:0:
293,142,55593,1,0,0:0:0:0:
352,96,55750,5,8,0:0:0:0:
352,96,55829,1,8,0:0:0:0:
352,96,55908,1,8,0:0:0:0:
352,96,56066,1,8,0:0:0:0:
352,96,56145,1,8,0:0:0:0:
352,96,56224,1,8,0:0:0:0:
352,96,56382,1,8,0:0:0:0:
160,96,56698,1,8,0:0:0:0:
352,96,56856,1,0,0:0:0:0:
160,96,57014,5,0,0:0:0:0:
131,115,57093,1,0,0:0:0:0:
131,115,57172,1,0,0:0:0:0:
160,96,57329,1,8,0:0:0:0:
352,96,57645,1,8,0:0:0:0:
160,96,57803,1,0,0:0:0:0:
352,96,57882,1,0,0:0:0:0:
352,96,57961,1,0,0:0:0:0:
160,96,58119,1,0,0:0:0:0:
352,96,58277,5,8,0:0:0:0:
352,96,58356,1,8,0:0:0:0:
352,96,58435,1,8,0:0:0:0:
352,96,58593,1,8,0:0:0:0:
352,96,58672,1,8,0:0:0:0:
352,96,58750,1,8,0:0:0:0:
352,96,58908,1,8,0:0:0:0:
160,96,59224,1,8,0:0:0:0:
352,96,59382,1,0,0:0:0:0:
160,96,59540,1,0,0:0:0:0:
352,96,60172,1,8,0:0:0:0:
352,96,60329,1,0,0:0:0:0:
352,96,60408,1,0,0:0:0:0:
160,96,60487,1,0,0:0:0:0:
352,96,60645,1,0,0:0:0:0:
352,96,60803,5,8,0:0:0:0:
352,96,60882,1,8,0:0:0:0:
352,96,60961,1,8,0:0:0:0:
352,96,61119,1,8,0:0:0:0:
352,96,61198,1,8,0:0:0:0:
352,96,61277,1,8,0:0:0:0:
352,96,61435,1,8,0:0:0:0:
160,96,61750,1,8,0:0:0:0:
352,96,61908,1,0,0:0:0:0:
160,96,62066,1,0,0:0:0:0:
77,142,62145,1,0,0:0:0:0:
77,142,62224,1,0,0:0:0:0:
160,96,62382,1,8,0:0:0:0:
352,96,62698,1,8,0:0:0:0:
160,96,62856,1,0,0:0:0:0:
352,96,63014,1,8,0:0:0:0:
160,96,63172,1,0,0:0:0:0:
352,96,63329,5,8,0:0:0:0:
352,96,63408,1,8,0:0:0:0:
352,96,63487,1,8,0:0:0:0:
352,96,63645,1,8,0:0:0:0:
352,96,63724,1,8,0:0:0:0:
352,96,63803,1,8,0:0:0:0:
352,96,63961,1,8,0:0:0:0:
160,96,64277,1,8,0:0:0:0:
352,96,64435,1,0,0:0:0:0:
160,96,64593,5,0,0:0:0:0:
160,96,64672,1,0,0:0:0:0:
116,122,64750,1,0,0:0:0:0:
160,96,64908,1,8,0:0:0:0:
352,96,65224,1,8,0:0:0:0:
160,96,65540,1,0,0:0:0:0:
352,96,65698,1,0,0:0:0:0:
352,96,65856,5,8,0:0:0:0:
352,96,65935,1,8,0:0:0:0:
352,96,66014,1,8,0:0:0:0:
352,96,66172,1,8,0:0:0:0:
352,96,66250,1,8,0:0:0:0:
352,96,66329,1,8,0:0:0:0:
352,96,66487,1,8,0:0:0:0:
160,96,66803,1,8,0:0:0:0:
352,96,66961,1,0,0:0:0:0:
160,96,67119,5,0,0:0:0:0:
106,135,67198,1,0,0:0:0:0:
106,135,67277,1,0,0:0:0:0:
160,96,67435,1,8,0:0:0:0:
352,96,67750,1,8,0:0:0:0:
160,96,67908,1,0,0:0:0:0:
352,96,68066,1,8,0:0:0:0:
160,96,68224,1,0,0:0:0:0:
352,96,68382,5,8,0:0:0:0:
352,96,68461,1,8,0:0:0:0:
352,96,68540,1,8,0:0:0:0:
352,96,68698,1,8,0:0:0:0:
352,96,68777,1,8,0:0:0:0:
352,96,68856,1,8,0:0:0:0:
352,96,69014,1,8,0:0:0:0:
160,96,69329,1,8,0:0:0:0:
352,96,69487,1,0,0:0:0:0:
160,96,69645,1,0,0:0:0:0:
154,119,69724,1,0,0:0:0:0:
154,119,69803,1,0,0:0:0:0:
160,96,69961,1,8,0:0:0:0:
352,96,70277,1,8,0:0:0:0:
352,96,70435,1,0,0:0:0:0:
160,96,70593,1,0,0:0:0:0:
352,96,70672,1,0,0:0:0:0:
352,96,70750,1,0,0:0:0:0:
101,106,70908,1,12,0:0:0:0:
256,192,71066,12,0,80698,0:0:0:0:
160,288,81014,5,4,0:0:0:0:
352,96,81645,1,8,0:0:0:0:
160,96,81961,1,0,0:0:0:0:
352,96,82119,1,8,0:0:0:0:
160,96,82277,1,0,0:0:0:0:
352,96,82593,1,8,0:0:0:0:
160,96,82750,1,0,0:0:0:0:
352,96,82908,1,8,0:0:0:0:
352,96,83224,1,8,0:0:0:0:
160,96,83540,1,0,0:0:0:0:
352,96,84172,1,8,0:0:0:0:
160,96,84487,1,0,0:0:0:0:
352,96,84645,1,8,0:0:0:0:
160,96,84803,1,0,0:0:0:0:
160,96,85119,1,0,0:0:0:0:
160,96,85277,1,0,0:0:0:0:
352,96,85435,1,8,0:0:0:0:
352,96,85750,1,8,0:0:0:0:
160,96,86066,1,0,0:0:0:0:
38,121,86224,1,0,0:0:0:0:
160,96,86540,1,0,0:0:0:0:
352,96,86698,1,8,0:0:0:0:
160,96,87014,1,0,0:0:0:0:
352,96,87172,1,8,0:0:0:0:
160,96,87329,1,0,0:0:0:0:
160,96,87645,1,0,0:0:0:0:
160,96,87803,1,0,0:0:0:0:
352,96,87961,1,8,0:0:0:0:
352,96,88277,1,8,0:0:0:0:
160,96,88593,1,0,0:0:0:0:
352,96,88750,1,8,0:0:0:0:
160,96,88908,1,0,0:0:0:0:
160,96,89066,1,0,0:0:0:0:
352,96,89224,1,8,0:0:0:0:
352,96,89540,1,0,0:0:0:0:
352,96,89698,1,8,0:0:0:0:
160,96,89856,1,0,0:0:0:0:
52,149,89935,1,0,0:0:0:0:
160,96,90014,1,0,0:0:0:0:
352,96,90172,1,8,0:0:0:0:
160,96,90329,1,0,0:0:0:0:
352,288,90487,1,12,0:0:0:0:
216,159,91119,1,12,0:0:0:0:
352,96,91435,1,0,0:0:0:0:
169,120,91593,1,0,0:0:0:0:
352,96,91750,1,8,0:0:0:0:
352,96,91829,1,8,0:0:0:0:
352,96,91908,1,8,0:0:0:0:
352,96,92066,1,0,0:0:0:0:
352,96,92224,1,0,0:0:0:0:
352,96,92382,1,8,0:0:0:0:
352,96,92698,1,0,0:0:0:0:
180,121,92856,1,0,0:0:0:0:
160,96,93014,1,8,0:0:0:0:
352,96,93172,1,8,0:0:0:0:
160,96,93329,1,0,0:0:0:0:
352,96,93487,1,8,0:0:0:0:
160,96,93645,1,0,0:0:0:0:
160,96,93961,1,8,0:0:0:0:
160,96,94277,1,0,0:0:0:0:
160,96,94356,1,0,0:0:0:0:
160,96,94435,1,0,0:0:0:0:
160,96,94593,1,8,0:0:0:0:
160,96,94750,1,0,0:0:0:0:
352,96,94908,1,8,0:0:0:0:
352,96,95382,1,0,0:0:0:0:
70,131,95540,1,8,0:0:0:0:
102,128,95698,1,0,0:0:0:0:
352,96,95856,1,8,0:0:0:0:
177,99,95935,1,8,0:0:0:0:
28,148,96014,1,8,0:0:0:0:
160,96,96172,1,0,0:0:0:0:
160,96,96487,1,8,0:0:0:0:
152,134,96645,1,8,0:0:0:0:
160,96,96803,1,0,0:0:0:0:
160,96,96882,1,0,0:0:0:0:
160,96,96961,1,0,0:0:0:0:
160,96,97119,1,8,0:0:0:0:
160,96,97277,1,8,0:0:0:0:
160,96,97435,1,0,0:0:0:0:
160,96,97750,1,8,0:0:0:0:
152,134,97908,1,0,0:0:0:0:
352,96,98066,1,8,0:0:0:0:
214,140,98224,1,8,0:0:0:0:
352,96,98382,1,0,0:0:0:0:
160,96,98540,1,0,0:0:0:0:
352,96,98698,1,8,0:0:0:0:
352,96,99014,1,0,0:0:0:0:
352,96,99329,1,8,0:0:0:0:
352,96,99408,1,8,0:0:0:0:
352,96,99487,1,8,0:0:0:0:
352,96,99645,1,0,0:0:0:0:
352,96,99803,1,0,0:0:0:0:
160,96,99961,1,8,0:0:0:0:
352,96,100198,1,8,0:0:0:0:
160,96,100435,1,8,0:0:0:0:
70,149,100593,1,0,0:0:0:0:
137,157,100672,1,0,0:0:0:0:
137,157,100750,1,0,0:0:0:0:
217,85,100908,1,8,0:0:0:0:
160,96,101224,1,4,0:0:0:0:
352,96,101540,1,8,0:0:0:0:
103,85,101698,1,8,0:0:0:0:
160,96,101856,1,0,0:0:0:0:
160,96,101935,1,0,0:0:0:0:
160,96,102014,1,0,0:0:0:0:
352,96,102172,1,8,0:0:0:0:
352,96,102329,1,8,0:0:0:0:
160,96,102487,1,0,0:0:0:0:
352,96,102803,1,8,0:0:0:0:
352,96,102961,1,8,0:0:0:0:
160,96,103119,1,0,0:0:0:0:
352,96,103277,1,8,0:0:0:0:
160,96,103435,1,0,0:0:0:0:
352,96,103593,1,0,0:0:0:0:
160,96,103750,1,8,0:0:0:0:
352,96,104066,1,0,0:0:0:0:
160,96,104382,1,8,0:0:0:0:
160,96,104461,1,8,0:0:0:0:
160,96,104540,1,8,0:0:0:0:
352,96,104698,1,0,0:0:0:0:
160,96,104856,1,0,0:0:0:0:
352,96,105014,1,8,0:0:0:0:
160,96,105487,1,0,0:0:0:0:
352,96,105645,1,8,0:0:0:0:
160,96,105803,1,0,0:0:0:0:
352,96,105961,1,8,0:0:0:0:
352,96,106040,1,8,0:0:0:0:
160,96,106119,1,8,0:0:0:0:
352,96,106277,1,0,0:0:0:0:
160,96,106593,1,8,0:0:0:0:
160,96,106750,1,8,0:0:0:0:
352,96,106908,1,0,0:0:0:0:
352,96,106987,1,0,0:0:0:0:
352,96,107066,1,0,0:0:0:0:
160,96,107224,1,8,0:0:0:0:
160,96,107382,1,8,0:0:0:0:
352,96,107540,1,0,0:0:0:0:
160,96,107856,1,8,0:0:0:0:
160,96,108014,1,8,0:0:0:0:
352,96,108172,1,0,0:0:0:0:
160,96,108329,1,8,0:0:0:0:
352,96,108487,1,0,0:0:0:0:
160,96,108645,1,0,0:0:0:0:
352,96,108803,1,8,0:0:0:0:
160,96,109119,1,0,0:0:0:0:
352,96,109435,1,8,0:0:0:0:
352,96,109514,1,8,0:0:0:0:
352,96,109593,1,8,0:0:0:0:
160,96,109750,1,0,0:0:0:0:
160,96,109908,1,0,0:0:0:0:
352,96,110066,1,8,0:0:0:0:
352,96,110303,1,8,0:0:0:0:
352,96,110540,1,8,0:0:0:0:
126,123,110698,1,0,0:0:0:0:
121,158,110777,1,0,0:0:0:0:
121,158,110856,1,0,0:0:0:0:
176,115,111014,1,8,0:0:0:0:
177,112,111329,1,4,0:0:0:0:
374,191,111487,1,8,0:0:0:0:
374,191,111566,1,8,0:0:0:0:
301,146,111645,1,8,0:0:0:0:
160,96,111803,1,0,0:0:0:0:
352,96,111961,1,8,0:0:0:0:
352,96,112277,1,8,0:0:0:0:
29,159,112435,1,0,0:0:0:0:
352,96,112593,1,8,0:0:0:0:
352,96,112908,1,8,0:0:0:0:
189,148,113066,1,0,0:0:0:0:
352,96,113224,1,8,0:0:0:0:
352,96,113540,1,8,0:0:0:0:
189,148,113698,1,0,0:0:0:0:
0,81,113856,2,0,L|297:166,1,280
352,96,115119,1,8,0:0:0:0:
160,96,115277,1,0,0:0:0:0:
352,96,115435,1,8,0:0:0:0:
352,96,115750,1,8,0:0:0:0:
160,96,115908,1,0,0:0:0:0:
352,96,116066,1,8,0:0:0:0:
160,96,116382,1,0,0:0:0:0:
136,131,116540,1,0,0:0:0:0:
136,131,116619,1,0,0:0:0:0:
203,93,116698,1,0,0:0:0:0:
160,96,116856,1,0,0:0:0:0:
352,96,117014,1,8,0:0:0:0:
160,96,117172,1,0,0:0:0:0:
352,96,117329,1,8,0:0:0:0:
352,96,117645,1,8,0:0:0:0:
160,96,117803,5,0,0:0:0:0:
352,96,117961,1,8,0:0:0:0:
352,96,118277,1,8,0:0:0:0:
160,96,118435,1,0,0:0:0:0:
352,96,118593,1,8,0:0:0:0:
167,293,118908,6,0,L|378:206,1,210
352,96,119540,1,8,0:0:0:0:
352,96,119619,1,8,0:0:0:0:
160,96,119698,1,8,0:0:0:0:
352,96,119856,1,8,0:0:0:0:
160,96,120014,1,0,0:0:0:0:
352,96,120172,1,8,0:0:0:0:
352,96,120329,1,0,0:0:0:0:
352,96,120487,1,8,0:0:0:0:
352,96,120803,1,8,0:0:0:0:
160,96,120961,1,0,0:0:0:0:
352,96,121119,1,8,0:0:0:0:
160,288,121435,5,4,0:0:0:0:
352,96,121750,1,8,0:0:0:0:
352,96,122224,1,8,0:0:0:0:
160,96,122382,1,0,0:0:0:0:
352,96,122540,1,8,0:0:0:0:
160,96,122698,1,0,0:0:0:0:
352,96,123014,1,8,0:0:0:0:
352,96,123487,1,8,0:0:0:0:
160,96,123645,1,0,0:0:0:0:
352,96,123803,1,8,0:0:0:0:
160,96,123961,1,0,0:0:0:0:
352,96,124277,1,8,0:0:0:0:
352,96,124750,1,8,0:0:0:0:
160,96,124908,1,0,0:0:0:0:
352,96,125066,1,8,0:0:0:0:
160,96,125224,1,0,0:0:0:0:
352,96,125540,1,8,0:0:0:0:
352,96,126014,1,8,0:0:0:0:
352,96,126172,1,8,0:0:0:0:
352,96,126250,1,8,0:0:0:0:
160,96,126329,1,8,0:0:0:0:
160,96,126487,1,0,0:0:0:0:
352,96,126803,1,8,0:0:0:0:
352,96,127277,1,8,0:0:0:0:
160,96,127435,1,0,0:0:0:0:
352,96,127593,1,8,0:0:0:0:
160,96,127750,1,0,0:0:0:0:
352,96,128066,1,8,0:0:0:0:
352,96,128540,1,8,0:0:0:0:
160,96,128698,1,0,0:0:0:0:
352,96,128856,1,8,0:0:0:0:
160,96,129014,1,0,0:0:0:0:
352,96,129329,5,8,0:0:0:0:
352,96,129803,1,8,0:0:0:0:
160,96,129961,1,0,0:0:0:0:
352,96,130119,1,8,0:0:0:0:
352,96,130277,5,8,0:0:0:0:
110,138,130356,1,8,0:0:0:0:
160,96,130435,1,8,0:0:0:0:
166,34,130593,1,0,0:0:0:0:
150,113,130672,5,0,0:0:0:0:
152,166,130750,1,0,0:0:0:0:
352,96,130908,1,8,0:0:0:0:
352,96,131066,1,0,0:0:0:0:
352,96,131224,1,8,0:0:0:0:
234,186,131540,1,4,0:0:0:0:
352,96,131856,5,8,0:0:0:0:
160,96,132329,1,0,0:0:0:0:
352,96,132487,1,8,0:0:0:0:
160,96,132803,1,0,0:0:0:0:
160,96,132961,1,0,0:0:0:0:
352,96,133119,1,8,0:0:0:0:
160,96,133435,1,8,0:0:0:0:
160,96,133593,1,0,0:0:0:0:
352,96,133750,1,8,0:0:0:0:
352,96,133908,1,8,0:0:0:0:
160,96,134066,1,0,0:0:0:0:
352,96,134382,1,8,0:0:0:0:
160,96,134698,1,0,0:0:0:0:
160,96,134856,1,0,0:0:0:0:
352,96,135014,1,8,0:0:0:0:
160,96,135329,1,0,0:0:0:0:
352,96,135645,1,8,0:0:0:0:
87,141,135803,1,8,0:0:0:0:
160,96,135961,1,0,0:0:0:0:
160,96,136119,1,0,0:0:0:0:
352,96,136277,1,8,0:0:0:0:
160,96,136435,1,0,0:0:0:0:
160,96,136514,1,0,0:0:0:0:
160,96,136593,1,0,0:0:0:0:
352,96,136908,1,8,0:0:0:0:
160,96,137382,1,0,0:0:0:0:
352,96,137540,1,8,0:0:0:0:
160,96,137856,1,0,0:0:0:0:
160,96,138014,1,0,0:0:0:0:
352,96,138172,1,8,0:0:0:0:
160,96,138487,1,8,0:0:0:0:
160,96,138645,1,0,0:0:0:0:
352,96,138803,1,8,0:0:0:0:
352,96,138961,1,8,0:0:0:0:
160,96,139119,1,0,0:0:0:0:
352,96,139435,1,8,0:0:0:0:
160,96,139750,1,0,0:0:0:0:
160,96,139908,1,0,0:0:0:0:
352,96,140066,1,8,0:0:0:0:
352,96,140698,1,8,0:0:0:0:
352,96,141329,1,8,0:0:0:0:
160,288,141645,1,4,0:0:0:0:
352,96,141961,1,8,0:0:0:0:
160,96,142435,1,0,0:0:0:0:
352,96,142593,1,8,0:0:0:0:
160,96,142908,1,0,0:0:0:0:
160,96,143066,1,0,0:0:0:0:
352,96,143224,1,8,0:0:0:0:
160,96,143540,1,8,0:0:0:0:
140,137,143698,1,0,0:0:0:0:
352,96,143856,1,8,0:0:0:0:
160,96,144014,1,8,0:0:0:0:
160,96,144172,1,0,0:0:0:0:
352,96,144487,1,8,0:0:0:0:
160,96,144803,1,0,0:0:0:0:
160,96,144961,1,0,0:0:0:0:
352,96,145119,1,8,0:0:0:0:
160,96,145435,1,0,0:0:0:0:
352,96,145750,1,8,0:0:0:0:
168,117,145908,1,8,0:0:0:0:
160,96,146066,1,0,0:0:0:0:
160,96,146224,1,0,0:0:0:0:
352,96,146382,1,8,0:0:0:0:
160,96,146540,1,0,0:0:0:0:
160,96,146619,1,0,0:0:0:0:
160,96,146698,1,0,0:0:0:0:
352,96,147014,1,8,0:0:0:0:
51,157,147487,1,0,0:0:0:0:
352,96,147645,1,8,0:0:0:0:
160,96,147961,1,0,0:0:0:0:
160,96,148119,1,0,0:0:0:0:
352,96,148277,1,8,0:0:0:0:
160,96,148593,1,8,0:0:0:0:
160,96,148750,1,0,0:0:0:0:
352,96,148908,1,8,0:0:0:0:
197,125,149066,1,8,0:0:0:0:
160,96,149224,1,0,0:0:0:0:
352,96,149540,1,8,0:0:0:0:
160,96,149856,1,0,0:0:0:0:
160,96,150014,1,0,0:0:0:0:
352,96,150172,1,8,0:0:0:0:
160,96,150487,1,0,0:0:0:0:
352,96,150803,5,8,0:0:0:0:
352,96,150961,1,8,0:0:0:0:
160,96,151119,1,0,0:0:0:0:
160,96,151277,1,0,0:0:0:0:
352,96,151435,1,8,0:0:0:0:
160,96,151593,1,0,0:0:0:0:
160,96,151672,1,0,0:0:0:0:
