osu file format v14

[General]
AudioFilename: audio.mp3
AudioLeadIn: 0
PreviewTime: 90945
Countdown: 0
SampleSet: Normal
StackLeniency: 0.7
Mode: 1
LetterboxInBreaks: 0
WidescreenStoryboard: 1

[Editor]
Bookmarks: 156,4656,5208,10261,20366,30471,40577,50682,70892,80998,91103,101208,111313,121419,131524,141629,151734
DistanceSpacing: 0.8
BeatDivisor: 2
GridSize: 32
TimelineZoom: 1.000001

[Metadata]
Title:Fasten Your Seatbelts
TitleUnicode:Fasten Your Seatbelts
Artist:F-777
ArtistUnicode:F-777
Creator:Volta
Version:Futsuu
Source:osu!
Tags:Featured Artist FA Mappers' Guild MG F777 Jesse Valentine Ludicrous Speed Electronic Instrumental Nardoxyribonucleic
BeatmapID:2372398
BeatmapSetID:1093139

[Difficulty]
HPDrainRate:7
CircleSize:5
OverallDifficulty:4
ApproachRate:5
SliderMultiplier:1.4
SliderTickRate:1

[Events]
//Background and Video events
0,0,"aaaaaaaaaaaaaaaaaaaaaaaaaaaaaaaaaaaaaaaaaaaaaaa.jpeg",0,-70
//Break Periods
//Storyboard Layer 0 (Background)
//Storyboard Layer 1 (Fail)
//Storyboard Layer 2 (Pass)
//Storyboard Layer 3 (Foreground)
//Storyboard Layer 4 (Overlay)
//Storyboard Sound Samples

[TimingPoints]
172,315.789473684211,4,1,0,70,1,0
5224,-100,4,1,0,80,0,0
10277,-100,4,1,0,90,0,1
30487,-100,4,1,0,80,0,0
50698,-100,4,1,0,90,0,1
59540,-100,4,1,0,80,0,0
60803,-100,4,1,0,90,0,1
67119,-100,4,1,0,80,0,1
67435,-100,4,1,0,70,0,1
67750,-100,4,1,0,60,0,1
68066,-100,4,1,0,50,0,1
68382,-100,4,1,0,40,0,1
69645,-100,4,1,0,50,0,1
69961,-100,4,1,0,60,0,1
70277,-100,4,1,0,70,0,1
70593,-100,4,1,0,80,0,1
70908,-100,4,1,0,90,0,0
81014,-100,4,1,0,80,0,0
91119,-100,4,1,0,90,0,1
111329,-100,4,1,0,80,0,0
148277,-100,4,1,0,70,0,0
148593,-100,4,1,0,60,0,0
148908,-100,4,1,0,50,0,0
149224,-100,4,1,0,40,0,0
150487,-100,4,1,0,50,0,0
150803,-100,4,1,0,60,0,0
151119,-100,4,1,0,70,0,0
151435,-100,4,1,0,80,0,0

[HitObjects]
256,192,172,12,0,4908,0:0:0:0:
41,276,5224,6,4,L|158:195,13,140
74,148,9645,1,4,0:0:0:0:
257,115,10277,5,12,0:0:0:0:
201,153,10593,1,8,0:0:0:0:
37,133,10750,1,8,0:0:0:0:
25,138,10908,1,0,0:0:0:0:
76,142,11224,1,0,0:0:0:0:
194,139,11540,1,8,0:0:0:0:
52,127,11856,1,0,0:0:0:0:
194,139,12172,1,8,0:0:0:0:
76,142,12329,1,8,0:0:0:0:
194,139,12487,1,8,0:0:0:0:
194,139,12803,1,0,0:0:0:0:
55,168,13435,1,0,0:0:0:0:
110,78,13750,1,0,0:0:0:0:
194,139,14066,1,8,0:0:0:0:
99,111,14382,1,0,0:0:0:0:
124,100,14698,1,8,0:0:0:0:
247,113,15014,1,8,0:0:0:0:
124,100,15329,1,0,0:0:0:0:
113,144,15645,1,8,0:0:0:0:
116,117,15803,1,0,0:0:0:0:
247,113,15961,1,8,0:0:0:0:
79,128,16277,1,0,0:0:0:0:
119,100,16593,1,8,0:0:0:0:
154,73,16908,1,8,0:0:0:0:
119,100,17224,1,0,0:0:0:0:
179,73,17382,1,0,0:0:0:0:
114,95,17540,1,0,0:0:0:0:
114,95,17856,1,8,0:0:0:0:
114,95,18487,1,8,0:0:0:0:
126,134,18803,1,0,0:0:0:0:
252,142,19119,1,8,0:0:0:0:
180,66,19435,1,0,0:0:0:0:
252,142,19593,1,0,0:0:0:0:
252,142,19750,1,8,0:0:0:0:
48,126,20066,1,8,0:0:0:0:
114,95,20382,1,4,0:0:0:0:
179,105,20698,1,8,0:0:0:0:
179,105,20856,1,8,0:0:0:0:
239,118,21014,1,0,0:0:0:0:
239,118,21329,1,8,0:0:0:0:
143,170,21645,1,0,0:0:0:0:
239,118,21961,1,8,0:0:0:0:
143,170,22277,1,0,0:0:0:0:
172,124,22435,1,0,0:0:0:0:
143,170,22593,1,0,0:0:0:0:
143,170,22908,1,8,0:0:0:0:
115,142,23540,1,0,0:0:0:0:
190,56,23856,1,8,0:0:0:0:
152,129,24172,1,0,0:0:0:0:
148,135,24487,1,8,0:0:0:0:
152,129,24803,1,0,0:0:0:0:
148,135,25119,1,0,0:0:0:0:
152,129,25435,1,8,0:0:0:0:
182,92,25750,1,0,0:0:0:0:
182,92,25908,1,8,0:0:0:0:
214,100,26066,1,0,0:0:0:0:
214,100,26382,1,0,0:0:0:0:
126,126,26698,1,8,0:0:0:0:
214,100,27014,1,0,0:0:0:0:
126,126,27329,1,8,0:0:0:0:
151,123,27487,1,8,0:0:0:0:
126,126,27645,1,8,0:0:0:0:
126,126,27961,1,0,0:0:0:0:
59,175,28593,1,0,0:0:0:0:
155,124,28908,1,8,0:0:0:0:
59,175,29224,1,0,0:0:0:0:
59,175,29540,1,8,0:0:0:0:
65,139,29698,1,8,0:0:0:0:
65,139,29856,1,0,0:0:0:0:
77,142,30172,1,0,0:0:0:0:
59,175,30487,1,12,0:0:0:0:
152,103,31119,1,0,0:0:0:0:
73,160,31435,1,8,0:0:0:0:
93,137,31750,1,0,0:0:0:0:
110,140,32066,1,8,0:0:0:0:
93,137,32382,1,0,0:0:0:0:
110,140,32698,1,8,0:0:0:0:
110,140,33014,1,0,0:0:0:0:
93,137,33645,1,0,0:0:0:0:
93,137,33961,1,0,0:0:0:0:
110,140,34277,1,8,0:0:0:0:
93,137,34435,1,0,0:0:0:0:
101,233,34593,1,8,0:0:0:0:
110,140,34908,1,8,0:0:0:0:
261,86,35066,1,0,0:0:0:0:
222,150,35224,1,8,0:0:0:0:
110,140,35540,1,0,0:0:0:0:
210,145,36172,1,8,0:0:0:0:
164,120,36487,1,0,0:0:0:0:
237,116,36803,1,8,0:0:0:0:
164,120,37119,1,0,0:0:0:0:
237,116,37435,1,8,0:0:0:0:
164,120,37750,1,0,0:0:0:0:
164,120,38066,1,8,0:0:0:0:
113,77,38698,1,8,0:0:0:0:
113,77,39014,1,8,0:0:0:0:
237,116,39172,1,8,0:0:0:0:
113,77,39329,1,0,0:0:0:0:
237,116,39645,1,0,0:0:0:0:
69,158,39803,1,0,0:0:0:0:
113,77,39961,1,8,0:0:0:0:
105,140,40277,1,8,0:0:0:0:
113,77,40593,1,4,0:0:0:0:
165,122,40908,1,8,0:0:0:0:
50,147,41540,1,8,0:0:0:0:
179,93,41856,1,0,0:0:0:0:
115,106,42172,1,8,0:0:0:0:
115,106,42329,1,8,0:0:0:0:
138,154,42487,1,0,0:0:0:0:
140,115,42803,1,8,0:0:0:0:
174,80,43119,1,0,0:0:0:0:
185,63,43435,1,8,0:0:0:0:
81,154,44066,1,8,0:0:0:0:
174,80,44382,1,0,0:0:0:0:
121,128,44698,1,8,0:0:0:0:
121,128,44856,1,8,0:0:0:0:
142,151,45014,1,0,0:0:0:0:
206,85,45329,1,0,0:0:0:0:
257,123,45487,1,0,0:0:0:0:
174,80,45645,1,0,0:0:0:0:
257,123,45961,1,8,0:0:0:0:
262,117,46593,1,8,0:0:0:0:
174,80,46908,1,0,0:0:0:0:
262,117,47224,1,8,0:0:0:0:
262,117,47382,1,8,0:0:0:0:
98,131,47540,1,0,0:0:0:0:
137,137,47856,1,8,0:0:0:0:
174,80,48172,1,0,0:0:0:0:
205,132,48487,1,8,0:0:0:0:
137,137,49119,1,8,0:0:0:0:
256,192,49435,12,0,50382,0:0:0:0:
109,129,50698,5,12,0:0:0:0:
213,154,51014,1,8,0:0:0:0:
213,154,51172,1,8,0:0:0:0:
213,154,51329,1,8,0:0:0:0:
203,98,51645,1,0,0:0:0:0:
209,182,51803,1,8,0:0:0:0:
104,129,51961,1,0,0:0:0:0:
213,154,52277,1,0,0:0:0:0:
104,129,52593,1,8,0:0:0:0:
104,129,52908,1,0,0:0:0:0:
104,129,53224,1,8,0:0:0:0:
93,129,53540,1,8,0:0:0:0:
94,129,53698,1,8,0:0:0:0:
104,129,53856,1,8,0:0:0:0:
104,129,54172,1,0,0:0:0:0:
58,128,54329,1,8,0:0:0:0:
165,126,54487,1,0,0:0:0:0:
174,86,54803,1,0,0:0:0:0:
68,128,55119,1,8,0:0:0:0:
104,129,55750,1,8,0:0:0:0:
199,144,56066,1,8,0:0:0:0:
199,144,56224,1,8,0:0:0:0:
199,144,56382,1,8,0:0:0:0:
108,138,56698,1,0,0:0:0:0:
97,107,56856,1,8,0:0:0:0:
108,138,57014,1,0,0:0:0:0:
97,107,57329,1,0,0:0:0:0:
108,138,57645,1,8,0:0:0:0:
108,138,57961,1,0,0:0:0:0:
108,138,58277,1,8,0:0:0:0:
198,89,58593,1,8,0:0:0:0:
198,89,58750,1,8,0:0:0:0:
108,138,58908,1,8,0:0:0:0:
108,138,59224,1,0,0:0:0:0:
108,138,59382,1,8,0:0:0:0:
108,138,59540,1,0,0:0:0:0:
108,138,59856,1,0,0:0:0:0:
219,126,60172,1,8,0:0:0:0:
109,129,60803,5,12,0:0:0:0:
213,154,61119,1,8,0:0:0:0:
213,154,61277,1,8,0:0:0:0:
213,154,61435,1,8,0:0:0:0:
203,98,61750,1,0,0:0:0:0:
209,182,61908,1,8,0:0:0:0:
104,129,62066,1,0,0:0:0:0:
213,154,62382,1,0,0:0:0:0:
104,129,62698,1,8,0:0:0:0:
209,136,62856,1,8,0:0:0:0:
104,129,63014,1,0,0:0:0:0:
104,129,63329,1,8,0:0:0:0:
93,129,63645,1,8,0:0:0:0:
94,129,63803,1,8,0:0:0:0:
104,129,63961,1,8,0:0:0:0:
104,129,64277,1,0,0:0:0:0:
58,128,64435,1,8,0:0:0:0:
165,126,64593,1,0,0:0:0:0:
174,86,64908,1,0,0:0:0:0:
68,128,65224,1,8,0:0:0:0:
104,129,65856,1,8,0:0:0:0:
199,144,66172,1,8,0:0:0:0:
199,144,66329,1,8,0:0:0:0:
199,144,66487,1,8,0:0:0:0:
108,138,66803,1,0,0:0:0:0:
97,107,66961,1,8,0:0:0:0:
108,138,67119,1,0,0:0:0:0:
97,107,67435,1,0,0:0:0:0:
108,138,67750,1,8,0:0:0:0:
271,114,67908,1,8,0:0:0:0:
108,138,68066,1,0,0:0:0:0:
108,138,68382,1,8,0:0:0:0:
198,89,68698,1,8,0:0:0:0:
198,89,68856,1,8,0:0:0:0:
108,138,69014,1,8,0:0:0:0:
108,138,69329,1,0,0:0:0:0:
108,138,69487,1,8,0:0:0:0:
108,138,69645,1,0,0:0:0:0:
108,138,69961,1,0,0:0:0:0:
219,126,70277,5,8,0:0:0:0:
209,150,70593,1,0,0:0:0:0:
271,114,70908,1,12,0:0:0:0:
256,192,71224,12,8,80382,0:0:0:0:
35,172,81014,5,4,0:0:0:0:
137,162,81645,5,8,0:0:0:0:
179,116,82277,1,0,0:0:0:0:
179,116,82750,1,0,0:0:0:0:
157,126,82908,1,8,0:0:0:0:
159,140,83540,1,0,0:0:0:0:
145,149,84172,1,8,0:0:0:0:
297,131,84803,1,0,0:0:0:0:
110,157,85277,1,0,0:0:0:0:
157,126,85435,1,8,0:0:0:0:
109,131,85750,1,8,0:0:0:0:
165,135,86066,1,0,0:0:0:0:
197,111,86698,1,8,0:0:0:0:
179,116,87329,1,0,0:0:0:0:
179,116,87803,1,0,0:0:0:0:
157,126,87961,1,8,0:0:0:0:
168,153,88593,5,0,0:0:0:0:
108,131,89066,1,0,0:0:0:0:
97,121,89224,1,8,0:0:0:0:
113,91,89540,1,8,0:0:0:0:
165,153,89856,1,0,0:0:0:0:
117,124,90172,1,8,0:0:0:0:
197,150,90329,1,0,0:0:0:0:
165,153,90487,1,0,0:0:0:0:
257,115,91119,5,12,0:0:0:0:
201,153,91435,1,8,0:0:0:0:
37,133,91593,1,8,0:0:0:0:
25,138,91750,1,0,0:0:0:0:
76,142,92066,1,0,0:0:0:0:
194,139,92382,1,8,0:0:0:0:
52,127,92698,1,0,0:0:0:0:
194,139,93014,1,8,0:0:0:0:
76,142,93172,1,8,0:0:0:0:
194,139,93329,1,8,0:0:0:0:
194,139,93645,1,0,0:0:0:0:
55,168,94277,1,0,0:0:0:0:
110,78,94593,1,0,0:0:0:0:
194,139,94908,1,8,0:0:0:0:
99,111,95224,1,0,0:0:0:0:
124,100,95540,1,8,0:0:0:0:
247,113,95856,1,8,0:0:0:0:
124,100,96172,1,0,0:0:0:0:
113,144,96487,1,8,0:0:0:0:
116,117,96645,1,0,0:0:0:0:
247,113,96803,1,8,0:0:0:0:
79,128,97119,1,0,0:0:0:0:
119,100,97435,1,8,0:0:0:0:
154,73,97750,1,8,0:0:0:0:
119,100,98066,1,0,0:0:0:0:
179,73,98224,1,0,0:0:0:0:
114,95,98382,1,0,0:0:0:0:
114,95,98698,1,8,0:0:0:0:
114,95,99329,1,8,0:0:0:0:
126,134,99645,1,0,0:0:0:0:
252,142,99961,1,8,0:0:0:0:
180,66,100277,1,0,0:0:0:0:
252,142,100435,1,0,0:0:0:0:
252,142,100593,1,8,0:0:0:0:
48,126,100908,1,8,0:0:0:0:
114,95,101224,1,4,0:0:0:0:
179,105,101540,1,8,0:0:0:0:
179,105,101698,1,8,0:0:0:0:
239,118,101856,1,0,0:0:0:0:
239,118,102172,1,8,0:0:0:0:
143,170,102487,1,0,0:0:0:0:
239,118,102803,1,8,0:0:0:0:
143,170,103119,1,0,0:0:0:0:
172,124,103277,1,0,0:0:0:0:
143,170,103435,1,0,0:0:0:0:
143,170,103750,1,8,0:0:0:0:
115,142,104382,1,0,0:0:0:0:
190,56,104698,1,8,0:0:0:0:
152,129,105014,1,0,0:0:0:0:
148,135,105329,1,8,0:0:0:0:
152,129,105645,1,0,0:0:0:0:
148,135,105961,1,0,0:0:0:0:
152,129,106277,1,8,0:0:0:0:
182,92,106593,1,0,0:0:0:0:
182,92,106750,1,8,0:0:0:0:
214,100,106908,1,0,0:0:0:0:
214,100,107224,1,0,0:0:0:0:
126,126,107540,1,8,0:0:0:0:
214,100,107856,1,0,0:0:0:0:
126,126,108172,1,8,0:0:0:0:
151,123,108329,1,8,0:0:0:0:
126,126,108487,1,8,0:0:0:0:
126,126,108803,1,0,0:0:0:0:
59,175,109435,1,0,0:0:0:0:
155,124,109750,1,8,0:0:0:0:
59,175,110066,1,0,0:0:0:0:
59,175,110382,1,8,0:0:0:0:
65,139,110540,1,8,0:0:0:0:
65,139,110698,1,0,0:0:0:0:
77,142,111014,5,0,0:0:0:0:
59,175,111329,1,12,0:0:0:0:
152,103,111961,1,0,0:0:0:0:
73,160,112277,1,8,0:0:0:0:
93,137,112593,1,0,0:0:0:0:
110,140,112908,1,8,0:0:0:0:
93,137,113224,1,0,0:0:0:0:
110,140,113540,1,8,0:0:0:0:
110,140,113856,1,0,0:0:0:0:
93,137,114487,1,0,0:0:0:0:
93,137,114803,1,0,0:0:0:0:
110,140,115119,1,8,0:0:0:0:
93,137,115277,1,0,0:0:0:0:
101,233,115435,1,8,0:0:0:0:
110,140,115750,1,8,0:0:0:0:
239,85,115908,1,0,0:0:0:0:
222,150,116066,1,8,0:0:0:0:
110,140,116382,1,0,0:0:0:0:
210,145,117014,1,8,0:0:0:0:
164,120,117329,1,0,0:0:0:0:
237,116,117645,1,8,0:0:0:0:
164,120,117961,1,0,0:0:0:0:
237,116,118277,1,8,0:0:0:0:
164,120,118593,1,0,0:0:0:0:
164,120,118908,1,8,0:0:0:0:
113,77,119540,1,8,0:0:0:0:
113,77,119856,1,8,0:0:0:0:
237,116,120014,1,8,0:0:0:0:
113,77,120172,1,0,0:0:0:0:
237,116,120487,1,0,0:0:0:0:
140,143,120645,1,0,0:0:0:0:
113,77,120803,1,8,0:0:0:0:
105,140,121119,1,8,0:0:0:0:
113,77,121435,1,4,0:0:0:0:
165,122,121750,1,8,0:0:0:0:
50,147,122382,1,8,0:0:0:0:
179,93,122698,1,0,0:0:0:0:
115,106,123014,1,8,0:0:0:0:
115,106,123172,1,8,0:0:0:0:
138,154,123329,1,0,0:0:0:0:
140,115,123645,1,8,0:0:0:0:
174,80,123961,1,0,0:0:0:0:
185,63,124277,1,8,0:0:0:0:
81,154,124908,1,8,0:0:0:0:
174,80,125224,1,0,0:0:0:0:
121,128,125540,1,8,0:0:0:0:
121,128,125698,1,8,0:0:0:0:
142,151,125856,1,0,0:0:0:0:
206,85,126172,1,0,0:0:0:0:
257,123,126329,1,0,0:0:0:0:
174,80,126487,1,0,0:0:0:0:
257,123,126803,1,8,0:0:0:0:
262,117,127435,1,8,0:0:0:0:
174,80,127750,1,0,0:0:0:0:
262,117,128066,1,8,0:0:0:0:
262,117,128224,1,8,0:0:0:0:
98,131,128382,1,0,0:0:0:0:
137,137,128698,1,8,0:0:0:0:
174,80,129014,1,0,0:0:0:0:
205,132,129329,1,8,0:0:0:0:
137,137,129961,1,8,0:0:0:0:
256,192,130277,12,0,131224,0:0:0:0:
179,193,131540,5,4,0:0:0:0:
306,66,131856,1,8,0:0:0:0:
306,66,132487,1,8,0:0:0:0:
157,134,132803,5,0,0:0:0:0:
306,66,133119,1,8,0:0:0:0:
157,134,133435,1,0,0:0:0:0:
139,97,133750,1,8,0:0:0:0:
157,134,134066,1,0,0:0:0:0:
139,97,134382,1,8,0:0:0:0:
201,84,135014,1,8,0:0:0:0:
157,134,135329,1,0,0:0:0:0:
99,128,135645,1,8,0:0:0:0:
157,134,135961,1,0,0:0:0:0:
217,95,136119,1,0,0:0:0:0:
157,134,136277,1,0,0:0:0:0:
157,134,136593,1,0,0:0:0:0:
217,95,136908,1,8,0:0:0:0:
217,95,137540,1,8,0:0:0:0:
160,134,137856,1,0,0:0:0:0:
217,95,138172,1,8,0:0:0:0:
160,134,138487,1,0,0:0:0:0:
217,95,138803,1,8,0:0:0:0:
160,134,139119,1,0,0:0:0:0:
217,95,139435,1,8,0:0:0:0:
131,134,140066,1,8,0:0:0:0:
91,160,140698,1,8,0:0:0:0:
147,95,141329,5,8,0:0:0:0:
140,126,141645,1,4,0:0:0:0:
88,114,141961,1,8,0:0:0:0:
88,114,142593,1,8,0:0:0:0:
77,153,142908,1,0,0:0:0:0:
88,114,143224,1,8,0:0:0:0:
88,150,143540,1,0,0:0:0:0:
135,106,143698,1,0,0:0:0:0:
135,106,143856,1,8,0:0:0:0:
88,150,144172,1,0,0:0:0:0:
135,106,144487,1,8,0:0:0:0:
283,68,145119,1,8,0:0:0:0:
94,150,145435,1,0,0:0:0:0:
117,119,145750,1,8,0:0:0:0:
277,80,146066,1,0,0:0:0:0:
185,101,146224,1,0,0:0:0:0:
198,104,146382,1,0,0:0:0:0:
75,158,146698,1,0,0:0:0:0:
185,101,147014,1,8,0:0:0:0:
185,101,147645,1,8,0:0:0:0:
75,158,147961,1,0,0:0:0:0:
185,101,148277,1,8,0:0:0:0:
75,158,148593,1,0,0:0:0:0:
69,119,148908,1,8,0:0:0:0:
75,158,149224,1,0,0:0:0:0:
69,119,149540,1,8,0:0:0:0:
52,162,150172,1,8,0:0:0:0:
75,158,150487,1,0,0:0:0:0:
224,93,150803,1,8,0:0:0:0:
113,131,150961,1,0,0:0:0:0:
194,138,151277,1,0,0:0:0:0:
75,158,151435,1,0,0:0:0:0:
162,129,151750,1,0,0:0:0:0:
