osu file format v14

[General]
AudioFilename: audio.mp3
AudioLeadIn: 0
PreviewTime: 13929
Countdown: 0
SampleSet: Soft
StackLeniency: 0.4
Mode: 0
LetterboxInBreaks: 0
WidescreenStoryboard: 1

[Editor]
Bookmarks: 12448,14226,27855,28448,40760,42670,56300,56892,63559,64003,71115,83559,85337,90538,98966,99559,113781
DistanceSpacing: 1
BeatDivisor: 6
GridSize: 16
TimelineZoom: 1.8

[Metadata]
Title:Deadlocked
TitleUnicode:Deadlocked
Artist:F-777
ArtistUnicode:F-777
Creator:walter85
Version:Hard
Source:Geometry Dash
Tags:f777 jesse valentine electronic dubstep house RikiH_
BeatmapID:1344036
BeatmapSetID:630264

[Difficulty]
HPDrainRate:4.5
CircleSize:4
OverallDifficulty:6
ApproachRate:7.2
SliderMultiplier:1.7
SliderTickRate:1

[Events]
//Background and Video events
0,0,"1367282275492.jpg",0,0
//Break Periods
2,57108,63149
//Storyboard Layer 0 (Background)
//Storyboard Layer 1 (Fail)
//Storyboard Layer 2 (Pass)
//Storyboard Layer 3 (Foreground)
//Storyboard Sound Samples

[TimingPoints]
20,444.444444444444,4,2,1,10,1,0
14242,-100,4,2,1,72,0,0
17353,-83.3333333333333,4,2,1,72,0,0
17797,-100,4,2,1,72,0,0
24464,-83.3333333333333,4,2,1,72,0,0
24908,-100,4,2,1,72,0,0
28019,-83.3333333333333,4,2,1,72,0,0
28464,-100,4,2,1,72,0,1
42686,-100,4,2,1,72,0,0
45797,-83.3333333333333,4,2,1,72,0,0
46242,-100,4,2,1,72,0,0
52908,-83.3333333333333,4,2,1,72,0,0
53353,-100,4,2,1,72,0,0
56464,-83.3333333333333,4,2,1,72,0,0
56908,-100,4,2,1,72,0,0
64019,-111.111111111111,4,2,1,60,0,0
71131,-99.9999999999999,4,2,1,67,0,0
83575,-111.111111111111,4,2,1,62,0,0
85353,-99.9999999999999,4,2,1,72,0,0
88464,-83.3333333333333,4,2,1,72,0,0
88908,-99.9999999999999,4,2,1,72,0,0
95575,-83.3333333333333,4,2,1,72,0,0
96019,-99.9999999999999,4,2,1,72,0,0
99131,-83.3333333333333,4,2,1,72,0,0
99575,-99.9999999999999,4,2,1,72,0,1
113797,-99.9999999999999,4,2,1,72,0,0

[Colours]
Combo1 : 212,212,212
Combo2 : 255,128,0
Combo3 : 18,124,255

[HitObjects]
75,113,14242,38,0,B|127:136|127:136|189:129,1,113.333333333333,4|0,1:2|0:0,0:0:0:0:
242,86,14686,6,0,L|238:29,2,56.6666666666667,8|0|0,0:0|0:0|0:0,0:0:0:0:
293,138,15131,2,0,L|289:195,2,56.6666666666667,0|0|0,1:0|0:0|0:0,0:0:0:0:
344,86,15575,5,10,0:0:0:0:
362,84,15723,1,2,0:0:0:0:
381,83,15871,1,2,0:0:0:0:
401,82,16019,22,0,L|405:25,2,56.6666666666667,0|0|0,1:0|0:0|0:0,0:0:0:0:
452,134,16464,2,0,L|499:165,2,56.6666666666667,8|0|0,0:0|0:0|0:0,0:0:0:0:
379,155,16908,6,0,P|339:183|316:251,1,113.333333333333,0|0,1:0|0:0,0:0:0:0:
334,321,17353,22,0,L|263:318,1,67.9999979248048,10|2,0:0|0:0,0:0:0:0:
184,314,17649,1,2,0:0:0:0:
229,238,17797,22,0,B|241:199|241:199|234:120,1,113.333333333333,0|0,1:0|0:0,0:0:0:0:
291,77,18242,6,0,P|320:79|346:88,2,56.6666666666667,8|0|0,0:0|0:0|0:0,0:0:0:0:
220,53,18686,2,0,P|207:26|202:-1,2,56.6666666666667,0|0|0,1:0|0:0|0:0,0:0:0:0:
235,127,19131,5,10,0:0:0:0:
224,142,19279,1,2,0:0:0:0:
212,156,19427,1,2,0:0:0:0:
197,168,19575,22,0,L|135:162,2,56.6666666666667,0|0|0,1:0|0:0|0:0,0:0:0:0:
251,218,20019,2,0,L|256:279,2,56.6666666666667,8|0|0,0:0|0:0|0:0,0:0:0:0:
180,241,20464,2,0,L|132:280,1,56.6666666666667,0|0,1:0|0:0,0:0:0:0:
185,346,20760,5,0,0:0:0:0:
185,346,20834,1,0,0:0:0:0:
185,346,20908,2,0,P|213:343|250:351,1,56.6666666666667,2|0,0:3|0:0,0:0:0:0:
308,377,21205,1,0,0:0:0:0:
377,310,21353,6,0,L|366:197,1,113.333333333333,4|0,1:2|0:0,0:0:0:0:
422,147,21797,6,0,P|451:149|477:158,2,56.6666666666667,8|0|0,0:0|0:0|0:0,0:0:0:0:
351,123,22242,2,0,P|338:96|333:69,2,56.6666666666667,0|0|0,1:0|0:0|0:0,0:0:0:0:
366,197,22686,5,10,0:0:0:0:
355,212,22834,1,2,0:0:0:0:
343,226,22982,1,2,0:0:0:0:
328,238,23131,22,0,P|299:236|273:227,2,56.6666666666667,0|0|0,1:0|0:0|0:0,0:0:0:0:
380,289,23575,2,0,P|409:287|435:278,2,56.6666666666667,8|0|0,0:0|0:0|0:0,0:0:0:0:
328,340,24019,6,0,L|215:329,1,113.333333333333,0|0,1:0|0:0,0:0:0:0:
157,271,24464,22,0,L|164:200,1,67.9999979248048,10|2,0:0|0:0,0:0:0:0:
174,120,24760,1,2,0:0:0:0:
249,172,24908,22,0,P|297:180|361:148,1,113.333333333333,0|0,1:0|0:0,0:0:0:0:
400,96,25353,22,0,L|459:94,2,56.6666666666667,8|0|0,0:0|0:0|0:0,0:0:0:0:
327,86,25797,2,0,L|295:35,2,56.6666666666667,0|0|0,1:0|0:0|0:0,0:0:0:0:
355,155,26242,21,10,0:0:0:0:
351,174,26390,1,2,0:0:0:0:
345,191,26538,1,2,0:0:0:0:
336,208,26686,6,0,L|338:267,2,56.6666666666667,0|0|0,1:0|0:0|0:0,0:0:0:0:
271,172,27131,2,0,L|269:113,2,56.6666666666667,8|0|0,0:0|0:0|0:0,0:0:0:0:
206,208,27575,2,0,L|208:267,1,56.6666666666667,0|0,1:0|0:0,0:0:0:0:
125,285,27871,21,0,0:0:0:0:
125,285,27945,1,0,0:0:0:0:
125,285,28019,2,0,B|116:260|116:260|125:236|125:236|116:212|116:212|125:188|125:188|116:164|116:164|125:140,1,152.999995330811,2|0,0:3|0:0,0:0:0:0:
116,69,28464,22,0,P|158:42|231:49,1,113.333333333333,4|0,1:2|0:0,0:0:0:0:
281,93,28908,21,8,0:0:0:0:
281,93,29057,2,0,L|344:89,1,56.6666666666667,0|0,0:0|0:0,0:0:0:0:
390,38,29353,1,0,1:0:0:0:
390,38,29502,2,0,L|453:42,1,56.6666666666667,0|0,0:0|0:0,0:0:0:0:
493,98,29797,22,0,B|501:126|501:126|499:162,1,56.6666666666667,10|2,0:0|0:0,0:0:0:0:
474,224,30094,1,2,0:0:0:0:
426,167,30242,22,0,P|377:155|311:187,1,113.333333333333,0|0,1:0|0:0,0:0:0:0:
299,252,30686,21,8,0:0:0:0:
299,252,30834,2,0,P|299:280|308:308,1,56.6666666666667,0|0,0:0|0:0,0:0:0:0:
246,346,31131,1,0,1:0:0:0:
246,346,31279,2,0,P|221:332|193:325,1,56.6666666666667,0|0,0:0|0:0,0:0:0:0:
185,253,31575,21,10,0:0:0:0:
209,238,31723,1,2,0:0:0:0:
228,217,31871,1,2,0:0:0:0:
233,160,32019,22,0,P|192:130|119:134,1,113.333333333333,0|0,1:0|0:0,0:0:0:0:
71,171,32464,21,8,0:0:0:0:
71,171,32612,2,0,L|11:163,1,56.6666666666667,0|0,0:0|0:0,0:0:0:0:
0,95,32908,1,0,1:0:0:0:
0,95,33056,2,0,L|8:35,1,56.6666666666667,0|0,0:0|0:0,0:0:0:0:
80,23,33353,21,10,0:0:0:0:
108,26,33501,1,2,0:0:0:0:
136,30,33649,1,2,0:0:0:0:
192,37,33797,22,0,P|220:85|215:140,1,113.333333333333,0|0,1:0|0:0,0:0:0:0:
169,198,34242,21,8,0:0:0:0:
169,198,34390,2,0,L|165:255,1,56.6666666666667,0|0,0:0|0:0,0:0:0:0:
244,252,34686,1,0,1:0:0:0:
244,252,34834,2,0,L|248:309,1,56.6666666666667,0|0,0:0|0:0,0:0:0:0:
317,278,35131,21,10,0:0:0:0:
345,276,35279,1,2,0:0:0:0:
371,286,35427,1,2,0:0:0:0:
410,326,35575,22,0,L|413:207,1,113.333333333333,0|0,1:0|0:0,0:0:0:0:
416,139,36019,21,8,0:0:0:0:
416,139,36168,2,0,P|390:130|360:131,1,56.6666666666667,0|0,0:0|0:0,0:0:0:0:
310,184,36464,1,0,1:0:0:0:
310,184,36613,2,0,P|284:193|254:192,1,56.6666666666667,0|0,0:0|0:0,0:0:0:0:
204,139,36908,22,0,B|176:130|176:130|148:131,1,56.6666666666667,10|2,0:0|0:0,0:0:0:0:
75,152,37205,1,2,0:0:0:0:
97,78,37353,22,0,P|151:56|215:68,1,113.333333333333,0|0,1:0|0:0,0:0:0:0:
270,105,37797,21,8,0:0:0:0:
270,105,37945,2,0,L|329:102,1,56.6666666666667,0|0,0:0|0:0,0:0:0:0:
381,52,38242,1,0,1:0:0:0:
381,52,38390,2,0,L|440:55,1,56.6666666666667,0|0,0:0|0:0,0:0:0:0:
477,116,38686,21,10,0:0:0:0:
475,144,38834,1,2,0:0:0:0:
474,172,38982,1,2,0:0:0:0:
470,229,39131,22,0,L|462:350,1,113.333333333333,0|0,1:0|0:0,0:0:0:0:
393,303,39575,21,8,0:0:0:0:
393,303,39723,2,0,P|362:295|336:295,1,56.6666666666667,0|0,0:0|0:0,0:0:0:0:
279,339,40019,1,0,1:0:0:0:
279,339,40167,2,0,P|248:347|222:347,1,56.6666666666667,0|0,0:0|0:0,0:0:0:0:
165,303,40464,21,10,0:0:0:0:
137,295,40612,1,2,0:0:0:0:
109,294,40760,1,2,0:0:0:0:
65,331,40908,22,0,L|57:217,1,113.333333333333,0|0,1:0|0:0,0:0:0:0:
108,164,41353,21,8,0:0:0:0:
108,164,41501,2,0,L|167:167,1,56.6666666666667,0|0,0:0|0:0,0:0:0:0:
221,222,41798,1,0,1:0:0:0:
221,222,41946,2,0,L|280:219,1,56.6666666666667,0|0,0:0|0:0,0:0:0:0:
329,166,42242,21,10,0:0:0:0:
371,168,42390,1,2,0:0:0:0:
413,170,42538,1,2,0:0:0:0:
470,115,42686,22,0,B|442:95|442:95|362:91,1,113.333333333333,4|0,1:2|0:0,0:0:0:0:
303,47,43131,22,0,P|316:22|337:3,2,56.6666666666667,8|0|0,0:0|0:0|0:0,0:0:0:0:
294,121,43575,2,0,P|308:146|329:165,2,56.6666666666667,0|0|0,1:0|0:0|0:0,0:0:0:0:
233,76,44019,21,10,0:0:0:0:
214,75,44168,1,2,0:0:0:0:
195,74,44316,1,2,0:0:0:0:
176,73,44464,6,0,P|151:59|132:38,2,56.6666666666667,0|0|0,1:0|0:0|0:0,0:0:0:0:
182,149,44908,2,0,P|182:177|174:204,2,56.6666666666667,8|0|0,0:0|0:0|0:0,0:0:0:0:
110,122,45353,22,0,P|82:168|80:246,1,113.333333333333,0|0,1:0|0:0,0:0:0:0:
141,290,45797,6,0,L|214:287,1,67.9999979248048,10|2,0:0|0:0,0:0:0:0:
290,283,46094,1,2,0:0:0:0:
253,365,46242,6,0,B|309:371|309:371|375:333,1,113.333333333333,0|0,1:0|0:0,0:0:0:0:
394,277,46686,6,0,P|387:245|373:219,2,56.6666666666667,8|0|0,0:0|0:0|0:0,0:0:0:0:
433,341,47131,2,0,P|463:351|493:351,2,56.6666666666667,0|0|0,1:0|0:0|0:0,0:0:0:0:
359,343,47575,5,10,0:0:0:0:
344,354,47723,1,2,0:0:0:0:
327,363,47871,1,2,0:0:0:0:
309,369,48019,22,0,L|251:363,2,56.6666666666667,0|0|0,1:0|0:0|0:0,0:0:0:0:
301,289,48464,2,0,L|295:231,2,56.6666666666667,8|0|0,0:0|0:0|0:0,0:0:0:0:
221,289,48908,2,0,L|163:283,1,56.6666666666667,0|0,1:0|0:0,0:0:0:0:
79,295,49205,5,0,0:0:0:0:
79,295,49279,1,0,0:0:0:0:
79,295,49353,2,0,P|90:258|89:238,1,56.6666666666667,2|0,0:3|0:0,0:0:0:0:
75,167,49649,1,0,0:0:0:0:
169,187,49797,6,0,B|226:181|226:181|272:145,1,113.333333333333,4|0,1:2|0:0,0:0:0:0:
266,72,50242,6,0,P|251:53|222:35,2,56.6666666666667,8|0|0,0:0|0:0|0:0,0:0:0:0:
332,105,50686,2,0,P|355:101|386:85,2,56.6666666666667,0|0|0,1:0|0:0|0:0,0:0:0:0:
270,146,51131,5,10,0:0:0:0:
267,164,51279,1,2,0:0:0:0:
264,183,51427,1,2,0:0:0:0:
262,202,51575,22,0,P|286:215|314:220,2,56.6666666666667,0|0|0,1:0|0:0|0:0,0:0:0:0:
191,179,52019,2,0,P|167:182|136:198,2,56.6666666666667,8|0|0,0:0|0:0|0:0,0:0:0:0:
207,252,52464,6,0,P|205:306|241:367,1,113.333333333333,0|0,1:0|0:0,0:0:0:0:
302,317,52908,22,0,L|375:314,1,67.9999979248048,10|2,0:0|0:0,0:0:0:0:
451,310,53205,1,2,0:0:0:0:
406,224,53353,22,0,B|388:194|388:194|391:114,1,113.333333333333,0|0,1:0|0:0,0:0:0:0:
337,65,53797,22,0,L|339:-6,2,56.6666666666667,8|0|0,0:0|0:0|0:0,0:0:0:0:
283,115,54242,2,0,L|285:186,2,56.6666666666667,0|0|0,1:0|0:0|0:0,0:0:0:0:
229,65,54686,21,10,0:0:0:0:
210,64,54834,1,2,0:0:0:0:
191,63,54982,1,2,0:0:0:0:
172,63,55131,6,0,P|142:63|112:74,2,56.6666666666667,0|0|0,1:0|0:0|0:0,0:0:0:0:
156,140,55575,2,0,P|141:165|136:197,2,56.6666666666667,8|0|0,0:0|0:0|0:0,0:0:0:0:
214,192,56019,2,0,P|228:216|249:234,1,56.6666666666667,0|0,1:0|0:0,0:0:0:0:
333,270,56316,21,0,0:0:0:0:
333,270,56390,1,0,0:0:0:0:
333,270,56464,2,0,B|341:246|341:246|333:222|333:222|341:198|341:198|333:174|333:174|341:150|341:150|333:126|333:126|341:102|341:102|333:78,1,203.999993774414,2|4,0:3|1:2,0:0:0:0:
333,77,64019,6,0,P|283:75|233:97,1,101.999996887207,4|0,3:2|0:0,0:0:0:0:
186,147,64464,2,0,P|136:149|86:127,1,101.999996887207,8|0,0:0|0:0,0:0:0:0:
89,137,64834,1,0,0:0:0:0:
89,146,64908,2,0,P|108:192|106:243,1,101.999996887207,0|2,3:0|0:0,0:0:0:0:
68,304,65353,22,0,B|44:300|44:300|17:305,2,50.9999984436036,10|2|2,0:0|0:0|0:0,0:0:0:0:
118,355,65797,6,0,P|165:356|216:338,1,101.999996887207,0|0,3:0|0:0,0:0:0:0:
274,295,66242,2,0,P|321:294|372:312,1,101.999996887207,8|0,0:0|0:0,0:0:0:0:
372,303,66612,1,0,0:0:0:0:
373,295,66686,2,0,L|378:187,1,101.999996887207,0|0,3:0|0:0,0:0:0:0:
419,133,67131,22,0,P|447:138|471:151,2,50.9999984436036,8|0|0,0:0|0:0|0:0,0:0:0:0:
348,127,67575,6,0,P|306:136|236:126,1,101.999996887207,0|0,3:0|0:0,0:0:0:0:
191,86,68019,2,0,L|83:81,1,101.999996887207,8|0,0:0|0:0,0:0:0:0:
81,80,68390,1,0,0:0:0:0:
72,80,68464,2,0,P|63:122|73:192,1,101.999996887207,0|2,3:0|0:0,0:0:0:0:
125,228,68908,22,0,B|137:208|137:208|143:172,2,50.9999984436036,10|2|2,0:0|0:0|0:0,0:0:0:0:
56,253,69353,6,0,B|79:300|79:300|123:335,1,101.999996887207,0|0,3:0|0:0,0:0:0:0:
189,323,69797,2,0,B|235:304|235:304|287:308,1,101.999996887207,8|0,0:0|0:0,0:0:0:0:
295,308,70168,1,0,0:0:0:0:
304,309,70242,2,0,P|313:267|303:197,1,101.999996887207,0|2,3:0|0:0,0:0:0:0:
274,145,70686,22,0,L|277:93,1,50.9999984436036,8|0,0:0|0:0,0:0:0:0:
282,22,70982,1,2,0:0:0:0:
189,51,71131,6,0,L|197:170,1,113.333333333333,4|0,1:2|0:0,0:0:0:0:
146,218,71575,2,0,P|138:273|149:329,1,113.333333333333,8|0,0:0|0:0,0:0:0:0:
156,336,71945,1,0,0:0:0:0:
162,343,72019,2,0,L|281:335,1,113.333333333333,0|2,1:0|0:0,0:0:0:0:
339,297,72464,22,0,P|366:302|395:316,2,56.6666666666667,10|2|2,0:0|0:0|0:0,0:0:0:0:
274,261,72908,6,0,P|263:205|270:149,1,113.333333333333,0|0,1:0|0:0,0:0:0:0:
331,106,73353,2,0,L|450:98,1,113.333333333333,8|0,0:0|0:0,0:0:0:0:
454,97,73723,1,0,0:0:0:0:
463,97,73797,2,0,P|473:152|466:208,1,113.333333333333,0|0,1:0|0:0,0:0:0:0:
383,276,74242,6,2,B|388:271|388:271|378:270|378:270|383:265|383:265|391:178,1,113.333333333333,8|0,0:0|0:0,0:1:0:0:
331,106,74686,6,0,P|276:90|220:93,1,113.333333333333,0|0,1:0|0:0,0:0:0:0:
170,148,75131,2,0,P|186:203|183:259,1,113.333333333333,8|0,0:0|0:0,0:0:0:0:
178,266,75501,1,0,0:0:0:0:
174,275,75575,2,0,L|55:267,1,113.333333333333,0|2,1:0|0:0,0:0:0:0:
50,193,76019,6,0,L|106:196,2,56.6666666666667,10|2|2,0:0|0:0|0:0,0:0:0:0:
3,134,76464,22,0,P|48:98|101:80,1,113.333333333333,0|0,1:0|0:0,0:0:0:0:
166,114,76908,2,0,P|221:130|277:127,1,113.333333333333,8|0,0:0|0:0,0:0:0:0:
284,122,77278,1,0,0:0:0:0:
293,118,77352,22,0,B|333:114|333:114|389:120,1,85,0|2,1:0|0:1,0:0:0:0:
435,198,77797,2,2,B|430:193|430:193|429:203|429:203|424:198|424:198|337:190,1,113.333333333333,8|0,0:0|0:0,0:1:0:0:
265,214,78242,22,0,P|208:211|154:227,1,113.333333333333,0|0,1:0|0:0,0:0:0:0:
92,266,78686,2,0,P|76:211|78:155,1,113.333333333333,8|0,0:0|0:0,0:0:0:0:
80,146,79057,1,0,0:0:0:0:
85,138,79131,2,0,L|204:130,1,113.333333333333,0|2,1:0|0:0,0:0:0:0:
243,72,79575,22,0,B|245:42|245:42|237:11,2,56.6666666666667,10|2|2,0:0|0:0|0:0,0:0:0:0:
270,140,80019,6,0,P|262:195|273:251,1,113.333333333333,0|0,1:0|0:0,0:0:0:0:
313,313,80464,2,0,P|368:305|424:316,1,113.333333333333,8|0,0:0|0:0,0:0:0:0:
432,322,80834,1,0,0:0:0:0:
438,329,80908,2,0,L|446:210,1,113.333333333333,0|0,1:0|0:0,0:0:0:0:
355,134,81353,6,2,B|359:139|359:139|349:139|349:139|354:144|354:144|361:233,1,113.333333333333,8|0,0:0|0:0,0:1:0:0:
313,313,81797,6,0,P|258:321|202:310,1,113.333333333333,0|0,1:0|0:0,0:0:0:0:
154,252,82242,2,0,P|99:244|43:255,1,113.333333333333,8|0,0:0|0:0,0:0:0:0:
42,245,82612,1,0,0:0:0:0:
41,236,82686,2,0,L|33:117,1,113.333333333333,0|2,1:0|0:0,0:0:0:0:
78,64,83131,6,0,B|81:38|81:38|76:8,2,56.6666666666667,10|2|2,0:0|0:0|0:0,0:0:0:0:
106,132,83575,22,0,P|152:151|203:149,1,101.999996887207,0|0,3:0|0:0,0:0:0:0:
266,117,84019,2,0,P|316:115|363:134,1,101.999996887207,8|0,0:0|0:0,0:0:0:0:
363,143,84390,1,0,0:0:0:0:
364,152,84464,6,0,L|369:238,1,76.4999976654053,0|2,3:0|0:1,0:0:0:0:
288,284,84908,2,2,B|292:280|292:280|283:279|283:279|288:274|288:274|294:195,1,101.999996887207,8|0,0:0|0:0,0:1:0:0:
266,117,85353,6,0,B|219:84|219:84|154:77,1,113.333333333333,4|0,1:2|0:0,0:0:0:0:
100,115,85797,6,0,P|90:141|89:169,2,56.6666666666667,8|0|0,0:0|0:0|0:0,0:0:0:0:
100,41,86242,2,0,P|80:19|57:4,2,56.6666666666667,0|0|0,1:0|0:0|0:0,0:0:0:0:
163,78,86686,5,10,0:0:0:0:
181,74,86834,1,2,0:0:0:0:
199,68,86982,1,2,0:0:0:0:
216,59,87131,22,0,L|213:1,2,56.6666666666667,0|0|0,1:0|0:0|0:0,0:0:0:0:
266,117,87575,2,0,L|263:175,2,56.6666666666667,8|0|0,0:0|0:0|0:0,0:0:0:0:
316,59,88019,6,0,P|367:41|426:51,1,113.333333333333,0|0,1:0|0:0,0:0:0:0:
467,120,88464,22,0,L|470:191,1,67.9999979248048,10|2,0:0|0:0,0:0:0:0:
474,270,88760,1,2,0:0:0:0:
384,233,88908,22,0,B|327:229|327:229|271:256,1,113.333333333333,0|0,1:0|0:0,0:0:0:0:
243,321,89353,22,0,P|253:347|273:367,2,56.6666666666667,8|0|0,0:0|0:0|0:0,0:0:0:0:
203,258,89797,2,0,P|175:254|147:260,2,56.6666666666667,0|0|0,1:0|0:0|0:0,0:0:0:0:
277,254,90242,21,10,0:0:0:0:
289,239,90390,1,2,0:0:0:0:
297,223,90538,1,2,0:0:0:0:
302,204,90686,6,0,L|299:146,2,56.6666666666667,0|0|0,1:0|0:0|0:0,0:0:0:0:
364,248,91130,2,0,L|361:306,2,56.6666666666667,8|0|0,0:0|0:0|0:0,0:0:0:0:
414,190,91575,2,0,L|411:132,1,56.6666666666667,0|0,1:0|0:0,0:0:0:0:
427,50,91871,21,0,0:0:0:0:
427,50,91945,1,0,0:0:0:0:
427,50,92019,2,0,P|396:59|371:58,1,56.6666666666667,2|0,0:3|0:0,0:0:0:0:
306,23,92316,1,0,0:0:0:0:
214,80,92464,22,0,L|219:193,1,113.333333333333,4|0,1:2|0:0,0:0:0:0:
171,250,92908,22,0,P|151:270|126:283,2,56.6666666666667,8|0|0,0:0|0:0|0:0,0:0:0:0:
219,193,93353,2,0,P|246:199|270:215,2,56.6666666666667,0|0|0,1:0|0:0|0:0,0:0:0:0:
146,180,93797,21,10,0:0:0:0:
140,162,93945,1,2,0:0:0:0:
137,143,94093,1,2,0:0:0:0:
139,124,94242,6,0,L|196:119,2,56.6666666666667,0|0|0,1:0|0:0|0:0,0:0:0:0:
83,75,94686,2,0,L|26:70,2,56.6666666666667,8|0|0,0:0|0:0|0:0,0:0:0:0:
132,19,95131,22,0,P|183:35|246:25,1,113.333333333333,0|0,1:0|0:0,0:0:0:0:
326,0,95575,6,0,L|329:71,1,67.9999979248048,10|2,0:0|0:0,0:0:0:0:
333,150,95871,1,2,0:0:0:0:
418,104,96019,6,0,B|426:160|426:160|404:218,1,113.333333333333,0|0,1:0|0:0,0:0:0:0:
358,269,96464,6,0,P|359:297|367:327,2,56.6666666666667,8|0|0,0:0|0:0|0:0,0:0:0:0:
303,219,96908,2,0,P|279:233|257:255,2,56.6666666666667,0|0|0,1:0|0:0|0:0,0:0:0:0:
333,150,97353,5,10,0:0:0:0:
316,140,97501,1,2,0:0:0:0:
299,133,97649,1,2,0:0:0:0:
280,129,97797,22,0,L|225:133,2,56.6666666666667,0|0|0,1:0|0:0|0:0,0:0:0:0:
326,67,98242,2,0,L|329:11,2,56.6666666666667,8|0|0,0:0|0:0|0:0,0:0:0:0:
250,58,98686,2,0,L|211:17,1,56.6666666666667,0|0,1:0|0:0,0:0:0:0:
139,63,98982,5,0,0:0:0:0:
139,63,99057,1,0,0:0:0:0:
139,63,99131,2,0,B|130:88|130:88|139:112|139:112|130:136|130:136|139:160|139:160|130:184|130:184|139:208,1,152.999995330811,2|0,0:3|0:0,0:0:0:0:
130,279,99575,6,0,P|172:306|245:299,1,113.333333333333,4|0,1:2|0:0,0:0:0:0:
288,255,100019,5,8,0:0:0:0:
288,255,100168,2,0,L|351:259,1,56.6666666666667,0|0,0:0|0:0,0:0:0:0:
404,310,100464,1,0,1:0:0:0:
404,310,100613,2,0,L|467:306,1,56.6666666666667,0|0,0:0|0:0,0:0:0:0:
494,241,100908,6,0,B|500:213|500:213|496:174,1,56.6666666666667,10|2,0:0|0:0,0:0:0:0:
477,112,101205,1,2,0:0:0:0:
425,166,101353,6,0,L|311:173,1,113.333333333333,0|0,1:0|0:0,0:0:0:0:
259,225,101797,5,8,0:0:0:0:
259,225,101945,2,0,P|236:226|199:220,1,56.6666666666667,0|0,0:0|0:0,0:0:0:0:
159,164,102242,1,0,1:0:0:0:
159,164,102390,2,0,P|158:141|164:104,1,56.6666666666667,0|0,0:0|0:0,0:0:0:0:
220,61,102686,5,10,0:0:0:0:
247,65,102834,1,2,0:0:0:0:
276,64,102982,1,2,0:0:0:0:
311,19,103131,6,0,L|318:133,1,113.333333333333,0|0,1:0|0:0,0:0:0:0:
371,190,103575,5,8,0:0:0:0:
371,190,103723,2,0,L|367:247,1,56.6666666666667,0|0,0:0|0:0,0:0:0:0:
303,282,104019,1,0,1:0:0:0:
303,282,104167,2,0,L|306:339,1,56.6666666666667,0|0,0:0|0:0,0:0:0:0:
237,368,104464,5,10,0:0:0:0:
208,366,104612,1,2,0:0:0:0:
180,364,104760,1,2,0:0:0:0:
124,361,104908,6,0,P|97:319|104:246,1,113.333333333333,0|0,1:0|0:0,0:0:0:0:
150,204,105353,5,8,0:0:0:0:
150,204,105501,2,0,L|207:208,1,56.6666666666667,0|0,0:0|0:0,0:0:0:0:
263,161,105797,1,0,1:0:0:0:
263,161,105945,2,0,L|267:104,1,56.6666666666667,0|0,0:0|0:0,0:0:0:0:
220,48,106242,5,10,0:0:0:0:
191,46,106390,1,2,0:0:0:0:
163,44,106538,1,2,0:0:0:0:
107,41,106686,6,0,P|84:85|99:157,1,113.333333333333,0|0,1:0|0:0,0:0:0:0:
150,204,107131,5,8,0:0:0:0:
150,204,107279,2,0,P|177:209|207:208,1,56.6666666666667,0|0,0:0|0:0,0:0:0:0:
263,161,107575,1,0,1:0:0:0:
263,161,107723,2,0,P|290:156|320:157,1,56.6666666666667,0|0,0:0|0:0,0:0:0:0:
372,207,108019,6,0,B|375:237|375:237|370:263,1,56.6666666666667,10|2,0:0|0:0,0:0:0:0:
340,331,108316,1,2,0:0:0:0:
413,323,108464,6,0,P|441:273|441:207,1,113.333333333333,0|0,1:0|0:0,0:0:0:0:
417,149,108908,5,8,0:0:0:0:
417,149,109057,2,0,L|419:88,1,56.6666666666667,0|0,0:0|0:0,0:0:0:0:
371,39,109353,1,0,1:0:0:0:
371,39,109502,2,0,L|310:37,1,56.6666666666667,0|0,0:0|0:0,0:0:0:0:
260,87,109797,5,10,0:0:0:0:
259,115,109945,1,2,0:0:0:0:
258,143,110094,1,2,0:0:0:0:
257,201,110242,6,0,L|253:323,1,113.333333333333,0|0,1:0|0:0,0:0:0:0:
189,350,110686,5,8,0:0:0:0:
189,350,110834,2,0,P|158:351|132:343,1,56.6666666666667,0|0,0:0|0:0,0:0:0:0:
97,283,111131,1,0,1:0:0:0:
97,283,111279,2,0,P|111:255|131:237,1,56.6666666666667,0|0,0:0|0:0,0:0:0:0:
185,189,111575,5,10,0:0:0:0:
178,161,111723,1,2,0:0:0:0:
163,137,111871,1,2,0:0:0:0:
122,97,112019,6,0,L|244:93,1,113.333333333333,0|0,1:0|0:0,0:0:0:0:
288,41,112464,5,8,0:0:0:0:
288,41,112612,2,0,L|349:43,1,56.6666666666667,0|0,0:0|0:0,0:0:0:0:
312,119,112908,1,0,1:0:0:0:
312,119,113056,2,0,L|340:172,1,56.6666666666667,0|0,0:0|0:0,0:0:0:0:
414,132,113353,5,10,0:0:0:0:
412,174,113501,1,2,0:0:0:0:
411,216,113649,1,2,0:0:0:0:
408,289,113797,5,4,1:2:0:0:
