osu file format v14

[General]
AudioFilename: audio.mp3
AudioLeadIn: 0
PreviewTime: 13929
Countdown: 0
SampleSet: Soft
StackLeniency: 0.3
Mode: 0
LetterboxInBreaks: 0
WidescreenStoryboard: 0

[Editor]
Bookmarks: 12448,14226,27855,28448,42670,56300,56892,63559,64003,71115,83559,85337,98966,99559,113781
DistanceSpacing: 1.5
BeatDivisor: 6
GridSize: 16
TimelineZoom: 3.199999

[Metadata]
Title:Deadlocked
TitleUnicode:Deadlocked
Artist:F-777
ArtistUnicode:F-777
Creator:walter85
Version:Demon
Source:Geometry Dash
Tags:f777 jesse valentine electronic dubstep house RikiH_
BeatmapID:1330566
BeatmapSetID:630264

[Difficulty]
HPDrainRate:6.3
CircleSize:4
OverallDifficulty:8
ApproachRate:9.2
SliderMultiplier:2
SliderTickRate:1

[Events]
//Background and Video events
0,0,"1367282275492.jpg",0,0
//Break Periods
2,57108,63449
//Storyboard Layer 0 (Background)
//Storyboard Layer 1 (Fail)
//Storyboard Layer 2 (Pass)
//Storyboard Layer 3 (Foreground)
//Storyboard Sound Samples

[TimingPoints]
20,444.444444444444,4,2,1,10,1,0
20,-90.9090909090909,4,2,1,10,0,0
464,-200,4,2,1,12,0,0
908,-200,4,2,1,14,0,0
1353,-200,4,2,1,16,0,0
1797,-181.818181818182,4,2,1,18,0,0
2242,-181.818181818182,4,2,1,20,0,0
2686,-181.818181818182,4,2,1,22,0,0
3131,-133.333333333333,4,2,1,24,0,0
3575,-79.9999999999999,4,2,1,26,0,0
4019,-153.846153846154,4,2,1,28,0,0
4464,-153.846153846154,4,2,1,30,0,0
4908,-153.846153846154,4,2,1,32,0,0
5353,-142.857142857143,4,2,1,34,0,0
5797,-142.857142857143,4,2,1,36,0,0
6242,-142.857142857143,4,2,1,38,0,0
6686,-142.857142857143,4,2,1,40,0,0
7131,-76.9230769230769,4,2,1,42,0,0
7575,-125,4,2,1,44,0,0
8019,-125,4,2,1,46,0,0
8464,-125,4,2,1,48,0,0
8908,-117.647058823529,4,2,1,50,0,0
9353,-117.647058823529,4,2,1,52,0,0
9797,-117.647058823529,4,2,1,54,0,0
10242,-100,4,2,1,56,0,0
10686,-76.9230769230769,4,2,1,58,0,0
11131,-105.263157894737,4,2,1,60,0,0
14242,-66.6666666666667,4,2,1,72,0,0
14686,-83.3333333333333,4,2,1,72,0,0
16908,-100,4,2,1,72,0,0
17353,-66.6666666666667,4,2,1,72,0,0
18242,-83.3333333333333,4,2,1,72,0,0
20019,-86.9565217391304,4,2,1,72,0,0
20464,-90.9090909090909,4,2,1,72,0,0
21353,-66.6666666666667,4,2,1,72,0,0
21797,-83.3333333333333,4,2,1,72,0,0
24168,-100,4,2,1,72,0,0
24464,-66.6666666666667,4,2,1,72,0,0
25353,-83.3333333333333,4,2,1,72,0,0
27131,-86.9565217391304,4,2,1,72,0,0
27575,-90.9090909090909,4,2,1,72,0,0
28019,-60.6060606060605,4,2,1,72,0,0
28464,-60.6060606060606,4,2,1,72,0,1
28686,-60.6060606060606,4,2,1,5,0,1
28760,-83.3333333333333,4,2,1,72,0,1
30242,-60.6060606060606,4,2,1,72,0,1
30464,-60.6060606060606,4,2,1,5,0,1
30538,-83.3333333333333,4,2,1,72,0,1
32019,-60.6060606060606,4,2,1,72,0,1
32242,-60.6060606060606,4,2,1,5,0,1
32316,-83.3333333333333,4,2,1,72,0,1
33797,-60.6060606060606,4,2,1,72,0,1
34019,-60.6060606060606,4,2,1,5,0,1
34094,-83.3333333333333,4,2,1,72,0,1
35575,-60.6060606060606,4,2,1,72,0,1
35797,-60.6060606060606,4,2,1,5,0,1
35871,-83.3333333333333,4,2,1,72,0,1
37353,-60.6060606060606,4,2,1,72,0,1
37575,-60.6060606060606,4,2,1,5,0,1
37649,-83.3333333333333,4,2,1,72,0,1
39131,-60.6060606060606,4,2,1,72,0,1
39353,-60.6060606060606,4,2,1,5,0,1
39427,-83.3333333333333,4,2,1,72,0,1
40908,-60.6060606060606,4,2,1,72,0,1
41131,-60.6060606060606,4,2,1,5,0,1
41205,-83.3333333333333,4,2,1,72,0,1
42686,-66.6666666666667,4,2,1,72,0,0
43131,-83.3333333333333,4,2,1,72,0,0
45353,-100,4,2,1,72,0,0
45797,-66.6666666666667,4,2,1,72,0,0
46686,-83.3333333333333,4,2,1,72,0,0
48464,-86.9565217391303,4,2,1,72,0,0
48908,-90.9090909090909,4,2,1,72,0,0
49797,-66.6666666666667,4,2,1,72,0,0
50242,-83.3333333333333,4,2,1,72,0,0
52464,-100,4,2,1,72,0,0
52908,-66.6666666666667,4,2,1,72,0,0
53797,-83.3333333333333,4,2,1,72,0,0
55575,-86.9565217391303,4,2,1,72,0,0
56019,-90.9090909090909,4,2,1,72,0,0
56464,-60.6060606060606,4,2,1,72,0,0
56908,-125,4,2,1,72,0,0
64019,-105.263157894737,4,2,1,60,0,0
71131,-93.4579439252336,4,2,1,67,0,0
83575,-105.263157894737,4,2,1,62,0,0
85353,-66.6666666666667,4,2,1,72,0,0
85797,-83.3333333333333,4,2,1,72,0,0
88019,-100,4,2,1,72,0,0
88464,-66.6666666666667,4,2,1,72,0,0
89353,-83.3333333333333,4,2,1,72,0,0
91131,-86.9565217391303,4,2,1,72,0,0
91575,-90.9090909090909,4,2,1,72,0,0
92464,-66.6666666666667,4,2,1,72,0,0
92908,-83.3333333333333,4,2,1,72,0,0
95131,-100,4,2,1,72,0,0
95575,-66.6666666666667,4,2,1,72,0,0
96464,-83.3333333333333,4,2,1,72,0,0
98242,-86.9565217391303,4,2,1,72,0,0
98686,-90.9090909090909,4,2,1,72,0,0
99131,-60.6060606060606,4,2,1,72,0,0
99575,-60.6060606060606,4,2,1,72,0,1
99797,-60.6060606060606,4,2,1,5,0,1
99871,-83.3333333333333,4,2,1,72,0,1
101353,-60.6060606060606,4,2,1,72,0,1
101575,-60.6060606060606,4,2,1,5,0,1
101649,-83.3333333333333,4,2,1,72,0,1
103131,-60.6060606060606,4,2,1,72,0,1
103353,-60.6060606060606,4,2,1,5,0,1
103427,-83.3333333333333,4,2,1,72,0,1
104908,-60.6060606060606,4,2,1,72,0,1
105131,-60.6060606060606,4,2,1,5,0,1
105205,-83.3333333333333,4,2,1,72,0,1
106686,-60.6060606060606,4,2,1,72,0,1
106908,-60.6060606060606,4,2,1,5,0,1
106982,-83.3333333333333,4,2,1,72,0,1
108464,-60.6060606060606,4,2,1,72,0,1
108686,-60.6060606060606,4,2,1,5,0,1
108760,-83.3333333333333,4,2,1,72,0,1
110242,-60.6060606060606,4,2,1,72,0,1
110464,-60.6060606060606,4,2,1,5,0,1
110538,-83.3333333333333,4,2,1,72,0,1
112019,-60.6060606060606,4,2,1,72,0,1
112242,-60.6060606060606,4,2,1,5,0,1
112316,-83.3333333333333,4,2,1,72,0,1
113797,-83.3333333333333,4,2,1,72,0,0

[Colours]
Combo1 : 212,212,212
Combo2 : 255,128,0
Combo3 : 18,124,255

[HitObjects]
223,340,20,38,0,B|226:295|218:239|218:239|230:257|252:270,1,146.666671142578,0|0,1:2|0:0,0:0:0:0:
310,326,464,6,0,L|347:323,2,33.3333333333333,8|0|0,0:0|0:0|0:0,0:0:0:0:
430,263,908,2,0,L|393:260,2,33.3333333333333,0|0|0,1:0|0:0|0:0,0:0:0:0:
343,197,1353,5,10,0:0:0:0:
344,163,1501,1,2,0:0:0:0:
344,130,1649,1,2,0:0:0:0:
263,188,1797,22,0,L|267:227,2,36.6666677856446,0|0|0,1:0|0:0|0:0,0:0:0:0:
206,123,2242,2,0,L|210:84,2,36.6666677856446,8|0|0,0:0|0:0|0:0,0:0:0:0:
149,188,2686,5,0,1:0:0:0:
149,188,2834,2,0,P|155:216|153:255,1,55.0000016784669
152,257,3131,22,2,L|149:306,1,50.0000019073487,10|2,0:0|0:0,0:0:0:0:
215,356,3427,1,2,0:0:0:0:
278,218,3575,22,0,B|274:166|283:102|283:102|269:122|244:137,1,166.666666666667,0|0,1:2|0:0,0:0:0:0:
193,190,4019,22,0,L|150:188,2,43.3333313496908,8|0|0,0:0|0:0|0:0,0:0:0:0:
278,218,4464,2,0,L|321:215,2,43.3333313496908,0|0|0,1:0|0:0|0:0,0:0:0:0:
215,356,4908,21,10,0:0:0:0:
215,312,5056,1,2,0:0:0:0:
216,269,5204,1,2,0:0:0:0:
305,324,5353,6,0,P|327:332|353:335,1,46.6666652425131,0|0,1:0|0:0,0:0:0:0:
377,329,5649,1,0,0:0:0:0:
287,212,5797,22,0,P|302:229|323:245,1,46.6666652425131,8|0,0:0|0:0,0:0:0:0:
346,252,6093,1,0,0:0:0:0:
327,106,6242,6,0,P|331:129|341:153,1,46.6666652425131,0|0,1:0|0:0,0:0:0:0:
414,34,6538,21,0,0:0:0:0:
408,48,6612,1,0,0:0:0:0:
404,63,6686,1,2,0:3:0:0:
413,135,6834,1,0,0:0:0:0:
466,183,6982,1,0,0:0:0:0:
340,150,7131,22,0,B|287:136|287:136|226:156|226:156|174:142,1,173.333325398763,0|0,1:2|0:0,0:0:0:0:
223,79,7575,22,0,L|220:25,2,53.3333333333333,8|0|0,0:0|0:0|0:0,0:0:0:0:
173,142,8019,2,0,L|170:195,2,53.3333333333333,0|0|0,1:0|0:0|0:0,0:0:0:0:
289,211,8464,21,10,0:0:0:0:
292,264,8612,1,2,0:0:0:0:
295,318,8760,1,2,0:0:0:0:
356,235,8908,6,0,L|421:238,2,56.6666677474976,0|0|0,1:0|0:0|0:0,0:0:0:0:
227,293,9353,2,0,L|167:296,2,56.6666677474976,8|0|0,0:0|0:0|0:0,0:0:0:0:
256,113,9797,21,0,1:0:0:0:
256,113,9945,2,0,P|271:153|266:195,1,85.0000016212464
192,162,10242,6,2,L|122:165,1,66.6666666666667,10|2,0:0|0:0,0:0:0:0:
50,167,10538,1,2,0:0:0:0:
219,42,10686,6,0,B|270:97|339:77|339:77|324:54|288:51,1,173.333325398763,0|0,1:0|0:0,0:0:0:0:
281,157,11131,6,0,L|279:226,2,63.3333316421509,8|0|0,0:0|0:0|0:0,0:0:0:0:
387,204,11575,2,0,L|388:267,2,63.3333316421509,0|0|0,1:0|0:0|0:0,0:0:0:0:
306,310,12019,5,10,0:0:0:0:
230,306,12167,1,2,0:0:0:0:
154,303,12315,1,2,0:0:0:0:
119,173,12464,22,0,P|147:177|180:195,1,63.3333316421509,0|0,1:0|0:0,0:0:0:0:
195,218,12760,1,0,0:0:0:0:
335,98,12908,6,0,P|306:102|273:120,1,63.3333316421509,8|0,0:0|0:0,0:0:0:0:
259,143,13204,1,0,0:0:0:0:
119,23,13353,21,0,1:0:0:0:
179,66,13501,1,0,0:0:0:0:
186,80,13575,1,0,0:0:0:0:
189,94,13649,1,0,0:0:0:0:
119,173,13797,5,2,0:3:0:0:
119,173,14242,6,0,B|132:234|115:305|115:305|132:279|169:256,1,200.000007629395,4|0,1:2|0:0,0:0:0:0:
359,178,14686,6,0,L|280:183,1,79.9999975585938,8|0,0:0|0:0,0:0:0:0:
201,188,14982,1,0,0:0:0:0:
404,265,15131,2,0,L|324:260,1,79.9999975585938,0|0,1:0|0:0,0:0:0:0:
245,255,15427,1,0,0:0:0:0:
360,352,15575,5,10,0:0:0:0:
359,178,15723,1,2,0:0:0:0:
510,264,15871,1,2,0:0:0:0:
245,255,16019,22,0,L|250:176,1,79.9999975585938,0|0,1:0|0:0,0:0:0:0:
255,97,16315,1,0,0:0:0:0:
163,220,16464,2,0,L|158:140,1,79.9999975585938,8|0,0:0|0:0,0:0:0:0:
153,61,16760,1,0,0:0:0:0:
93,248,16908,5,0,1:0:0:0:
93,248,17057,2,0,P|135:255|174:294,1,100
192,368,17353,22,0,L|241:364,1,50.0000019073487,10|2,0:0|0:0,0:0:0:0:
259,239,17501,2,2,L|255:288,1,50.0000019073487,2|0,0:0|0:0,0:0:0:0:
366,341,17649,2,2,L|316:337,1,50.0000019073487,2|0,0:0|0:0,0:0:0:0:
254,96,17797,22,0,B|241:156|241:156|268:226|268:226|255:289,1,200.000007629395,0|0,1:0|0:0,0:0:0:0:
468,167,18242,22,0,P|435:143|396:136,1,79.9999975585938,8|0,0:0|0:0,0:0:0:0:
319,153,18538,1,0,0:0:0:0:
453,362,18686,2,0,P|457:323|445:286,1,79.9999975585938,0|0,1:0|0:0,0:0:0:0:
405,215,18982,1,0,0:0:0:0:
194,293,19131,21,10,0:0:0:0:
319,153,19279,1,2,0:0:0:0:
378,331,19427,1,2,0:0:0:0:
226,193,19575,6,0,L|220:109,1,79.9999975585938,0|0,1:0|0:0,0:0:0:0:
234,35,19871,1,0,0:0:0:0:
150,209,20019,22,0,L|144:129,1,76.6666681289673,8|0,0:0|0:0,0:0:0:0:
157,57,20315,1,0,0:0:0:0:
73,225,20464,6,0,L|67:148,1,73.3333355712891,0|0,1:0|0:0,0:0:0:0:
84,52,20760,1,0,0:0:0:0:
86,64,20834,1,0,0:0:0:0:
88,77,20908,1,2,0:3:0:0:
144,132,21057,1,0,0:0:0:0:
220,113,21205,1,0,0:0:0:0:
254,307,21353,6,0,B|245:232|273:169|273:169|279:199|291:224,1,200.000007629395,4|0,1:2|0:0,0:0:0:0:
365,342,21797,6,0,L|370:262,1,79.9999975585938,8|0,0:0|0:0,0:0:0:0:
375,183,22093,1,0,0:0:0:0:
452,297,22242,2,0,L|447:218,1,79.9999975585938,0|0,1:0|0:0,0:0:0:0:
442,139,22538,1,0,0:0:0:0:
369,262,22686,5,10,0:0:0:0:
216,182,22834,1,2,0:0:0:0:
362,89,22982,1,2,0:0:0:0:
275,261,23131,22,0,P|240:278|191:278,1,79.9999975585938,0|0,1:0|0:0,0:0:0:0:
123,255,23427,1,0,0:0:0:0:
271,127,23575,2,0,P|249:160|215:181,1,79.9999975585938,8|0,0:0|0:0,0:0:0:0:
135,174,23871,1,0,0:0:0:0:
201,13,24019,5,0,1:0:0:0:
201,13,24168,2,0,P|243:40|311:33,1,100
363,5,24464,22,0,L|366:57,1,50.0000019073487,10|2,0:0|0:0,0:0:0:0:
300,155,24612,2,0,L|341:127,1,50.0000019073487,2|0,0:0|0:0,0:0:0:0:
462,135,24760,2,0,L|415:111,1,50.0000019073487,2|0,0:0|0:0,0:0:0:0:
170,146,24908,22,0,B|206:107|281:114|300:155|300:155|276:154|251:168,1,200.000007629395,0|0,1:0|0:0,0:0:0:0:
201,382,25353,22,0,L|197:296,1,79.9999975585938,8|0,0:0|0:0,0:0:0:0:
193,222,25649,1,0,0:0:0:0:
292,315,25797,2,0,L|296:229,1,79.9999975585938,0|0,1:0|0:0,0:0:0:0:
300,155,26093,1,0,0:0:0:0:
197,302,26242,21,10,0:0:0:0:
201,114,26390,1,2,0:0:0:0:
37,205,26538,1,2,0:0:0:0:
295,235,26686,6,0,P|334:228|374:202,1,79.9999975585938,0|0,1:0|0:0,0:0:0:0:
404,136,26982,1,0,0:0:0:0:
260,165,27131,22,0,P|289:140|309:99,1,76.6666681289673,8|0,0:0|0:0,0:0:0:0:
302,30,27427,1,0,0:0:0:0:
201,114,27575,6,0,P|213:79|211:35,1,73.3333355712891,0|0,1:0|0:0,0:0:0:0:
122,65,27871,1,0,0:0:0:0:
114,81,27945,1,0,0:0:0:0:
109,99,28019,22,0,L|109:147,7,41.2500003933907,2|0|0|0|0|0|0|0,0:3|0:0|0:0|0:0|0:0|0:0|0:0|0:0,0:0:0:0:
54,205,28464,22,0,B|88:168|138:166|168:184|168:184|166:209|178:238,1,165.000001573563,4|0,1:2|0:0,0:0:0:0:
180,238,28760,1,0,0:0:0:0:
406,185,28908,21,8,0:0:0:0:
326,189,29057,2,0,L|247:193,1,79.9999975585938
398,344,29353,1,0,1:0:0:0:
402,264,29502,2,0,L|405:184,1,79.9999975585938
289,304,29797,21,10,0:0:0:0:
362,116,29945,1,2,0:0:0:0:
402,264,30094,1,2,0:0:0:0:
260,88,30242,22,0,B|246:68|237:43|237:43|238:100|215:158,1,165.000001573563,0|0,1:0|0:0,0:0:0:0:
210,170,30538,1,0,0:0:0:0:
0,75,30686,21,8,0:0:0:0:
80,78,30834,2,0,L|160:81,1,79.9999975585938
44,302,31131,1,0,1:0:0:0:
39,220,31279,2,0,L|37:141,1,79.9999975585938
210,170,31575,21,10,0:0:0:0:
206,261,31723,1,2,0:0:0:0:
203,353,31871,1,2,0:0:0:0:
407,228,32019,22,0,B|350:209|288:219|288:219|311:227|330:246,1,165.000001573563,0|0,1:0|0:0,0:0:0:0:
335,255,32316,1,0,0:0:0:0:
488,185,32464,21,8,0:0:0:0:
492,265,32612,2,0,L|496:344,1,79.9999975585938
411,148,32908,1,0,1:0:0:0:
407,228,33056,2,0,L|402:307,1,79.9999975585938
317,92,33353,21,10,0:0:0:0:
320,183,33501,1,2,0:0:0:0:
323,275,33649,1,2,0:0:0:0:
127,128,33797,22,0,B|187:123|238:139|238:139|220:117|212:87,1,165.000001573563,0|0,1:0|0:0,0:0:0:0:
210,76,34094,1,0,0:0:0:0:
82,243,34242,21,8,0:0:0:0:
161,236,34390,2,0,L|240:230,1,79.9999975585938
445,162,34686,1,0,1:0:0:0:
366,155,34834,2,0,L|286:149,1,79.9999975585938
104,74,35131,21,10,0:0:0:0:
173,140,35279,1,2,0:0:0:0:
161,236,35427,1,2,0:0:0:0:
196,48,35575,22,0,B|250:36|250:36|313:61|313:61|368:49,1,165.000001573563,0|0,1:0|0:0,0:0:0:0:
369,49,35871,1,0,0:0:0:0:
252,272,36019,21,8,0:0:0:0:
248,192,36168,2,0,L|244:112,1,79.9999975585938
487,140,36464,1,0,1:0:0:0:
407,144,36613,2,0,L|327:148,1,79.9999975585938
443,72,36908,21,10,0:0:0:0:
432,268,37057,1,2,0:0:0:0:
407,144,37205,1,2,0:0:0:0:
485,332,37353,22,0,B|431:303|373:311|373:311|397:321|412:345,1,165.000001573563,0|0,1:0|0:0,0:0:0:0:
416,357,37649,1,0,0:0:0:0:
214,227,37797,21,8,0:0:0:0:
294,221,37945,2,0,L|373:215,1,79.9999975585938
248,306,38242,1,0,1:0:0:0:
168,300,38390,2,0,L|88:294,1,79.9999975585938
205,43,38686,21,10,0:0:0:0:
209,135,38834,1,2,0:0:0:0:
214,227,38982,1,2,0:0:0:0:
428,127,39131,22,0,B|419:86|373:60|373:60|313:49|269:107,1,165.000001573563,0|0,1:0|0:0,0:0:0:0:
288,86,39427,1,0,0:0:0:0:
356,299,39575,21,8,0:0:0:0:
352,220,39723,2,0,L|347:140,1,79.9999975585938
197,290,40019,1,0,1:0:0:0:
276,294,40167,2,0,L|355:298,1,79.9999975585938
142,145,40464,21,10,0:0:0:0:
138,237,40612,1,2,0:0:0:0:
133,329,40760,1,2,0:0:0:0:
82,86,40908,22,0,B|109:111|154:113|186:91|186:91|215:107|253:101,1,165.000001573563,0|0,1:0|0:0,0:0:0:0:
253,99,41205,1,0,0:0:0:0:
388,184,41353,21,8,0:0:0:0:
385,104,41501,2,0,L|381:20,1,79.9999975585938
310,200,41797,1,0,1:0:0:0:
307,280,41945,2,0,L|303:364,1,79.9999975585938
160,121,42242,21,10,0:0:0:0:
232,184,42390,1,2,0:0:0:0:
228,280,42538,1,2,0:0:0:0:
224,48,42686,22,0,B|271:72|319:48|319:48|367:25|415:48,1,200.000007629395,4|0,1:2|0:0,0:0:0:0:
375,288,43131,22,0,L|371:209,1,79.9999975585938,8|0,0:0|0:0,0:0:0:0:
367,130,43427,1,0,0:0:0:0:
278,263,43575,2,0,L|283:184,1,79.9999975585938,0|0,1:0|0:0,0:0:0:0:
287,105,43871,1,0,0:0:0:0:
198,218,44019,21,10,0:0:0:0:
367,130,44168,1,2,0:0:0:0:
207,28,44316,1,2,0:0:0:0:
283,183,44464,6,0,P|319:218|367:229,1,79.9999975585938,0|0,1:0|0:0,0:0:0:0:
426,227,44760,1,0,0:0:0:0:
242,325,44908,2,0,P|290:337|337:322,1,79.9999975585938,8|0,0:0|0:0,0:0:0:0:
387,291,45204,1,0,0:0:0:0:
208,160,45353,21,0,1:0:0:0:
208,160,45501,2,0,P|215:209|205:258,1,100
135,297,45797,6,0,L|131:245,1,50.0000019073487,10|2,0:0|0:0,0:0:0:0:
123,122,45945,2,0,L|126:172,1,50.0000019073487,2|0,0:0|0:0,0:0:0:0:
14,216,46094,2,0,L|63:213,1,50.0000019073487,2|0,0:0|0:0,0:0:0:0:
258,345,46242,6,0,B|264:267|215:207|215:207|214:234|205:262,1,200.000007629395,0|0,1:0|0:0,0:0:0:0:
322,235,46686,6,0,L|406:238,1,79.9999975585938,8|0,0:0|0:0,0:0:0:0:
481,240,46982,1,0,0:0:0:0:
285,155,47131,2,0,L|369:152,1,79.9999975585938,0|0,1:0|0:0,0:0:0:0:
444,150,47427,1,0,0:0:0:0:
323,74,47575,5,10,0:0:0:0:
220,223,47723,1,2,0:0:0:0:
401,237,47871,1,2,0:0:0:0:
221,100,48019,22,0,P|184:89|139:92,1,79.9999975585938,0|0,1:0|0:0,0:0:0:0:
74,132,48316,1,0,0:0:0:0:
265,163,48464,6,0,P|238:188|219:227,1,76.6666681289673,8|0,0:0|0:0,0:0:0:0:
221,300,48761,1,0,0:0:0:0:
342,153,48908,22,0,P|350:187|373:221,1,73.3333355712891,0|0,1:0|0:0,0:0:0:0:
457,282,49205,1,0,0:0:0:0:
449,269,49279,1,0,0:0:0:0:
440,258,49353,1,2,0:3:0:0:
370,219,49501,1,0,0:0:0:0:
301,260,49649,1,0,0:0:0:0:
235,123,49797,22,0,B|248:183|248:183|222:253|222:253|236:314,1,200.000007629395,4|0,1:2|0:0,0:0:0:0:
20,196,50242,22,0,P|53:172|92:165,1,79.9999975585938,8|0,0:0|0:0,0:0:0:0:
169,176,50538,1,0,0:0:0:0:
32,384,50686,2,0,P|28:345|40:308,1,79.9999975585938,0|0,1:0|0:0,0:0:0:0:
82,243,50982,1,0,0:0:0:0:
294,317,51131,21,10,0:0:0:0:
169,176,51279,1,2,0:0:0:0:
110,354,51427,1,2,0:0:0:0:
268,210,51575,6,0,L|261:125,1,79.9999975585938,0|0,1:0|0:0,0:0:0:0:
254,50,51871,1,0,0:0:0:0:
350,240,52019,2,0,L|357:155,1,79.9999975585938,8|0,0:0|0:0,0:0:0:0:
364,80,52315,1,0,0:0:0:0:
425,273,52464,21,0,1:0:0:0:
425,273,52612,2,0,P|386:314|320:317,1,100
275,277,52908,6,0,L|221:275,1,50.0000019073487,10|0,0:0|0:0,0:0:0:0:
134,199,53057,2,0,L|159:246,1,50.0000019073487,2|0,0:0|0:0,0:0:0:0:
137,361,53205,2,0,L|165:315,1,50.0000019073487,2|0,0:0|0:0,0:0:0:0:
241,119,53353,6,0,B|170:140|104:113|104:113|128:95|165:89,1,200.000007629395,0|0,1:0|0:0,0:0:0:0:
330,84,53797,6,0,L|326:168,1,79.9999975585938,8|0,0:0|0:0,0:0:0:0:
322,243,54094,1,0,0:0:0:0:
415,48,54242,2,0,L|419:132,1,79.9999975585938,0|0,1:0|0:0,0:0:0:0:
423,207,54539,1,0,0:0:0:0:
241,119,54686,5,10,0:0:0:0:
261,301,54834,1,2,0:0:0:0:
423,207,54982,1,2,0:0:0:0:
200,215,55131,22,0,P|171:240|145:282,1,79.9999975585938,0|0,1:0|0:0,0:0:0:0:
141,354,55427,1,0,0:0:0:0:
166,143,55575,6,0,P|129:149|88:172,1,76.6666681289673,8|0,0:0|0:0,0:0:0:0:
49,229,55871,1,0,0:0:0:0:
172,63,56019,22,0,P|138:51|93:50,1,73.3333355712891,0|0,1:0|0:0,0:0:0:0:
24,107,56316,1,0,0:0:0:0:
27,92,56390,1,0,0:0:0:0:
30,78,56464,6,0,L|30:30,7,41.2500003933907,2|0|0|0|0|0|0|0,0:3|0:0|0:0|0:0|0:0|0:0|0:0|0:0,0:0:0:0:
95,167,56908,5,4,1:2:0:0:
113,116,64019,6,0,P|120:152|119:188,1,63.3333316421509,4|0,3:2|0:0,0:0:0:0:
102,252,64316,1,0,0:0:0:0:
52,65,64464,2,0,P|82:79|175:54,1,126.666663284302,8|0,0:0|0:0,0:0:0:0:
179,46,64834,1,0,0:0:0:0:
189,34,64908,2,0,L|261:31,1,63.3333316421509,0|0,3:0|0:0,0:0:0:0:
361,135,65205,5,2,0:0:0:0:
234,140,65353,1,10,0:0:0:0:
359,152,65501,1,2,0:0:0:0:
235,123,65649,1,2,0:0:0:0:
288,232,65797,22,0,P|289:262|282:304,1,63.3333316421509,0|0,3:0|0:0,0:0:0:0:
253,364,66094,1,0,0:0:0:0:
367,278,66242,2,0,L|359:142,1,126.666663284302,8|0,0:0|0:0,0:0:0:0:
358,135,66612,1,0,0:0:0:0:
357,119,66686,2,0,P|387:120|429:113,1,63.3333316421509,0|0,3:0|0:0,0:0:0:0:
304,26,66982,5,0,0:0:0:0:
384,44,67130,1,8,0:0:0:0:
303,37,67279,1,0,0:0:0:0:
384,32,67427,1,0,0:0:0:0:
279,136,67575,22,0,P|285:165|303:203,1,63.3333316421509,0|0,3:0|0:0,0:0:0:0:
360,239,67871,1,0,0:0:0:0:
216,187,68019,2,0,P|153:182|102:217,1,126.666663284302,8|0,0:0|0:0,0:0:0:0:
97,232,68390,1,0,0:0:0:0:
92,247,68464,2,0,L|96:321,1,63.3333316421509,0|0,3:0|0:0,0:0:0:0:
304,309,68760,5,2,0:0:0:0:
180,280,68908,1,10,0:0:0:0:
306,292,69057,1,2,0:0:0:0:
179,297,69205,1,2,0:0:0:0:
250,206,69353,22,0,P|251:176|244:134,1,63.3333316421509,0|0,3:0|0:0,0:0:0:0:
215,76,69650,1,0,0:0:0:0:
324,170,69797,2,0,L|456:163,1,126.666663284302,8|0,0:0|0:0,0:0:0:0:
465,162,70168,1,0,0:0:0:0:
481,161,70242,2,0,P|480:191|487:233,1,63.3333316421509,0|0,3:0|0:0,0:0:0:0:
460,42,70538,5,2,0:0:0:0:
390,85,70686,2,0,L|324:81,1,63.3333316421509,8|0,0:0|0:0,0:0:0:0:
256,38,70982,1,2,0:0:0:0:
286,212,71131,22,0,P|289:248|283:283,1,71.3333311564128,4|0,1:2|0:0,0:0:0:0:
237,346,71427,1,0,0:0:0:0:
375,268,71575,2,0,P|371:197|338:134,1,142.666662312826,8|0,0:0|0:0,0:0:0:0:
322,127,71945,1,0,0:0:0:0:
306,120,72019,2,0,L|220:125,1,71.3333311564128,0|0,1:0|0:0,0:0:0:0:
77,38,72316,5,2,0:0:0:0:
220,44,72464,1,10,0:0:0:0:
80,58,72612,1,2,0:0:0:0:
219,25,72760,1,2,0:0:0:0:
174,170,72908,22,0,P|170:205|177:240,1,71.3333311564128,0|0,1:0|0:0,0:0:0:0:
220,305,73205,1,0,0:0:0:0:
247,135,73353,2,0,L|104:130,1,142.666662312826,8|0,0:0|0:0,0:0:0:0:
87,129,73723,1,0,0:0:0:0:
69,129,73797,2,0,P|72:164|65:199,1,71.3333311564128,0|0,1:0|0:0,0:0:0:0:
165,10,74094,21,0,0:0:0:0:
247,135,74242,2,2,B|244:147|244:147|255:143|255:143|252:157|252:157|265:179|271:195|272:226|256:264,1,142.666662312826,8|0,0:0|0:0,0:1:0:0:
347,139,74686,22,0,P|380:129|416:131,1,71.3333311564128,0|0,1:0|0:0,0:0:0:0:
492,151,74982,1,0,0:0:0:0:
372,49,75131,2,0,P|300:66|230:44,1,142.666662312826,8|0,0:0|0:0,0:0:0:0:
221,35,75501,1,0,0:0:0:0:
208,24,75575,2,0,L|130:21,1,71.3333311564128,0|0,1:0|0:0,0:0:0:0:
28,142,75871,21,2,0:0:0:0:
167,109,76019,1,10,0:0:0:0:
25,122,76168,1,2,0:0:0:0:
168,128,76316,1,2,0:0:0:0:
77,238,76464,6,0,P|66:271|67:307,1,71.3333311564128,0|0,1:0|0:0,0:0:0:0:
101,377,76760,1,0,0:0:0:0:
283,241,76908,2,0,P|209:240|146:201,1,142.666662312826,8|0,0:0|0:0,0:0:0:0:
139,190,77279,1,0,0:0:0:0:
130,177,77353,2,0,L|135:86,1,71.3333311564128,0|0,1:0|0:0,0:0:0:0:
135,88,77575,6,2,L|137:42,1,35.6666655782064,2|0,0:1|0:0,0:1:0:0:
337,64,77797,2,2,B|325:68|325:68|334:75|334:75|321:80|321:80|308:102|297:115|271:131|238:136,1,142.666662312826,8|0,0:0|0:0,0:1:0:0:
383,152,78242,6,0,P|377:186|384:221,1,71.3333311564128,0|0,1:0|0:0,0:0:0:0:
428,286,78538,1,0,0:0:0:0:
286,222,78686,2,0,L|143:227,1,142.666662312826,8|0,0:0|0:0,0:0:0:0:
126,228,79056,1,0,0:0:0:0:
108,228,79130,2,0,P|111:193|104:158,1,71.3333311564128,0|0,1:0|0:0,0:0:0:0:
323,113,79427,5,2,0:0:0:0:
184,146,79575,1,10,0:0:0:0:
324,132,79724,1,2,0:0:0:0:
181,126,79872,1,2,0:0:0:0:
286,222,80019,22,0,P|289:257|282:292,1,71.3333311564128,0|0,1:0|0:0,0:0:0:0:
238,358,80316,1,0,0:0:0:0:
375,278,80464,2,0,P|371:207|338:144,1,142.666662312826,8|0,0:0|0:0,0:0:0:0:
320,141,80834,1,0,0:0:0:0:
302,139,80908,2,0,L|226:136,1,71.3333311564128,0|0,1:0|0:0,0:0:0:0:
112,153,81205,21,0,0:0:0:0:
223,39,81353,2,2,B|235:36|235:36|231:47|231:47|245:44|245:44|267:57|283:63|314:64|352:48,1,142.666662312826,8|0,0:0|0:0,0:1:0:0:
231,136,81797,22,0,P|234:171|228:206,1,71.3333311564128,0|0,1:0|0:0,0:0:0:0:
188,274,82094,1,0,0:0:0:0:
315,174,82242,2,0,L|458:179,1,142.666662312826,8|0,0:0|0:0,0:0:0:0:
475,180,82612,1,0,0:0:0:0:
493,180,82686,2,0,P|490:145|497:110,1,71.3333311564128,0|0,1:0|0:0,0:0:0:0:
278,65,82983,21,2,0:0:0:0:
417,98,83131,1,10,0:0:0:0:
277,84,83280,1,2,0:0:0:0:
420,78,83428,1,2,0:0:0:0:
315,174,83575,6,0,P|311:209|317:244,1,63.3333316421509,0|0,3:0|0:0,0:0:0:0:
347,305,83871,1,0,0:0:0:0:
238,154,84019,2,0,P|212:193|203:293,1,126.666663284302,8|0,0:0|0:0,0:0:0:0:
203,286,84390,1,0,0:0:0:0:
206,302,84464,2,0,L|128:298,1,63.3333316421509,0|0,3:0|0:0,0:0:0:0:
127,298,84686,22,2,L|88:296,1,31.6666658210755,2|0,0:1|0:0,0:1:0:0:
96,102,84908,2,2,B|94:112|94:112|104:108|104:108|103:120|103:120|117:138|124:151|129:178|121:207,1,126.666663284302,8|0,0:0|0:0,0:1:0:0:
205,57,85353,22,0,B|265:44|265:44|335:71|335:71|396:58,1,200.000007629395,4|0,1:2|0:0,0:0:0:0:
271,280,85797,22,0,L|266:200,1,79.9999975585938,8|0,0:0|0:0,0:0:0:0:
261,121,86094,1,0,0:0:0:0:
347,313,86242,2,0,L|351:233,1,79.9999975585938,0|0,1:0|0:0,0:0:0:0:
357,154,86537,1,0,0:0:0:0:
433,279,86686,21,10,0:0:0:0:
266,200,86834,1,2,0:0:0:0:
417,94,86982,1,2,0:0:0:0:
347,313,87131,6,0,P|313:324|261:322,1,79.9999975585938,0|0,1:0|0:0,0:0:0:0:
199,287,87427,1,0,0:0:0:0:
339,229,87575,2,0,P|304:221|260:193,1,79.9999975585938,8|0,0:0|0:0,0:0:0:0:
223,132,87871,1,0,0:0:0:0:
374,152,88019,21,0,1:0:0:0:
374,152,88168,2,0,P|347:128|319:41,1,100
260,18,88464,6,0,L|206:21,1,50.0000019073487,10|0,0:0|0:0,0:0:0:0:
151,123,88612,2,0,L|148:73,1,50.0000019073487,2|0,0:0|0:0,0:0:0:0:
43,11,88760,2,0,L|96:14,1,50.0000019073487,2|0,0:0|0:0,0:0:0:0:
110,256,88908,6,0,B|130:178|102:116|102:116|88:140|88:170,1,200.000007629395,0|0,1:0|0:0,0:0:0:0:
198,187,89353,6,0,L|278:182,1,79.9999975585938,8|0,0:0|0:0,0:0:0:0:
357,177,89649,1,0,0:0:0:0:
243,100,89797,2,0,L|322:105,1,79.9999975585938,0|0,1:0|0:0,0:0:0:0:
401,110,90093,1,0,0:0:0:0:
312,264,90242,5,10,0:0:0:0:
243,100,90390,1,2,0:0:0:0:
136,243,90538,1,2,0:0:0:0:
365,181,90686,22,0,P|398:205|426:241,1,79.9999975585938,0|0,1:0|0:0,0:0:0:0:
442,310,90982,1,0,0:0:0:0:
290,191,91131,6,0,P|305:226|311:270,1,76.6666681289673,8|0,0:0|0:0,0:0:0:0:
292,335,91427,1,0,0:0:0:0:
220,162,91575,22,0,P|216:199|200:238,1,73.3333355712891,0|0,1:0|0:0,0:0:0:0:
155,311,91871,1,0,0:0:0:0:
153,298,91945,1,0,0:0:0:0:
152,286,92019,1,2,0:3:0:0:
95,235,92168,1,0,0:0:0:0:
22,259,92316,1,0,0:0:0:0:
125,151,92464,22,0,B|138:90|121:19|121:19|138:45|175:68,1,200.000007629395,4|0,1:2|0:0,0:0:0:0:
365,146,92908,22,0,L|286:141,1,79.9999975585938,8|0,0:0|0:0,0:0:0:0:
207,136,93204,1,0,0:0:0:0:
410,59,93353,2,0,L|330:64,1,79.9999975585938,0|0,1:0|0:0,0:0:0:0:
251,69,93649,1,0,0:0:0:0:
320,227,93797,21,10,0:0:0:0:
410,59,93945,1,2,0:0:0:0:
510,220,94094,1,2,0:0:0:0:
286,141,94242,6,0,P|251:172|230:213,1,79.9999975585938,0|0,1:0|0:0,0:0:0:0:
250,277,94538,1,0,0:0:0:0:
138,118,94686,2,0,P|123:162|126:208,1,79.9999975585938,8|0,0:0|0:0,0:0:0:0:
174,253,94982,1,0,0:0:0:0:
187,59,95131,21,0,1:0:0:0:
187,59,95279,2,0,P|123:67|65:47,1,100
15,119,95575,6,0,L|13:174,1,50.0000019073487,10|0,0:0|0:0,0:0:0:0:
145,199,95723,2,0,L|99:163,1,50.0000019073487,2|0,0:0|0:0,0:0:0:0:
15,278,95871,2,0,L|60:255,1,50.0000019073487,2|0,0:0|0:0,0:0:0:0:
239,202,96019,6,0,B|221:151|150:127|116:157|116:157|138:166|156:189,1,200.000007629395,0|0,1:0|0:0,0:0:0:0:
277,284,96464,6,0,L|357:282,1,79.9999975585938,8|0,0:0|0:0,0:0:0:0:
437,280,96760,1,0,0:0:0:0:
239,202,96908,2,0,L|335:205,1,79.9999975585938,0|0,1:0|0:0,0:0:0:0:
399,207,97204,1,0,0:0:0:0:
281,119,97353,5,10,0:0:0:0:
357,282,97501,1,2,0:0:0:0:
461,135,97649,1,2,0:0:0:0:
239,202,97797,22,0,P|206:170|188:133,1,79.9999975585938,0|0,1:0|0:0,0:0:0:0:
194,61,98094,1,0,0:0:0:0:
198,275,98242,6,0,P|155:264|122:242,1,76.6666681289673,8|0,0:0|0:0,0:0:0:0:
93,180,98539,1,0,0:0:0:0:
198,359,98686,22,0,P|157:370|119:367,1,73.3333355712891,0|0,1:0|0:0,0:0:0:0:
50,311,98982,1,0,0:0:0:0:
53,326,99057,1,0,0:0:0:0:
56,340,99131,6,0,L|56:388,7,41.2500003933907,2|0|0|0|0|0|0|0,0:3|0:0|0:0|0:0|0:0|0:0|0:0|0:0,0:0:0:0:
128,247,99575,6,0,B|167:250|198:275|198:275|230:247|296:242,1,165.000001573563,4|0,1:2|0:0,0:0:0:0:
295,246,99871,1,0,0:0:0:0:
204,30,100019,5,8,0:0:0:0:
201,110,100168,2,0,L|199:190,1,79.9999975585938
364,35,100464,1,0,1:0:0:0:
284,33,100613,2,0,L|204:30,1,79.9999975585938
295,246,100908,5,10,0:0:0:0:
364,35,101057,1,2,0:0:0:0:
400,176,101205,1,2,0:0:0:0:
201,110,101353,6,0,B|161:103|141:73|141:73|102:62|46:79,1,165.000001573563,0|0,1:0|0:0,0:0:0:0:
35,85,101649,1,0,0:0:0:0:
108,307,101797,5,8,0:0:0:0:
105,227,101946,2,0,L|103:147,1,79.9999975585938
331,259,102242,1,0,1:0:0:0:
251,262,102391,2,0,L|171:264,1,79.9999975585938
336,76,102686,5,10,0:0:0:0:
333,167,102834,1,2,0:0:0:0:
331,259,102982,1,2,0:0:0:0:
512,156,103131,6,0,B|460:125|399:124|399:124|420:136|433:155,1,165.000001573563,0|0,1:0|0:0,0:0:0:0:
438,170,103427,1,0,0:0:0:0:
493,31,103575,5,8,0:0:0:0:
413,34,103724,2,0,L|333:36,1,79.9999975585938
129,112,104019,1,0,1:0:0:0:
209,115,104168,2,0,L|289:117,1,79.9999975585938
56,68,104464,5,10,0:0:0:0:
59,159,104612,1,2,0:0:0:0:
61,251,104760,1,2,0:0:0:0:
313,203,104908,6,0,B|259:191|259:191|196:216|196:216|141:204,1,165.000001573563,0|0,1:0|0:0,0:0:0:0:
140,204,105204,1,0,0:0:0:0:
266,278,105353,5,8,0:0:0:0:
345,272,105502,2,0,L|424:267,1,79.9999975585938
298,360,105797,1,0,1:0:0:0:
219,354,105946,2,0,L|139:349,1,79.9999975585938
133,112,106242,5,10,0:0:0:0:
202,178,106390,1,2,0:0:0:0:
190,274,106538,1,2,0:0:0:0:
224,85,106686,6,0,B|251:60|296:58|328:80|328:80|357:64|395:70,1,165.000001573563,0|0,1:0|0:0,0:0:0:0:
395,72,106983,1,0,0:0:0:0:
383,310,107131,5,8,0:0:0:0:
377,230,107279,2,0,L|371:151,1,79.9999975585938
224,298,107575,1,0,1:0:0:0:
303,303,107723,2,0,L|382:309,1,79.9999975585938
286,109,108019,5,10,0:0:0:0:
303,303,108168,1,2,0:0:0:0:
370,150,108316,1,2,0:0:0:0:
176,230,108464,6,0,B|154:245|143:267|143:267|113:217|138:139,1,165.000001573563,0|0,1:0|0:0,0:0:0:0:
139,140,108760,1,0,0:0:0:0:
370,150,108908,5,8,0:0:0:0:
290,156,109056,2,0,L|211:162,1,79.9999975585938
358,310,109353,1,0,1:0:0:0:
364,230,109501,2,0,L|370:151,1,79.9999975585938
210,162,109797,5,10,0:0:0:0:
213,253,109945,1,2,0:0:0:0:
215,345,110093,1,2,0:0:0:0:
12,216,110242,6,0,B|69:197|131:209|131:209|108:216|88:235,1,165.000001573563,0|0,1:0|0:0,0:0:0:0:
83,244,110538,1,0,0:0:0:0:
0,106,110686,5,8,0:0:0:0:
79,99,110834,2,0,L|158:93,1,79.9999975585938
369,174,111131,1,0,1:0:0:0:
290,167,111279,2,0,L|210:161,1,79.9999975585938
450,132,111575,5,10,0:0:0:0:
447,223,111723,1,2,0:0:0:0:
445,315,111871,1,2,0:0:0:0:
193,264,112019,6,0,B|247:252|247:252|310:277|310:277|365:265,1,165.000001573563,0|0,1:0|0:0,0:0:0:0:
366,265,112315,1,0,0:0:0:0:
304,45,112464,5,8,0:0:0:0:
311,124,112612,2,0,L|316:203,1,79.9999975585938
186,343,112908,1,0,1:0:0:0:
193,264,113056,2,0,L|198:184,1,79.9999975585938
68,50,113353,5,10,0:0:0:0:
128,120,113501,1,2,0:0:0:0:
108,210,113649,1,2,0:0:0:0:
256,64,113797,5,4,1:2:0:0:
