osu file format v14

[General]
AudioFilename: audio.mp3
AudioLeadIn: 0
PreviewTime: -1
Countdown: 1
SampleSet: None
StackLeniency: 0.7
Mode: 0
LetterboxInBreaks: 0
WidescreenStoryboard: 0

[Editor]
DistanceSpacing: 0.9
BeatDivisor: 8
GridSize: 4
TimelineZoom: 1

[Metadata]
Title:Deadlocked
TitleUnicode:Deadlocked
Artist:F-777
ArtistUnicode:F-777
Creator:fsansy8776
Version:
Source:
Tags:
BeatmapID:1246074
BeatmapSetID:588603

[Difficulty]
HPDrainRate:5
CircleSize:5
OverallDifficulty:5
ApproachRate:5
SliderMultiplier:1.4
SliderTickRate:1

[Events]
//Background and Video events
//Break Periods
//Storyboard Layer 0 (Background)
//Storyboard Layer 1 (Fail)
//Storyboard Layer 2 (Pass)
//Storyboard Layer 3 (Foreground)
//Storyboard Sound Samples

[TimingPoints]
5560.71641791045,447.761194029851,4,1,0,100,1,0

[Colours]
Combo1 : 255,192,0
Combo2 : 64,0,64
Combo3 : 255,128,0
Combo4 : 128,0,128

[HitObjects]
143,105,2706,5,0,0:0:0:0:
256,208,3098,1,0,0:0:0:0:
381,133,4049,1,0,0:0:0:0:
239,203,4553,1,0,0:0:0:0:
310,271,5001,1,0,0:0:0:0:
386,160,5392,1,0,0:0:0:0:
291,132,5840,1,0,0:0:0:0:
250,202,6120,1,0,0:0:0:0:
330,282,7127,1,0,0:0:0:0:
301,180,8023,5,0,0:0:0:0:
220,191,8527,1,0,0:0:0:0:
281,285,8862,1,0,0:0:0:0:
413,253,9310,1,0,0:0:0:0:
384,169,9758,1,0,0:0:0:0:
162,201,10262,1,0,0:0:0:0:
46,112,10765,2,0,L|228:345,1,280
152,112,12445,2,0,P|242:323|424:173,1,525
297,55,14683,2,0,B|-223:232|55:307,1,507.5
256,192,17034,12,0,17258,0:0:0:0:
189,206,18098,6,0,B|222:306|221:297,3,87.5
352,308,19105,5,0,0:0:0:0:
368,152,19609,1,0,0:0:0:0:
186,162,20056,1,0,0:0:0:0:
231,312,20504,1,0,0:0:0:0:
406,283,20896,1,0,0:0:0:0:
344,117,21512,5,0,0:0:0:0:
168,75,21736,1,0,0:0:0:0:
30,193,22015,1,0,0:0:0:0:
123,287,22295,1,0,0:0:0:0:
374,172,23135,1,0,0:0:0:0:
152,87,23639,1,0,0:0:0:0:
155,230,24030,1,0,0:0:0:0:
320,257,24478,1,0,0:0:0:0:
153,125,25765,2,0,L|156:167,13,35
256,192,27501,12,0,28452,0:0:0:0:
218,151,29739,5,0,0:0:0:0:
291,251,30187,1,0,0:0:0:0:
405,157,30691,1,0,0:0:0:0:
280,83,31083,1,0,0:0:0:0:
169,184,31586,1,0,0:0:0:0:
171,169,32202,5,0,0:0:0:0:
262,127,32538,1,0,0:0:0:0:
374,203,32930,1,0,0:0:0:0:
294,277,33377,1,0,0:0:0:0:
154,226,33769,1,0,0:0:0:0:
259,127,34273,1,0,0:0:0:0:
277,129,34665,1,0,0:0:0:0:
198,262,35112,1,0,0:0:0:0:
210,113,35392,2,0,L|482:169,2,262.5
186,157,37351,2,0,B|254:269|412:178|415:156,2,262.5
137,236,39534,2,0,L|488:92,1,367.5
366,137,40877,2,0,P|276:250|271:308,2,192.5
256,192,42668,12,0,43508,0:0:0:0:
288,167,44068,5,0,0:0:0:0:
256,192,44459,12,0,45299,0:0:0:0:
234,180,45523,5,0,0:0:0:0:
203,182,46251,5,0,0:0:0:0:
325,274,46698,1,0,0:0:0:0:
426,110,47202,1,0,0:0:0:0:
239,111,47650,1,0,0:0:0:0:
256,192,47930,12,0,48209,0:0:0:0:
439,254,48881,5,0,0:0:0:0:
386,107,49105,1,0,0:0:0:0:
266,150,49329,1,0,0:0:0:0:
16,180,50224,1,0,0:0:0:0:
370,254,51120,1,0,0:0:0:0:
199,133,52015,1,0,0:0:0:0:
432,105,52967,1,0,0:0:0:0:
222,200,53023,2,0,P|272:353|453:158,1,542.5
171,110,55150,2,0,P|226:328|384:189,1,507.5
253,282,57333,2,0,L|210:143,2,140
256,192,58620,12,0,59292,0:0:0:0:
157,104,60467,5,0,0:0:0:0:
212,250,60915,1,0,0:0:0:0:
340,166,61306,1,0,0:0:0:0:
325,82,61754,1,0,0:0:0:0:
199,149,62258,1,0,0:0:0:0:
271,315,62706,1,0,0:0:0:0:
442,238,63154,1,0,0:0:0:0:
256,192,63601,12,0,63825,0:0:0:0:
256,192,64889,12,0,65336,0:0:0:0:
256,192,66232,12,0,67071,0:0:0:0:
225,179,67575,5,0,0:0:0:0:
256,192,68527,12,0,68918,0:0:0:0:
140,170,69366,5,0,0:0:0:0:
256,192,69758,12,0,70709,0:0:0:0:
146,179,70989,5,0,0:0:0:0:
168,100,71157,6,0,P|173:269|389:181,1,472.5
54,123,72892,5,0,0:0:0:0:
264,249,73788,1,0,0:0:0:0:
163,188,74236,1,0,0:0:0:0:
391,132,74851,1,0,0:0:0:0:
386,249,75131,1,0,0:0:0:0:
270,194,75579,1,0,0:0:0:0:
264,116,76027,1,0,0:0:0:0:
165,176,76474,1,0,0:0:0:0:
271,258,76866,1,0,0:0:0:0:
397,179,77314,1,0,0:0:0:0:
256,192,77426,12,0,78154,0:0:0:0:
229,171,79049,6,0,L|198:293,1,122.5
125,102,80056,5,0,0:0:0:0:
183,268,80448,1,0,0:0:0:0:
375,211,80840,1,0,0:0:0:0:
366,37,81400,1,0,0:0:0:0:
106,153,82295,1,0,0:0:0:0:
164,264,82687,1,0,0:0:0:0:
326,193,83135,1,0,0:0:0:0:
271,153,84030,5,0,0:0:0:0:
191,183,84870,1,0,0:0:0:0:
316,285,85877,1,0,0:0:0:0:
371,143,86213,1,0,0:0:0:0:
292,79,86661,1,0,0:0:0:0:
201,84,87109,2,0,P|193:239|481:169,1,560
146,99,88900,2,0,P|106:247|447:232,1,647.5
270,133,91530,1,0,0:0:0:0:
190,225,91978,1,0,0:0:0:0:
309,259,92426,1,0,0:0:0:0:
401,144,93321,1,0,0:0:0:0:
208,126,94273,1,0,0:0:0:0:
257,243,95168,1,0,0:0:0:0:
134,229,95616,1,0,0:0:0:0:
399,185,96064,1,0,0:0:0:0:
342,103,96904,1,0,0:0:0:0:
263,134,97799,1,0,0:0:0:0:
261,272,98695,1,0,0:0:0:0:
151,213,99086,1,0,0:0:0:0:
256,192,99534,12,0,101325,0:0:0:0:
