osu file format v14

[General]
AudioFilename: audio.mp3
AudioLeadIn: 0
PreviewTime: -1
Countdown: 1
SampleSet: Soft
StackLeniency: 0.7
Mode: 3
LetterboxInBreaks: 0
SpecialStyle: 0
WidescreenStoryboard: 0

[Editor]
DistanceSpacing: 0.9
BeatDivisor: 3
GridSize: 32
TimelineZoom: 1

[Metadata]
Title:Deadlocked
TitleUnicode:Deadlocked
Artist:F-777
ArtistUnicode:F-777
Creator:ExoticSTz
Version:Hard
Source:
Tags:
BeatmapID:1745986
BeatmapSetID:833533

[Difficulty]
HPDrainRate:7
CircleSize:4
OverallDifficulty:5
ApproachRate:5
SliderMultiplier:1.4
SliderTickRate:1

[Events]
//Background and Video events
//Break Periods
//Storyboard Layer 0 (Background)
//Storyboard Layer 1 (Fail)
//Storyboard Layer 2 (Pass)
//Storyboard Layer 3 (Foreground)
//Storyboard Sound Samples

[TimingPoints]
0,444.444444444444,4,2,0,100,1,0
0,444.444444444444,4,2,0,100,1,0
0.250875802813596,444.444444444444,4,2,0,100,1,0

[HitObjects]
64,192,0,128,0,1333:0:0:0:0:
320,192,0,128,0,444:0:0:0:0:
320,192,592,1,0,0:0:0:0:
320,192,740,1,0,0:0:0:0:
320,192,889,1,0,0:0:0:0:
320,192,1037,1,0,0:0:0:0:
320,192,1185,1,0,0:0:0:0:
192,192,1333,1,0,0:0:0:0:
320,192,1481,1,0,0:0:0:0:
448,192,1629,1,0,0:0:0:0:
192,192,1778,128,0,3111:0:0:0:0:
448,192,1778,1,0,0:0:0:0:
448,192,1926,1,0,0:0:0:0:
448,192,2074,1,0,0:0:0:0:
448,192,2222,1,0,0:0:0:0:
448,192,2370,1,0,0:0:0:0:
448,192,2518,1,0,0:0:0:0:
448,192,2666,128,0,3111:0:0:0:0:
64,192,3111,1,0,0:0:0:0:
192,192,3259,1,0,0:0:0:0:
448,192,3407,1,0,0:0:0:0:
64,192,3555,128,0,4889:0:0:0:0:
192,192,3555,1,0,0:0:0:0:
192,192,3703,1,0,0:0:0:0:
192,192,3852,1,0,0:0:0:0:
320,192,4000,1,0,0:0:0:0:
320,192,4148,1,0,0:0:0:0:
320,192,4296,1,0,0:0:0:0:
448,192,4444,1,0,0:0:0:0:
448,192,4592,1,0,0:0:0:0:
448,192,4740,1,0,0:0:0:0:
192,192,5037,1,0,0:0:0:0:
320,192,5185,1,0,0:0:0:0:
448,192,5333,1,0,0:0:0:0:
320,192,5481,1,0,0:0:0:0:
192,192,5629,1,0,0:0:0:0:
64,192,5778,1,0,0:0:0:0:
192,192,5926,1,0,0:0:0:0:
320,192,6074,1,0,0:0:0:0:
448,192,6222,1,0,0:0:0:0:
320,192,6370,1,0,0:0:0:0:
192,192,6518,1,0,0:0:0:0:
64,192,6666,1,0,0:0:0:0:
192,192,6815,1,0,0:0:0:0:
320,192,6963,1,0,0:0:0:0:
64,192,7111,128,0,7555:0:0:0:0:
448,192,7111,128,0,8444:0:0:0:0:
192,192,7555,1,0,0:0:0:0:
192,192,7703,1,0,0:0:0:0:
192,192,7852,1,0,0:0:0:0:
320,192,8000,1,0,0:0:0:0:
320,192,8148,1,0,0:0:0:0:
320,192,8296,1,0,0:0:0:0:
64,192,8444,1,0,0:0:0:0:
192,192,8592,1,0,0:0:0:0:
320,192,8740,1,0,0:0:0:0:
192,192,8889,128,0,9778:0:0:0:0:
448,192,8889,1,0,0:0:0:0:
448,192,9037,1,0,0:0:0:0:
448,192,9185,1,0,0:0:0:0:
64,192,9333,1,0,0:0:0:0:
64,192,9481,1,0,0:0:0:0:
64,192,9629,1,0,0:0:0:0:
320,192,9778,128,0,10222:0:0:0:0:
64,192,10222,1,0,0:0:0:0:
192,192,10370,1,0,0:0:0:0:
320,192,10518,1,0,0:0:0:0:
448,192,10666,1,0,0:0:0:0:
320,192,10666,1,0,0:0:0:0:
320,192,10815,1,0,0:0:0:0:
448,192,10815,1,0,0:0:0:0:
320,192,10963,1,0,0:0:0:0:
448,192,10963,1,0,0:0:0:0:
320,192,11111,1,0,0:0:0:0:
192,192,11111,1,0,0:0:0:0:
192,192,11259,1,0,0:0:0:0:
320,192,11259,1,0,0:0:0:0:
320,192,11407,1,0,0:0:0:0:
192,192,11407,1,0,0:0:0:0:
192,192,11555,1,0,0:0:0:0:
64,192,11555,1,0,0:0:0:0:
64,192,11703,1,0,0:0:0:0:
192,192,11703,1,0,0:0:0:0:
192,192,11852,1,0,0:0:0:0:
64,192,11852,1,0,0:0:0:0:
320,192,12000,1,0,0:0:0:0:
192,192,12148,1,0,0:0:0:0:
320,192,12296,1,0,0:0:0:0:
448,192,12444,1,0,0:0:0:0:
320,192,12592,1,0,0:0:0:0:
192,192,12740,1,0,0:0:0:0:
448,192,12889,1,0,0:0:0:0:
320,192,13037,1,0,0:0:0:0:
192,192,13185,1,0,0:0:0:0:
448,192,13333,1,0,0:0:0:0:
320,192,13481,1,0,0:0:0:0:
192,192,13629,1,0,0:0:0:0:
64,192,13778,1,0,0:0:0:0:
192,192,13926,1,0,0:0:0:0:
320,192,14074,1,0,0:0:0:0:
448,192,14222,128,0,16000:0:0:0:0:
64,192,14222,1,0,0:0:0:0:
64,192,14370,1,0,0:0:0:0:
64,192,14518,1,0,0:0:0:0:
192,192,14666,1,0,0:0:0:0:
192,192,14815,1,0,0:0:0:0:
192,192,14963,1,0,0:0:0:0:
320,192,15111,1,0,0:0:0:0:
320,192,15259,1,0,0:0:0:0:
320,192,15407,1,0,0:0:0:0:
192,192,15555,128,0,16000:0:0:0:0:
64,192,16000,128,0,17778:0:0:0:0:
320,192,16000,1,0,0:0:0:0:
320,192,16148,1,0,0:0:0:0:
320,192,16296,1,0,0:0:0:0:
192,192,16444,1,0,0:0:0:0:
192,192,16592,1,0,0:0:0:0:
192,192,16740,1,0,0:0:0:0:
320,192,16889,128,0,17185:0:0:0:0:
448,192,17333,1,0,0:0:0:0:
320,192,17481,1,0,0:0:0:0:
192,192,17629,1,0,0:0:0:0:
320,192,17778,1,0,0:0:0:0:
192,192,17926,1,0,0:0:0:0:
320,192,18074,1,0,0:0:0:0:
448,192,18222,1,0,0:0:0:0:
320,192,18370,1,0,0:0:0:0:
192,192,18518,1,0,0:0:0:0:
320,192,18666,1,0,0:0:0:0:
192,192,18815,1,0,0:0:0:0:
64,192,18963,1,0,0:0:0:0:
320,192,19111,1,0,0:0:0:0:
448,192,19259,1,0,0:0:0:0:
320,192,19407,1,0,0:0:0:0:
192,192,19555,1,0,0:0:0:0:
320,192,19703,1,0,0:0:0:0:
448,192,19852,1,0,0:0:0:0:
320,192,20000,1,0,0:0:0:0:
64,192,20000,1,0,0:0:0:0:
192,192,20148,1,0,0:0:0:0:
64,192,20296,1,0,0:0:0:0:
192,192,20444,1,0,0:0:0:0:
448,192,20444,1,0,0:0:0:0:
320,192,20592,1,0,0:0:0:0:
448,192,20740,1,0,0:0:0:0:
320,192,20889,1,0,0:0:0:0:
64,192,20889,1,0,0:0:0:0:
192,192,21037,1,0,0:0:0:0:
320,192,21185,1,0,0:0:0:0:
64,192,21333,128,0,22222:0:0:0:0:
448,192,21333,1,0,0:0:0:0:
320,192,21481,1,0,0:0:0:0:
192,192,21629,1,0,0:0:0:0:
448,192,21778,1,0,0:0:0:0:
320,192,21926,1,0,0:0:0:0:
192,192,22074,1,0,0:0:0:0:
448,192,22222,128,0,23111:0:0:0:0:
192,192,22370,1,0,0:0:0:0:
320,192,22518,1,0,0:0:0:0:
64,192,22666,1,0,0:0:0:0:
192,192,22815,1,0,0:0:0:0:
320,192,22963,1,0,0:0:0:0:
192,192,23111,1,0,0:0:0:0:
192,192,23259,1,0,0:0:0:0:
192,192,23407,1,0,0:0:0:0:
448,192,23555,1,0,0:0:0:0:
448,192,23703,1,0,0:0:0:0:
448,192,23852,1,0,0:0:0:0:
64,192,24000,128,0,24444:0:0:0:0:
192,192,24444,1,0,0:0:0:0:
448,192,24592,1,0,0:0:0:0:
320,192,24740,1,0,0:0:0:0:
192,192,24889,1,0,0:0:0:0:
64,192,24889,128,0,25778:0:0:0:0:
448,192,25037,1,0,0:0:0:0:
320,192,25185,1,0,0:0:0:0:
192,192,25333,1,0,0:0:0:0:
448,192,25481,1,0,0:0:0:0:
320,192,25629,1,0,0:0:0:0:
448,192,25778,1,0,0:0:0:0:
448,192,25926,1,0,0:0:0:0:
448,192,26074,1,0,0:0:0:0:
64,192,26222,128,0,26666:0:0:0:0:
320,192,26518,1,0,0:0:0:0:
448,192,26666,1,0,0:0:0:0:
320,192,26815,1,0,0:0:0:0:
64,192,26963,1,0,0:0:0:0:
192,192,27111,1,0,0:0:0:0:
64,192,27259,1,0,0:0:0:0:
448,192,27407,1,0,0:0:0:0:
192,192,27555,1,0,0:0:0:0:
320,192,27703,1,0,0:0:0:0:
448,192,27703,128,0,28444:0:0:0:0:
192,192,27852,1,0,0:0:0:0:
64,192,28000,1,0,0:0:0:0:
192,192,28074,1,0,0:0:0:0:
320,192,28148,1,0,0:0:0:0:
192,192,28296,1,0,0:0:0:0:
64,192,28444,1,0,0:0:0:0:
192,192,28444,128,0,30222:0:0:0:0:
320,192,28444,128,0,30222:0:0:0:0:
448,192,28740,1,0,0:0:0:0:
64,192,28889,1,0,0:0:0:0:
448,192,29037,1,0,0:0:0:0:
64,192,29333,1,0,0:0:0:0:
448,192,29629,1,0,0:0:0:0:
64,192,29778,1,0,0:0:0:0:
448,192,29926,1,0,0:0:0:0:
64,192,30074,1,0,0:0:0:0:
64,192,30222,128,0,32000:0:0:0:0:
448,192,30222,128,0,32000:0:0:0:0:
192,192,30518,1,0,0:0:0:0:
320,192,30666,1,0,0:0:0:0:
192,192,30815,1,0,0:0:0:0:
320,192,31111,1,0,0:0:0:0:
192,192,31259,1,0,0:0:0:0:
320,192,31555,1,0,0:0:0:0:
192,192,31703,1,0,0:0:0:0:
320,192,31852,1,0,0:0:0:0:
192,192,32000,1,0,0:0:0:0:
448,192,32296,1,0,0:0:0:0:
320,192,32444,1,0,0:0:0:0:
192,192,32592,1,0,0:0:0:0:
448,192,32889,1,0,0:0:0:0:
320,192,32963,1,0,0:0:0:0:
192,192,33037,1,0,0:0:0:0:
64,192,33111,1,0,0:0:0:0:
320,192,33185,1,0,0:0:0:0:
448,192,33333,1,0,0:0:0:0:
192,192,33481,1,0,0:0:0:0:
320,192,33629,1,0,0:0:0:0:
64,192,33778,128,0,34222:0:0:0:0:
448,192,34074,1,0,0:0:0:0:
192,192,34222,128,0,34666:0:0:0:0:
320,192,34222,1,0,0:0:0:0:
64,192,34518,1,0,0:0:0:0:
320,192,34666,128,0,35111:0:0:0:0:
448,192,34666,1,0,0:0:0:0:
192,192,34815,1,0,0:0:0:0:
448,192,35111,128,0,35555:0:0:0:0:
64,192,35111,1,0,0:0:0:0:
192,192,35259,1,0,0:0:0:0:
320,192,35407,1,0,0:0:0:0:
64,192,35555,128,0,36000:0:0:0:0:
320,192,35852,1,0,0:0:0:0:
320,192,36000,1,0,0:0:0:0:
192,192,36148,1,0,0:0:0:0:
64,192,36444,128,0,36889:0:0:0:0:
448,192,36444,1,0,0:0:0:0:
320,192,36889,1,0,0:0:0:0:
448,192,37037,128,0,37333:0:0:0:0:
320,192,37185,1,0,0:0:0:0:
192,192,37333,1,0,0:0:0:0:
64,192,37333,128,0,38222:0:0:0:0:
448,192,37629,1,0,0:0:0:0:
320,192,37778,1,0,0:0:0:0:
192,192,37926,1,0,0:0:0:0:
320,192,38074,1,0,0:0:0:0:
448,192,38222,128,0,39111:0:0:0:0:
64,192,38518,1,0,0:0:0:0:
192,192,38666,1,0,0:0:0:0:
320,192,38815,1,0,0:0:0:0:
192,192,38963,1,0,0:0:0:0:
64,192,39111,1,0,0:0:0:0:
448,192,39407,1,0,0:0:0:0:
320,192,39555,1,0,0:0:0:0:
192,192,39703,1,0,0:0:0:0:
64,192,39852,1,0,0:0:0:0:
192,192,40000,1,0,0:0:0:0:
448,192,40148,1,0,0:0:0:0:
320,192,40296,1,0,0:0:0:0:
192,192,40444,1,0,0:0:0:0:
64,192,40740,1,0,0:0:0:0:
448,192,40889,1,0,0:0:0:0:
64,192,40889,128,0,41333:0:0:0:0:
448,192,41185,1,0,0:0:0:0:
320,192,41259,1,0,0:0:0:0:
192,192,41333,128,0,41778:0:0:0:0:
320,192,41481,1,0,0:0:0:0:
64,192,41629,1,0,0:0:0:0:
320,192,41778,128,0,42222:0:0:0:0:
448,192,41926,1,0,0:0:0:0:
192,192,42074,1,0,0:0:0:0:
448,192,42222,128,0,42666:0:0:0:0:
64,192,42370,1,0,0:0:0:0:
192,192,42518,1,0,0:0:0:0:
320,192,42666,1,0,0:0:0:0:
320,192,42815,1,0,0:0:0:0:
320,192,42963,1,0,0:0:0:0:
320,192,43111,1,0,0:0:0:0:
320,192,43259,1,0,0:0:0:0:
448,192,43407,1,0,0:0:0:0:
192,192,43407,1,0,0:0:0:0:
64,192,43555,1,0,0:0:0:0:
320,192,43555,1,0,0:0:0:0:
192,192,43703,1,0,0:0:0:0:
448,192,43703,1,0,0:0:0:0:
64,192,43852,1,0,0:0:0:0:
192,192,44000,1,0,0:0:0:0:
64,192,44148,1,0,0:0:0:0:
64,192,44296,1,0,0:0:0:0:
64,192,44444,1,0,0:0:0:0:
64,192,44592,1,0,0:0:0:0:
64,192,44740,1,0,0:0:0:0:
64,192,44889,1,0,0:0:0:0:
448,192,45037,1,0,0:0:0:0:
192,192,45037,1,0,0:0:0:0:
64,192,45185,1,0,0:0:0:0:
192,192,45333,1,0,0:0:0:0:
448,192,45333,1,0,0:0:0:0:
320,192,45481,1,0,0:0:0:0:
192,192,45629,1,0,0:0:0:0:
64,192,45778,1,0,0:0:0:0:
192,192,45926,1,0,0:0:0:0:
320,192,46074,1,0,0:0:0:0:
64,192,46222,128,0,48000:0:0:0:0:
448,192,46222,1,0,0:0:0:0:
448,192,46370,1,0,0:0:0:0:
448,192,46518,1,0,0:0:0:0:
448,192,46666,1,0,0:0:0:0:
448,192,46815,1,0,0:0:0:0:
192,192,46963,1,0,0:0:0:0:
320,192,46963,1,0,0:0:0:0:
448,192,47111,1,0,0:0:0:0:
320,192,47259,1,0,0:0:0:0:
192,192,47407,1,0,0:0:0:0:
320,192,47555,1,0,0:0:0:0:
448,192,47703,1,0,0:0:0:0:
320,192,47852,1,0,0:0:0:0:
192,192,48000,1,0,0:0:0:0:
448,192,48000,128,0,49778:0:0:0:0:
192,192,48148,1,0,0:0:0:0:
192,192,48296,1,0,0:0:0:0:
192,192,48444,1,0,0:0:0:0:
320,192,48592,1,0,0:0:0:0:
64,192,48592,1,0,0:0:0:0:
192,192,48740,1,0,0:0:0:0:
64,192,48889,1,0,0:0:0:0:
192,192,49037,1,0,0:0:0:0:
320,192,49185,1,0,0:0:0:0:
192,192,49333,1,0,0:0:0:0:
64,192,49481,1,0,0:0:0:0:
192,192,49629,1,0,0:0:0:0:
64,192,49778,1,0,0:0:0:0:
320,192,49926,1,0,0:0:0:0:
192,192,50074,1,0,0:0:0:0:
64,192,50222,1,0,0:0:0:0:
448,192,50222,1,0,0:0:0:0:
320,192,50370,1,0,0:0:0:0:
192,192,50518,1,0,0:0:0:0:
64,192,50666,1,0,0:0:0:0:
448,192,50666,1,0,0:0:0:0:
320,192,50815,1,0,0:0:0:0:
192,192,50963,1,0,0:0:0:0:
64,192,51111,1,0,0:0:0:0:
448,192,51111,1,0,0:0:0:0:
192,192,51259,1,0,0:0:0:0:
320,192,51407,1,0,0:0:0:0:
64,192,51555,1,0,0:0:0:0:
192,192,51555,1,0,0:0:0:0:
320,192,51555,1,0,0:0:0:0:
448,192,51555,1,0,0:0:0:0:
64,192,51703,1,0,0:0:0:0:
448,192,51852,1,0,0:0:0:0:
192,192,52000,1,0,0:0:0:0:
320,192,52000,1,0,0:0:0:0:
64,192,52148,1,0,0:0:0:0:
448,192,52296,1,0,0:0:0:0:
192,192,52444,1,0,0:0:0:0:
320,192,52444,1,0,0:0:0:0:
64,192,52592,1,0,0:0:0:0:
448,192,52740,1,0,0:0:0:0:
192,192,52889,1,0,0:0:0:0:
320,192,52889,1,0,0:0:0:0:
448,192,53037,1,0,0:0:0:0:
64,192,53185,1,0,0:0:0:0:
64,192,53333,1,0,0:0:0:0:
192,192,53333,1,0,0:0:0:0:
320,192,53333,1,0,0:0:0:0:
448,192,53333,1,0,0:0:0:0:
448,192,53481,1,0,0:0:0:0:
320,192,53629,1,0,0:0:0:0:
64,192,53778,1,0,0:0:0:0:
192,192,53778,1,0,0:0:0:0:
448,192,53926,1,0,0:0:0:0:
320,192,54074,1,0,0:0:0:0:
64,192,54222,1,0,0:0:0:0:
192,192,54222,1,0,0:0:0:0:
448,192,54370,1,0,0:0:0:0:
320,192,54518,1,0,0:0:0:0:
64,192,54666,1,0,0:0:0:0:
192,192,54666,1,0,0:0:0:0:
320,192,54815,1,0,0:0:0:0:
448,192,54963,1,0,0:0:0:0:
64,192,55111,1,0,0:0:0:0:
192,192,55111,1,0,0:0:0:0:
320,192,55111,1,0,0:0:0:0:
448,192,55111,1,0,0:0:0:0:
64,192,55259,1,0,0:0:0:0:
192,192,55407,1,0,0:0:0:0:
320,192,55555,1,0,0:0:0:0:
448,192,55555,1,0,0:0:0:0:
64,192,55703,1,0,0:0:0:0:
192,192,55852,1,0,0:0:0:0:
320,192,56000,1,0,0:0:0:0:
448,192,56000,1,0,0:0:0:0:
64,192,56148,1,0,0:0:0:0:
192,192,56296,1,0,0:0:0:0:
320,192,56444,1,0,0:0:0:0:
448,192,56444,1,0,0:0:0:0:
192,192,56592,1,0,0:0:0:0:
64,192,56740,1,0,0:0:0:0:
320,192,56889,1,0,0:0:0:0:
192,192,56889,1,0,0:0:0:0:
64,192,56889,1,0,0:0:0:0:
448,192,56889,1,0,0:0:0:0:
64,192,57037,1,0,0:0:0:0:
64,192,57185,1,0,0:0:0:0:
320,192,57333,1,0,0:0:0:0:
64,192,57333,1,0,0:0:0:0:
64,192,57629,1,0,0:0:0:0:
320,192,57778,1,0,0:0:0:0:
64,192,57778,1,0,0:0:0:0:
192,192,58074,1,0,0:0:0:0:
320,192,58222,1,0,0:0:0:0:
64,192,58370,1,0,0:0:0:0:
192,192,58518,1,0,0:0:0:0:
448,192,58666,1,0,0:0:0:0:
320,192,58666,1,0,0:0:0:0:
320,192,58815,1,0,0:0:0:0:
320,192,58963,1,0,0:0:0:0:
448,192,59111,1,0,0:0:0:0:
320,192,59111,1,0,0:0:0:0:
320,192,59407,1,0,0:0:0:0:
448,192,59555,1,0,0:0:0:0:
320,192,59555,1,0,0:0:0:0:
320,192,59852,1,0,0:0:0:0:
448,192,60000,1,0,0:0:0:0:
320,192,60148,1,0,0:0:0:0:
192,192,60296,1,0,0:0:0:0:
64,192,60444,1,0,0:0:0:0:
192,192,60444,1,0,0:0:0:0:
192,192,60592,1,0,0:0:0:0:
192,192,60740,1,0,0:0:0:0:
64,192,60889,1,0,0:0:0:0:
192,192,60889,1,0,0:0:0:0:
192,192,61185,1,0,0:0:0:0:
64,192,61333,1,0,0:0:0:0:
192,192,61333,1,0,0:0:0:0:
320,192,61629,1,0,0:0:0:0:
64,192,61778,1,0,0:0:0:0:
192,192,61926,1,0,0:0:0:0:
320,192,62074,1,0,0:0:0:0:
192,192,62222,1,0,0:0:0:0:
448,192,62222,1,0,0:0:0:0:
448,192,62370,1,0,0:0:0:0:
448,192,62518,1,0,0:0:0:0:
192,192,62666,1,0,0:0:0:0:
448,192,62666,1,0,0:0:0:0:
448,192,62963,1,0,0:0:0:0:
192,192,63111,1,0,0:0:0:0:
448,192,63111,1,0,0:0:0:0:
320,192,63407,1,0,0:0:0:0:
192,192,63555,1,0,0:0:0:0:
320,192,63703,1,0,0:0:0:0:
448,192,63852,1,0,0:0:0:0:
64,192,64000,1,0,0:0:0:0:
448,192,64000,1,0,0:0:0:0:
192,192,64000,128,0,65778:0:0:0:0:
320,192,64148,1,0,0:0:0:0:
64,192,64296,1,0,0:0:0:0:
448,192,64444,1,0,0:0:0:0:
320,192,64740,1,0,0:0:0:0:
64,192,64889,1,0,0:0:0:0:
320,192,65185,1,0,0:0:0:0:
448,192,65333,1,0,0:0:0:0:
320,192,65481,1,0,0:0:0:0:
64,192,65629,1,0,0:0:0:0:
64,192,65778,1,0,0:0:0:0:
320,192,65778,128,0,67555:0:0:0:0:
448,192,65926,1,0,0:0:0:0:
192,192,66074,1,0,0:0:0:0:
64,192,66222,1,0,0:0:0:0:
448,192,66518,1,0,0:0:0:0:
192,192,66666,1,0,0:0:0:0:
64,192,66963,1,0,0:0:0:0:
448,192,67111,1,0,0:0:0:0:
448,192,67259,1,0,0:0:0:0:
192,192,67407,1,0,0:0:0:0:
64,192,67555,1,0,0:0:0:0:
192,192,67555,128,0,69333:0:0:0:0:
448,192,67703,1,0,0:0:0:0:
320,192,67852,1,0,0:0:0:0:
448,192,68000,1,0,0:0:0:0:
320,192,68296,1,0,0:0:0:0:
64,192,68444,1,0,0:0:0:0:
320,192,68740,1,0,0:0:0:0:
448,192,68889,1,0,0:0:0:0:
320,192,69037,1,0,0:0:0:0:
448,192,69185,1,0,0:0:0:0:
64,192,69333,1,0,0:0:0:0:
320,192,69333,128,0,71111:0:0:0:0:
448,192,69481,1,0,0:0:0:0:
192,192,69629,1,0,0:0:0:0:
448,192,69778,1,0,0:0:0:0:
192,192,70074,1,0,0:0:0:0:
64,192,70222,1,0,0:0:0:0:
192,192,70518,1,0,0:0:0:0:
448,192,70666,1,0,0:0:0:0:
192,192,70815,1,0,0:0:0:0:
448,192,70963,1,0,0:0:0:0:
64,192,71111,1,0,0:0:0:0:
192,192,71111,1,0,0:0:0:0:
448,192,71111,1,0,0:0:0:0:
64,192,71259,1,0,0:0:0:0:
192,192,71259,1,0,0:0:0:0:
64,192,71407,1,0,0:0:0:0:
192,192,71407,1,0,0:0:0:0:
64,192,71555,1,0,0:0:0:0:
192,192,71555,1,0,0:0:0:0:
64,192,71703,1,0,0:0:0:0:
192,192,71703,1,0,0:0:0:0:
64,192,71852,1,0,0:0:0:0:
192,192,71852,1,0,0:0:0:0:
64,192,72000,1,0,0:0:0:0:
192,192,72000,1,0,0:0:0:0:
64,192,72148,1,0,0:0:0:0:
192,192,72148,1,0,0:0:0:0:
64,192,72296,1,0,0:0:0:0:
192,192,72296,1,0,0:0:0:0:
448,192,72444,1,0,0:0:0:0:
320,192,72592,1,0,0:0:0:0:
192,192,72740,1,0,0:0:0:0:
64,192,72889,1,0,0:0:0:0:
320,192,72889,1,0,0:0:0:0:
448,192,72889,1,0,0:0:0:0:
320,192,73037,1,0,0:0:0:0:
448,192,73037,1,0,0:0:0:0:
320,192,73185,1,0,0:0:0:0:
448,192,73185,1,0,0:0:0:0:
448,192,73333,1,0,0:0:0:0:
320,192,73333,1,0,0:0:0:0:
320,192,73481,1,0,0:0:0:0:
448,192,73481,1,0,0:0:0:0:
320,192,73629,1,0,0:0:0:0:
448,192,73629,1,0,0:0:0:0:
320,192,73778,128,0,74074:0:0:0:0:
448,192,73778,128,0,74074:0:0:0:0:
192,192,74074,128,0,74666:0:0:0:0:
320,192,74222,1,0,0:0:0:0:
448,192,74370,1,0,0:0:0:0:
320,192,74518,1,0,0:0:0:0:
448,192,74666,1,0,0:0:0:0:
64,192,74666,1,0,0:0:0:0:
320,192,74666,1,0,0:0:0:0:
64,192,74815,1,0,0:0:0:0:
320,192,74815,1,0,0:0:0:0:
64,192,74963,1,0,0:0:0:0:
320,192,74963,1,0,0:0:0:0:
64,192,75111,1,0,0:0:0:0:
320,192,75111,1,0,0:0:0:0:
64,192,75259,1,0,0:0:0:0:
320,192,75259,1,0,0:0:0:0:
64,192,75407,1,0,0:0:0:0:
320,192,75407,1,0,0:0:0:0:
64,192,75555,1,0,0:0:0:0:
320,192,75555,1,0,0:0:0:0:
64,192,75703,1,0,0:0:0:0:
320,192,75703,1,0,0:0:0:0:
64,192,75852,1,0,0:0:0:0:
320,192,75852,1,0,0:0:0:0:
64,192,76000,1,0,0:0:0:0:
320,192,76000,1,0,0:0:0:0:
192,192,76148,1,0,0:0:0:0:
320,192,76296,1,0,0:0:0:0:
448,192,76444,1,0,0:0:0:0:
192,192,76444,1,0,0:0:0:0:
192,192,76592,1,0,0:0:0:0:
448,192,76592,1,0,0:0:0:0:
448,192,76740,1,0,0:0:0:0:
192,192,76740,1,0,0:0:0:0:
192,192,76889,1,0,0:0:0:0:
448,192,76889,1,0,0:0:0:0:
448,192,77037,1,0,0:0:0:0:
192,192,77037,1,0,0:0:0:0:
192,192,77185,1,0,0:0:0:0:
448,192,77185,1,0,0:0:0:0:
192,192,77333,128,0,77629:0:0:0:0:
448,192,77333,128,0,77629:0:0:0:0:
320,192,77629,128,0,78222:0:0:0:0:
192,192,77778,1,0,0:0:0:0:
64,192,77926,1,0,0:0:0:0:
192,192,78074,1,0,0:0:0:0:
64,192,78222,128,0,80000:0:0:0:0:
448,192,78222,128,0,78518:0:0:0:0:
192,192,78518,1,0,0:0:0:0:
320,192,78666,1,0,0:0:0:0:
448,192,78815,1,0,0:0:0:0:
192,192,78963,1,0,0:0:0:0:
320,192,79111,1,0,0:0:0:0:
448,192,79259,1,0,0:0:0:0:
192,192,79407,1,0,0:0:0:0:
320,192,79555,1,0,0:0:0:0:
448,192,79703,1,0,0:0:0:0:
320,192,79852,1,0,0:0:0:0:
192,192,80000,1,0,0:0:0:0:
448,192,80000,128,0,81778:0:0:0:0:
320,192,80296,1,0,0:0:0:0:
192,192,80444,1,0,0:0:0:0:
64,192,80592,1,0,0:0:0:0:
320,192,80740,1,0,0:0:0:0:
192,192,80889,1,0,0:0:0:0:
64,192,81037,1,0,0:0:0:0:
320,192,81185,1,0,0:0:0:0:
192,192,81333,1,0,0:0:0:0:
64,192,81481,1,0,0:0:0:0:
192,192,81629,1,0,0:0:0:0:
320,192,81778,1,0,0:0:0:0:
64,192,81778,128,0,83555:0:0:0:0:
192,192,82074,1,0,0:0:0:0:
448,192,82222,1,0,0:0:0:0:
192,192,82370,1,0,0:0:0:0:
448,192,82518,1,0,0:0:0:0:
192,192,82666,1,0,0:0:0:0:
448,192,82815,1,0,0:0:0:0:
192,192,82963,1,0,0:0:0:0:
448,192,83111,1,0,0:0:0:0:
192,192,83259,1,0,0:0:0:0:
448,192,83407,1,0,0:0:0:0:
320,192,83555,1,0,0:0:0:0:
448,192,83555,128,0,85333:0:0:0:0:
320,192,83852,1,0,0:0:0:0:
64,192,84000,1,0,0:0:0:0:
320,192,84148,1,0,0:0:0:0:
64,192,84296,1,0,0:0:0:0:
320,192,84444,1,0,0:0:0:0:
64,192,84592,1,0,0:0:0:0:
320,192,84740,1,0,0:0:0:0:
64,192,84889,1,0,0:0:0:0:
320,192,85037,1,0,0:0:0:0:
64,192,85185,1,0,0:0:0:0:
192,192,85333,128,0,85778:0:0:0:0:
320,192,85629,1,0,0:0:0:0:
64,192,85778,128,0,86222:0:0:0:0:
448,192,85778,1,0,0:0:0:0:
320,192,85926,1,0,0:0:0:0:
192,192,86222,128,0,86666:0:0:0:0:
448,192,86222,1,0,0:0:0:0:
320,192,86666,128,0,87111:0:0:0:0:
64,192,86666,1,0,0:0:0:0:
448,192,86815,1,0,0:0:0:0:
192,192,86963,1,0,0:0:0:0:
64,192,87111,1,0,0:0:0:0:
448,192,87111,128,0,88889:0:0:0:0:
320,192,87407,1,0,0:0:0:0:
192,192,87555,1,0,0:0:0:0:
64,192,87703,1,0,0:0:0:0:
192,192,87852,1,0,0:0:0:0:
320,192,88000,1,0,0:0:0:0:
192,192,88148,1,0,0:0:0:0:
64,192,88296,1,0,0:0:0:0:
192,192,88444,1,0,0:0:0:0:
320,192,88592,1,0,0:0:0:0:
192,192,88740,1,0,0:0:0:0:
64,192,88889,128,0,89333:0:0:0:0:
448,192,89185,1,0,0:0:0:0:
320,192,89333,1,0,0:0:0:0:
192,192,89481,1,0,0:0:0:0:
64,192,89778,128,0,90222:0:0:0:0:
448,192,89778,1,0,0:0:0:0:
192,192,90222,1,0,0:0:0:0:
320,192,90370,1,0,0:0:0:0:
448,192,90518,1,0,0:0:0:0:
320,192,90666,1,0,0:0:0:0:
64,192,90666,128,0,92444:0:0:0:0:
192,192,90963,1,0,0:0:0:0:
320,192,91111,1,0,0:0:0:0:
448,192,91259,1,0,0:0:0:0:
320,192,91407,1,0,0:0:0:0:
192,192,91555,1,0,0:0:0:0:
320,192,91703,1,0,0:0:0:0:
448,192,91852,1,0,0:0:0:0:
320,192,92000,1,0,0:0:0:0:
192,192,92148,1,0,0:0:0:0:
320,192,92296,1,0,0:0:0:0:
448,192,92444,1,0,0:0:0:0:
320,192,92889,1,0,0:0:0:0:
192,192,93037,1,0,0:0:0:0:
64,192,93185,1,0,0:0:0:0:
448,192,93333,1,0,0:0:0:0:
320,192,93481,1,0,0:0:0:0:
192,192,93629,1,0,0:0:0:0:
320,192,93778,1,0,0:0:0:0:
192,192,93926,1,0,0:0:0:0:
64,192,94074,1,0,0:0:0:0:
192,192,94222,1,0,0:0:0:0:
320,192,94370,1,0,0:0:0:0:
192,192,94518,1,0,0:0:0:0:
448,192,94666,1,0,0:0:0:0:
320,192,94815,1,0,0:0:0:0:
192,192,94963,1,0,0:0:0:0:
64,192,95111,1,0,0:0:0:0:
192,192,95259,1,0,0:0:0:0:
320,192,95407,1,0,0:0:0:0:
192,192,95555,1,0,0:0:0:0:
448,192,95703,1,0,0:0:0:0:
320,192,95852,1,0,0:0:0:0:
192,192,96000,1,0,0:0:0:0:
64,192,96148,1,0,0:0:0:0:
192,192,96296,1,0,0:0:0:0:
64,192,96444,1,0,0:0:0:0:
192,192,96592,1,0,0:0:0:0:
320,192,96740,1,0,0:0:0:0:
448,192,96889,1,0,0:0:0:0:
320,192,97037,1,0,0:0:0:0:
192,192,97185,1,0,0:0:0:0:
64,192,97333,1,0,0:0:0:0:
192,192,97481,1,0,0:0:0:0:
320,192,97629,1,0,0:0:0:0:
448,192,97778,1,0,0:0:0:0:
320,192,97926,1,0,0:0:0:0:
192,192,98074,1,0,0:0:0:0:
448,192,98222,1,0,0:0:0:0:
320,192,98370,1,0,0:0:0:0:
192,192,98518,1,0,0:0:0:0:
448,192,98666,1,0,0:0:0:0:
320,192,98815,1,0,0:0:0:0:
64,192,98963,1,0,0:0:0:0:
320,192,99111,1,0,0:0:0:0:
192,192,99259,1,0,0:0:0:0:
448,192,99407,1,0,0:0:0:0:
64,192,99555,128,0,105778:0:0:0:0:
192,192,99555,128,0,105778:0:0:0:0:
320,192,99555,128,0,105778:0:0:0:0:
448,192,99555,128,0,105778:0:0:0:0:
