osu file format v14

[General]
AudioFilename: audio.mp3
AudioLeadIn: 0
PreviewTime: 51692
Countdown: 0
SampleSet: Soft
StackLeniency: 0.7
Mode: 3
LetterboxInBreaks: 0
SpecialStyle: 0
WidescreenStoryboard: 1

[Editor]
DistanceSpacing: 0.8
BeatDivisor: 4
GridSize: 8
TimelineZoom: 0.8999999

[Metadata]
Title:Dance Of The Violins
TitleUnicode:Dance Of The Violins
Artist:F-777
ArtistUnicode:F-777
Creator:newbandpro
Version:Easy
Source:
Tags:error_exe777 jessevalentinemusic ambient breakbeat dance electronic orchestral trance edmonton newgrounds
BeatmapID:1362524
BeatmapSetID:642684

[Difficulty]
HPDrainRate:7
CircleSize:4
OverallDifficulty:7
ApproachRate:5
SliderMultiplier:1.4
SliderTickRate:1

[Events]
//Background and Video events
0,0,"Untitled-1.jpg",0,0
//Break Periods
//Storyboard Layer 0 (Background)
//Storyboard Layer 1 (Fail)
//Storyboard Layer 2 (Pass)
//Storyboard Layer 3 (Foreground)
//Storyboard Sound Samples
Sample,55384,0,"F6S.wav",100
Sample,56192,0,"D6S.wav",100
Sample,56192,0,"LR_RevCyLGLH.wav",70
Sample,86769,0,"LR_RevCyHLWX.wav",70

[TimingPoints]
0,461.538461538462,4,2,1,70,1,0
59076,-100,4,2,1,70,0,1
88615,-100,4,2,1,70,0,0

[HitObjects]
64,192,0,5,4,0:0:0:0:
320,192,0,1,2,0:0:0:0:
192,192,461,1,8,0:0:0:0:
448,192,461,1,0,0:0:0:0:
320,192,923,1,2,0:0:0:0:
192,192,1384,1,8,0:0:0:0:
448,192,1384,1,0,0:0:0:0:
64,192,1846,1,2,0:0:0:0:
320,192,2307,1,8,0:0:0:0:
448,192,2307,1,0,0:0:0:0:
64,192,2769,1,2,0:0:0:0:
320,192,3230,1,8,0:0:0:0:
192,192,3230,1,0,0:0:0:0:
64,192,3692,1,2,0:0:0:0:
192,192,4153,1,8,0:0:0:0:
448,192,4153,1,0,0:0:0:0:
320,192,4615,1,2,0:0:0:0:
192,192,5076,1,8,0:0:0:0:
64,192,5076,1,0,0:0:0:0:
448,192,5538,1,2,0:0:0:0:
192,192,6000,1,8,0:0:0:0:
320,192,6000,1,0,0:0:0:0:
448,192,6461,1,2,0:0:0:0:
192,192,6923,1,8,0:0:0:0:
64,192,6923,1,0,0:0:0:0:
320,192,7384,1,2,0:0:0:0:
64,192,7846,1,8,0:0:0:0:
448,192,7846,1,0,0:0:0:0:
192,192,8307,1,2,0:0:0:0:
320,192,8769,1,8,0:0:0:0:
64,192,8769,1,0,0:0:0:0:
192,192,9230,1,2,0:0:0:0:
320,192,9692,1,8,0:0:0:0:
448,192,9692,1,0,0:0:0:0:
64,192,10153,1,2,0:0:0:0:
192,192,10615,1,8,0:0:0:0:
448,192,10615,1,0,0:0:0:0:
320,192,11076,1,2,0:0:0:0:
192,192,11538,1,8,0:0:0:0:
448,192,11538,1,0,0:0:0:0:
320,192,12000,1,2,0:0:0:0:
64,192,12461,1,8,0:0:0:0:
192,192,12461,1,0,0:0:0:0:
448,192,12923,1,2,0:0:0:0:
64,192,13384,1,8,0:0:0:0:
320,192,13384,1,0,0:0:0:0:
192,192,13846,1,2,0:0:0:0:
320,192,14307,1,8,0:0:0:0:
448,192,14307,1,0,0:0:0:0:
64,192,14769,1,6,0:0:0:0:
192,192,14769,128,0,15576:0:0:0:100:F6S.wav
320,192,15230,1,8,0:0:0:0:
448,192,15230,1,0,0:0:0:0:
320,192,15576,128,0,16615:0:0:0:100:D6S.wav
64,192,16153,1,8,0:0:0:0:
192,192,16153,1,0,0:0:0:0:
64,192,16615,128,0,17076:0:0:0:100:C6S.wav
320,192,17076,1,8,0:0:0:0:
448,192,17076,128,0,17423:0:0:0:100:F6S.wav
192,192,17423,128,0,18461:0:0:0:100:E6S.wav
320,192,18000,1,8,0:0:0:0:
448,192,18000,1,0,0:0:0:0:
320,192,18461,128,0,19269:0:0:0:100:F6S.wav
64,192,18923,1,8,0:0:0:0:
192,192,18923,1,0,0:0:0:0:
448,192,19269,128,0,20307:0:0:0:100:D6S.wav
192,192,19846,1,8,0:0:0:0:
320,192,19846,1,0,0:0:0:0:
320,192,20307,128,2,20769:0:0:0:100:C6S.wav
64,192,20769,128,8,21000:0:0:0:0:
448,192,20769,1,0,0:0:0:100:F5S.wav
192,192,21000,128,0,22153:0:0:0:100:G5S.wav
64,192,21692,1,8,0:0:0:0:
320,192,21692,1,0,0:0:0:0:
448,192,22153,128,2,22961:0:0:0:100:F6S.wav
64,192,22615,1,8,0:0:0:0:
192,192,22615,1,0,0:0:0:0:
320,192,22961,128,0,24000:0:0:0:100:D6S.wav
64,192,23538,1,8,0:0:0:0:
448,192,23538,1,0,0:0:0:0:
64,192,24000,128,0,24461:0:0:0:100:C6S.wav
192,192,24461,128,8,24807:0:0:0:0:
320,192,24461,1,0,0:0:0:100:F6S.wav
448,192,24807,128,0,25846:0:0:0:100:E6S.wav
64,192,25384,1,8,0:0:0:0:
320,192,25384,1,0,0:0:0:0:
192,192,25846,128,2,26653:0:0:0:100:F6S.wav
320,192,26307,1,8,0:0:0:0:
448,192,26307,1,0,0:0:0:0:
64,192,26653,128,0,27692:0:0:0:100:D6S.wav
192,192,27230,1,8,0:0:0:0:
448,192,27230,1,0,0:0:0:0:
320,192,27692,128,0,28153:0:2:0:100:C6S.wav
64,192,28153,1,8,0:0:0:0:
192,192,28153,128,0,28384:0:0:0:100:F6S.wav
448,192,28384,128,0,29538:0:0:0:100:G6S.wav
192,192,29076,1,8,0:0:0:0:
320,192,29076,1,0,0:0:0:0:
64,192,29538,1,6,0:0:0:0:
192,192,29538,1,0,0:0:0:100:A5S.wav
64,192,30000,1,0,0:0:0:100:A5S.wav
448,192,30346,1,0,0:0:0:100:A#5S_Bb5S.wav
448,192,30692,1,0,0:0:0:100:D6S.wav
64,192,30923,1,0,0:0:0:100:C6S.wav
320,192,31384,1,0,0:0:0:100:C6S.wav
320,192,31846,1,0,0:0:0:100:F5S.wav
192,192,32192,1,0,0:0:0:0:
448,192,32538,1,0,0:0:0:100:C5S.wav
64,192,32769,1,0,0:0:0:100:E5S.wav
320,192,33000,1,0,0:0:0:100:F5S.wav
192,192,33230,1,0,0:0:0:100:A5S.wav
64,192,33692,1,0,0:0:0:100:A5S.wav
320,192,34038,1,0,0:0:0:100:A#5S_Bb5S.wav
320,192,34384,1,0,0:0:0:100:D6S.wav
448,192,34615,1,0,0:0:0:100:C6S.wav
192,192,35076,1,0,0:0:0:100:C6S.wav
192,192,35538,1,0,0:0:0:100:F5S.wav
448,192,35884,1,0,0:0:0:0:
64,192,36230,1,0,0:0:0:100:F6S.wav
320,192,36461,1,0,0:0:0:100:F6S.wav
448,192,36692,1,0,0:0:0:100:E6S.wav
192,192,36923,1,0,0:0:0:100:A5S.wav
448,192,37384,1,0,0:0:0:100:A5S.wav
320,192,37730,1,0,0:0:0:100:A#5S_Bb5S.wav
320,192,38076,1,0,0:0:0:100:D6S.wav
64,192,38307,1,0,0:0:0:100:C6S.wav
192,192,38769,1,0,0:0:0:100:C6S.wav
192,192,39230,1,0,0:0:0:100:F5S.wav
448,192,39576,1,0,0:0:0:0:
320,192,39923,1,0,0:0:0:100:C5S.wav
64,192,40153,1,0,0:0:0:100:E5S.wav
448,192,40384,1,0,0:0:0:100:F5S.wav
320,192,40615,1,0,0:0:0:100:A5S.wav
192,192,41076,1,0,0:0:0:100:A5S.wav
64,192,41423,1,0,0:0:0:100:A#5S_Bb5S.wav
64,192,41769,1,0,0:0:0:100:D6S.wav
448,192,42000,1,0,0:0:0:100:C6S.wav
320,192,42461,1,0,0:0:0:100:C6S.wav
320,192,42923,1,0,0:0:0:100:F5S.wav
192,192,43269,1,0,0:0:0:0:
64,192,43615,1,0,0:0:0:100:F6S.wav
448,192,43846,1,0,0:0:0:100:F6S.wav
320,192,44076,1,0,0:0:0:100:E6S.wav
64,192,44307,1,4,0:0:0:0:
192,192,44307,1,2,0:0:0:0:
320,192,44769,1,2,0:0:0:0:
64,192,45115,1,2,0:0:0:0:
448,192,45461,1,2,0:0:0:0:
320,192,45692,1,2,0:0:0:0:
64,192,46153,1,2,0:0:0:0:
320,192,46615,1,2,0:0:0:0:
192,192,46961,1,2,0:0:0:0:
448,192,47307,1,2,0:0:0:0:
64,192,47538,1,2,0:0:0:0:
320,192,47769,1,2,0:0:0:0:
192,192,48000,1,2,0:0:0:0:
448,192,48461,1,2,0:0:0:0:
320,192,48807,1,2,0:0:0:0:
64,192,49153,1,2,0:0:0:0:
192,192,49384,1,2,0:0:0:0:
448,192,49846,1,2,0:0:0:0:
320,192,50307,1,2,0:0:0:0:
64,192,50653,1,2,0:0:0:0:
192,192,51000,1,2,0:0:0:0:
448,192,51230,1,2,0:0:0:0:
320,192,51461,1,2,0:0:0:0:
64,192,51692,1,6,0:0:0:0:
192,192,51692,128,2,52500:0:0:0:100:F6S.wav
320,192,52153,1,2,0:0:0:0:
64,192,52500,1,2,0:0:0:0:
448,192,52500,128,0,53538:0:0:0:100:D6S.wav
320,192,52846,1,2,0:0:0:0:
192,192,53076,1,2,0:0:0:0:
64,192,53538,1,2,0:0:0:0:
320,192,53538,128,2,54000:0:0:0:100:C6S.wav
192,192,54000,1,2,0:0:0:0:
448,192,54000,128,0,54346:0:0:0:100:F6S.wav
64,192,54346,128,2,55384:0:0:0:0:
320,192,54346,1,0,0:0:0:100:E6S.wav
192,192,54692,1,2,0:0:0:0:
320,192,54923,1,2,0:0:0:0:
192,192,55153,1,2,0:0:0:0:
448,192,55384,1,2,0:0:0:0:
192,192,55615,1,2,0:0:0:0:
320,192,55846,1,2,0:0:0:0:
64,192,56076,1,2,0:0:0:0:
192,192,56307,1,2,0:0:0:0:
448,192,56538,1,2,0:0:0:0:
320,192,56769,1,2,0:0:0:0:
192,192,57000,1,2,0:0:0:0:
64,192,57230,128,2,57923:0:0:0:0:
320,192,57230,1,0,0:0:0:100:C6S.wav
320,192,57692,1,0,0:0:0:100:F6S.wav
448,192,57923,128,0,59076:0:0:0:100:G6S.wav
320,192,58384,1,0,0:0:0:0:
192,192,58615,1,0,0:0:0:0:
64,192,58846,1,0,0:0:0:0:
192,192,59076,1,6,0:0:0:0:
320,192,59076,1,0,0:0:0:100:A5S.wav
64,192,59307,1,0,0:0:0:100:D5S.wav
320,192,59538,1,0,0:0:0:100:A5S.wav
448,192,59769,128,0,60000:0:0:0:100:D5S.wav
192,192,60000,1,0,0:0:0:100:F5S.wav
64,192,60230,1,0,0:0:0:100:D6S.wav
448,192,60461,1,0,0:0:0:100:C6S.wav
192,192,60692,1,0,0:0:0:100:A#5S_Bb5S.wav
320,192,60923,128,0,61153:0:0:0:100:C6S.wav
64,192,61153,128,0,61384:0:0:0:100:A5S.wav
448,192,61384,128,0,61615:0:0:0:100:F5S.wav
320,192,61615,128,0,62076:0:0:0:100:E5S.wav
192,192,62076,128,0,62307:0:0:0:100:C5S.wav
448,192,62307,128,0,62538:0:0:0:100:E5S.wav
64,192,62538,128,0,62769:0:0:0:100:F5S.wav
192,192,62769,1,0,0:0:0:100:A5S.wav
320,192,63000,1,0,0:0:0:100:D5S.wav
64,192,63230,1,0,0:0:0:100:A5S.wav
448,192,63461,128,0,63692:0:0:0:100:D5S.wav
192,192,63692,1,0,0:0:0:100:F5S.wav
64,192,63923,1,0,0:0:0:100:D6S.wav
320,192,64153,1,0,0:0:0:100:C6S.wav
448,192,64384,1,0,0:0:0:100:A#5S_Bb5S.wav
192,192,64615,128,0,64846:0:0:0:100:C6S.wav
64,192,64846,128,0,65076:0:0:0:100:A5S.wav
448,192,65076,128,0,65307:0:0:0:100:F5S.wav
192,192,65307,128,0,65769:0:0:0:100:G5S.wav
448,192,65769,128,0,66000:0:0:0:100:F6S.wav
320,192,66000,128,0,66230:0:0:0:100:F6S.wav
64,192,66230,128,0,66461:0:0:0:100:E6S.wav
192,192,66461,1,0,0:0:0:100:A5S.wav
448,192,66692,1,0,0:0:0:100:D5S.wav
320,192,66923,1,0,0:0:0:100:A5S.wav
64,192,67153,128,0,67384:0:0:0:100:D5S.wav
192,192,67384,1,0,0:0:0:100:F5S.wav
448,192,67615,1,0,0:0:0:100:D6S.wav
320,192,67846,1,0,0:0:0:100:C6S.wav
64,192,68076,1,0,0:0:0:100:A#5S_Bb5S.wav
192,192,68307,128,0,68538:0:0:0:100:C6S.wav
320,192,68538,128,0,68769:0:0:0:100:A5S.wav
64,192,68769,128,0,69000:0:0:0:100:F5S.wav
448,192,69000,128,0,69461:0:0:0:100:E5S.wav
192,192,69461,128,0,69692:0:0:0:100:C5S.wav
320,192,69692,128,0,69923:0:0:0:100:E5S.wav
448,192,69923,128,0,70153:0:0:0:100:F5S.wav
64,192,70153,1,0,0:0:0:100:A5S.wav
192,192,70384,1,0,0:0:0:100:D5S.wav
320,192,70615,1,0,0:0:0:100:A5S.wav
448,192,70846,128,0,71076:0:0:0:100:D5S.wav
192,192,71076,1,0,0:0:0:100:F5S.wav
64,192,71307,1,0,0:0:0:100:D6S.wav
320,192,71538,1,0,0:0:0:100:C6S.wav
448,192,71769,1,0,0:0:0:100:A#5S_Bb5S.wav
192,192,72000,128,0,72230:0:0:0:100:C6S.wav
320,192,72230,128,0,72461:0:0:0:100:A5S.wav
64,192,72461,128,0,72692:0:0:0:100:F5S.wav
448,192,72692,128,0,73153:0:0:0:100:G5S.wav
192,192,73153,128,0,73384:0:0:0:100:F6S.wav
64,192,73384,128,0,73615:0:0:0:100:F6S.wav
320,192,73615,128,0,73846:0:0:0:100:E6S.wav
192,192,73846,1,6,0:0:0:0:
448,192,73846,1,0,0:0:0:100:F6S.wav
64,192,74076,1,0,0:0:0:100:D5S.wav
448,192,74307,1,0,0:0:0:100:F6S.wav
320,192,74538,128,0,74769:0:0:0:100:D6S.wav
192,192,74769,1,0,0:0:0:100:F5S.wav
448,192,75000,1,0,0:0:0:100:F6S.wav
64,192,75230,1,0,0:0:0:100:E6S.wav
320,192,75461,1,0,0:0:0:100:A#5S_Bb5S.wav
448,192,75692,128,0,75923:0:0:0:100:G5S.wav
64,192,75923,128,0,76153:0:0:0:100:F5S.wav
192,192,76153,128,0,76384:0:0:0:100:F5S.wav
448,192,76384,128,0,76846:0:0:0:100:E5S.wav
320,192,76846,128,0,77076:0:0:0:100:C5S.wav
64,192,77076,128,0,77307:0:0:0:100:E5S.wav
448,192,77307,128,0,77538:0:0:0:100:F5S.wav
192,192,77538,1,0,0:0:0:100:D6S.wav
320,192,77769,1,0,0:0:0:100:F6S.wav
64,192,78000,1,0,0:0:0:100:D6S.wav
192,192,78230,128,0,78461:0:0:0:100:F6S.wav
448,192,78461,1,0,0:0:0:100:F5S.wav
320,192,78692,1,0,0:0:0:100:F6S.wav
64,192,78923,1,0,0:0:0:100:E6S.wav
448,192,79153,1,0,0:0:0:100:A#5S_Bb5S.wav
320,192,79384,128,0,79615:0:0:0:100:G6S.wav
64,192,79615,128,0,79846:0:0:0:100:F6S.wav
192,192,79846,128,0,80076:0:0:0:100:D6S.wav
448,192,80076,128,0,80538:0:0:0:100:C6S.wav
192,192,80538,128,0,80769:0:0:0:100:A6S.wav
320,192,80769,128,0,81000:0:0:0:100:A6S.wav
448,192,81000,128,0,81230:0:0:0:100:G6S.wav
64,192,81230,1,0,0:0:0:100:F6S.wav
320,192,81461,1,0,0:0:0:100:D5S.wav
192,192,81692,1,0,0:0:0:100:F6S.wav
448,192,81923,128,0,82153:0:0:0:100:D6S.wav
64,192,82153,1,0,0:0:0:100:F5S.wav
192,192,82384,1,0,0:0:0:100:F6S.wav
320,192,82615,1,0,0:0:0:100:E6S.wav
64,192,82846,1,0,0:0:0:100:A#5S_Bb5S.wav
448,192,83076,128,0,83307:0:0:0:100:G5S.wav
320,192,83307,128,0,83538:0:0:0:100:F5S.wav
192,192,83538,128,0,83769:0:0:0:100:F5S.wav
320,192,83769,128,0,84230:0:0:0:100:E5S.wav
64,192,84230,128,0,84461:0:0:0:100:C5S.wav
448,192,84461,128,0,84692:0:0:0:100:E5S.wav
192,192,84692,128,0,84923:0:0:0:100:F5S.wav
320,192,84923,1,0,0:0:0:100:D6S.wav
64,192,85153,1,0,0:0:0:100:F6S.wav
448,192,85384,1,0,0:0:0:100:D6S.wav
320,192,85615,128,0,85846:0:0:0:100:F6S.wav
192,192,85846,1,0,0:0:0:100:F5S.wav
448,192,86076,1,0,0:0:0:100:F6S.wav
64,192,86307,1,0,0:0:0:100:E6S.wav
320,192,86538,1,0,0:0:0:100:A#5S_Bb5S.wav
192,192,86769,128,0,87000:0:0:0:100:G6S.wav
64,192,87000,128,0,87230:0:0:0:100:F6S.wav
320,192,87230,128,0,87461:0:0:0:100:D6S.wav
448,192,87461,128,0,87923:0:0:0:100:C6S.wav
192,192,87923,128,0,88153:0:0:0:100:A6S.wav
320,192,88153,128,0,88384:0:0:0:100:A6S.wav
448,192,88384,128,0,88615:0:0:0:100:G6S.wav
64,192,88615,1,4,0:0:0:0:
192,192,88615,1,2,0:0:0:0:
