osu file format v14

[General]
AudioFilename: audio.mp3
AudioLeadIn: 0
PreviewTime: 95784
Countdown: 0
SampleSet: Normal
StackLeniency: 0.7
Mode: 1
LetterboxInBreaks: 0
WidescreenStoryboard: 0

[Editor]
Bookmarks: 23729,47287,107655,154772
DistanceSpacing: 0.8
BeatDivisor: 4
GridSize: 32
TimelineZoom: 1.4

[Metadata]
Title:Cosmic Blaster
TitleUnicode:Cosmic Blaster
Artist:F-777
ArtistUnicode:F-777
Creator:Nardoxyribonucleic
Version:salchow's Oni
Source:osu!
Tags:Taiko Featured Artist FA Mappers' Guild MG F777 Jesse Valentine Electronic Instrumental Faputa Vulkin salchow
BeatmapID:2456498
BeatmapSetID:1142117

[Difficulty]
HPDrainRate:6
CircleSize:2
OverallDifficulty:6
ApproachRate:10
SliderMultiplier:1.4
SliderTickRate:1

[Events]
//Background and Video events
0,0,"bg.jpg",0,0
//Break Periods
//Storyboard Layer 0 (Background)
//Storyboard Layer 1 (Fail)
//Storyboard Layer 2 (Pass)
//Storyboard Layer 3 (Foreground)
//Storyboard Layer 4 (Overlay)
//Storyboard Sound Samples

[TimingPoints]
171,368.098159509202,4,1,0,80,1,0
9005,-95.2380952380952,4,1,0,80,0,0
10477,-100,4,1,0,80,0,0
11950,-83.3333333333333,4,1,0,80,0,0
12318,-100,4,1,0,80,0,0
17839,-83.3333333333333,4,1,0,80,0,0
18207,-100,4,1,0,80,0,0
20784,-76.9230769230769,4,1,0,80,0,0
20968,-100,4,1,0,80,0,0
22256,-71.4285714285714,4,1,0,80,0,0
22440,-100,4,1,0,80,0,0
23729,-71.4285714285714,4,1,0,80,0,0
23913,-90.9090909090909,4,1,0,80,0,0
29618,-76.9230769230769,4,1,0,80,0,0
29802,-90.9090909090909,4,1,0,80,0,0
34036,-92.5925925925926,4,1,0,80,0,0
34404,-94.3396226415094,4,1,0,80,0,0
34772,-96.1538461538461,4,1,0,80,0,0
34956,-98.0392156862745,4,1,0,80,0,0
35140,-100,4,1,0,80,0,0
35324,-102.040816326531,4,1,0,80,0,0
35508,-76.9230769230769,4,1,0,80,0,0
35692,-100,4,1,0,80,0,0
45631,-102.040816326531,4,1,0,80,0,0
45999,-104.166666666667,4,1,0,80,0,0
46367,-106.382978723404,4,1,0,80,0,0
46735,-108.695652173913,4,1,0,80,0,0
47103,-111.111111111111,4,1,0,80,0,0
47287,-100,4,1,0,80,0,0
53545,-97.0873786407767,4,1,0,80,0,0
53913,-94.3396226415094,4,1,0,80,0,0
54465,-91.743119266055,4,1,0,80,0,0
54649,-89.2857142857143,4,1,0,80,0,0
55017,-86.9565217391304,4,1,0,80,0,0
55385,-84.7457627118644,4,1,0,80,0,0
55937,-83.3333333333333,4,1,0,80,0,0
56121,-80,4,1,0,80,0,0
57594,-100,4,1,0,80,0,0
57962,-103.092783505155,4,1,0,80,0,0
58330,-106.382978723404,4,1,0,80,0,0
58698,-109.89010989011,4,1,0,80,0,0
58882,-113.636363636364,4,1,0,80,0,0
59066,-76.9230769230769,4,1,0,80,0,1
59250,-100,4,1,0,80,0,1
61459,-97.0873786407767,4,1,0,80,0,1
61643,-94.3396226415094,4,1,0,80,0,1
61827,-91.743119266055,4,1,0,80,0,1
62011,-89.2857142857143,4,1,0,80,0,1
62195,-100,4,1,0,80,0,1
64220,-103.092783505155,4,1,0,80,0,1
64404,-106.382978723404,4,1,0,80,0,1
64588,-109.89010989011,4,1,0,80,0,1
64772,-113.636363636364,4,1,0,80,0,1
64956,-89.2857142857143,4,1,0,80,0,1
65140,-100,4,1,0,80,0,1
67348,-97.0873786407767,4,1,0,80,0,1
67532,-94.3396226415094,4,1,0,80,0,1
67717,-91.743119266055,4,1,0,80,0,1
67901,-89.2857142857143,4,1,0,80,0,1
68085,-111.111111111111,4,1,0,80,0,1
70293,-116.279069767442,4,1,0,80,0,1
70477,-121.951219512195,4,1,0,80,0,1
70661,-128.205128205128,4,1,0,80,0,1
70845,-135.135135135135,4,1,0,80,0,0
84097,-83.3333333333333,4,1,0,80,0,0
84281,-100,4,1,0,80,0,0
90355,-97.0873786407767,4,1,0,80,0,0
90723,-94.3396226415094,4,1,0,80,0,0
91091,-91.743119266055,4,1,0,80,0,0
91459,-89.2857142857143,4,1,0,80,0,0
91827,-86.9565217391304,4,1,0,80,0,0
92379,-84.7457627118644,4,1,0,80,0,0
92563,-82.6446280991736,4,1,0,80,0,0
92931,-80,4,1,0,80,0,0
94404,-68.9655172413793,4,1,0,80,0,0
95876,-68.9655172413793,4,1,0,80,0,1
96060,-90.9090909090909,4,1,0,80,0,1
98821,-68.9655172413793,4,1,0,80,0,1
99005,-90.9090909090909,4,1,0,80,0,1
101766,-68.9655172413793,4,1,0,80,0,1
101950,-90.9090909090909,4,1,0,80,0,1
106183,-100,4,1,0,80,0,0
107655,-76.9230769230769,4,1,0,80,0,1
107839,-83.3333333333333,4,1,0,80,0,1
113361,-90.9090909090909,4,1,0,80,0,1
113545,-100,4,1,0,80,0,0
116490,-105.263157894737,4,1,0,80,0,0
119434,-83.3333333333333,4,1,0,80,0,0
119802,-100,4,1,0,80,0,0
125324,-76.9230769230769,4,1,0,80,0,0
125508,-100,4,1,0,80,0,0
128637,-102.040816326531,4,1,0,80,0,0
129005,-104.166666666667,4,1,0,80,0,0
129189,-106.382978723404,4,1,0,80,0,0
129373,-108.695652173913,4,1,0,80,0,0
129741,-111.111111111111,4,1,0,80,0,0
131213,-76.9230769230769,4,1,0,80,0,0
131397,-100,4,1,0,80,0,0
142993,-90.9090909090909,4,1,0,80,0,0
149250,-88.4955752212389,4,1,0,80,0,0
149618,-86.2068965517241,4,1,0,80,0,0
150170,-84.0336134453781,4,1,0,80,0,0
150355,-81.9672131147541,4,1,0,80,0,0
150723,-80,4,1,0,80,0,0
151091,-78.7401574803149,4,1,0,80,0,0
151643,-76.3358778625954,4,1,0,80,0,0
151827,-74.0740740740741,4,1,0,80,0,0
153299,-71.4285714285714,4,1,0,80,0,0
153667,-76.9230769230769,4,1,0,80,0,0
154036,-83.3333333333333,4,1,0,80,0,0
154404,-90.9090909090909,4,1,0,80,0,0
154772,-100,4,1,0,80,0,0

[HitObjects]
256,192,171,5,0,0:0:0:0:
256,192,355,1,0,0:0:0:0:
256,192,539,1,8,0:0:0:0:
256,192,907,1,0,0:0:0:0:
256,192,1091,1,8,0:0:0:0:
256,192,1183,1,0,0:0:0:0:
256,192,1275,1,8,0:0:0:0:
256,192,1459,1,8,0:0:0:0:
256,192,1551,1,8,0:0:0:0:
256,192,1643,1,0,0:0:0:0:
256,192,1827,1,0,0:0:0:0:
256,192,2011,1,8,0:0:0:0:
256,192,2195,1,8,0:0:0:0:
256,192,2563,1,0,0:0:0:0:
256,192,2747,1,8,0:0:0:0:
256,192,2931,1,8,0:0:0:0:
256,192,3023,1,8,0:0:0:0:
256,192,3115,1,0,0:0:0:0:
256,192,3299,1,0,0:0:0:0:
256,192,3483,1,8,0:0:0:0:
256,192,3851,1,0,0:0:0:0:
256,192,4036,1,0,0:0:0:0:
256,192,4128,1,8,0:0:0:0:
256,192,4220,1,8,0:0:0:0:
256,192,4404,1,0,0:0:0:0:
256,192,4496,1,0,0:0:0:0:
256,192,4588,1,0,0:0:0:0:
256,192,4772,1,8,0:0:0:0:
256,192,4956,1,0,0:0:0:0:
256,192,5140,1,0,0:0:0:0:
256,192,5508,1,0,0:0:0:0:
256,192,5692,1,8,0:0:0:0:
256,192,5876,1,8,0:0:0:0:
256,192,5968,1,8,0:0:0:0:
256,192,6060,1,0,0:0:0:0:
256,192,6152,1,0,0:0:0:0:
256,192,6244,1,0,0:0:0:0:
256,192,6428,1,8,0:0:0:0:
256,192,6520,1,8,0:0:0:0:
256,192,6612,1,0,0:0:0:0:
256,192,6796,1,8,0:0:0:0:
256,192,6888,1,8,0:0:0:0:
256,192,6980,1,0,0:0:0:0:
256,192,7072,1,0,0:0:0:0:
256,192,7164,1,8,0:0:0:0:
256,192,7348,1,0,0:0:0:0:
256,192,7440,1,0,0:0:0:0:
256,192,7532,1,8,0:0:0:0:
256,192,7717,1,0,0:0:0:0:
256,192,7901,1,8,0:0:0:0:
256,192,7993,1,0,0:0:0:0:
256,192,8085,1,8,0:0:0:0:
256,192,8177,1,0,0:0:0:0:
256,192,8269,1,8,0:0:0:0:
256,192,8453,1,0,0:0:0:0:
256,192,8545,1,0,0:0:0:0:
256,192,8637,1,8,0:0:0:0:
256,192,8821,1,0,0:0:0:0:
256,192,9005,2,4,P|386:210|216:252,1,514.499984298707
256,192,10477,1,0,0:0:0:0:
256,192,10661,1,8,0:0:0:0:
256,192,10845,1,0,0:0:0:0:
256,192,11029,1,0,0:0:0:0:
256,192,11397,1,8,0:0:0:0:
256,192,11582,1,0,0:0:0:0:
256,192,11950,1,4,0:0:0:0:
256,192,12318,1,8,0:0:0:0:
256,192,12502,1,8,0:0:0:0:
256,192,12686,1,0,0:0:0:0:
256,192,12870,1,0,0:0:0:0:
256,192,12962,1,8,0:0:0:0:
256,192,13054,1,0,0:0:0:0:
256,192,13238,1,8,0:0:0:0:
256,192,13422,1,0,0:0:0:0:
256,192,13606,1,8,0:0:0:0:
256,192,13790,1,0,0:0:0:0:
256,192,13974,1,0,0:0:0:0:
256,192,14342,1,8,0:0:0:0:
256,192,14526,1,0,0:0:0:0:
256,192,14710,1,0,0:0:0:0:
256,192,14894,1,8,0:0:0:0:
256,192,14986,1,8,0:0:0:0:
256,192,15170,1,0,0:0:0:0:
256,192,15263,1,8,0:0:0:0:
256,192,15447,1,8,0:0:0:0:
256,192,15631,1,0,0:0:0:0:
256,192,15815,1,8,0:0:0:0:
256,192,15907,1,0,0:0:0:0:
256,192,15999,1,8,0:0:0:0:
256,192,16183,1,8,0:0:0:0:
256,192,16367,1,0,0:0:0:0:
256,192,16551,1,8,0:0:0:0:
256,192,16735,1,0,0:0:0:0:
256,192,16919,1,0,0:0:0:0:
256,192,17287,1,8,0:0:0:0:
256,192,17471,1,0,0:0:0:0:
256,192,17655,1,0,0:0:0:0:
256,192,17839,1,12,0:0:0:0:
256,192,18207,1,8,0:0:0:0:
256,192,18391,1,8,0:0:0:0:
256,192,18575,1,0,0:0:0:0:
256,192,18759,1,8,0:0:0:0:
256,192,18851,1,0,0:0:0:0:
256,192,18944,1,8,0:0:0:0:
256,192,19128,1,0,0:0:0:0:
256,192,19312,1,0,0:0:0:0:
256,192,19496,1,8,0:0:0:0:
256,192,19680,1,0,0:0:0:0:
256,192,19864,1,0,0:0:0:0:
256,192,20232,1,8,0:0:0:0:
256,192,20416,1,0,0:0:0:0:
256,192,20600,1,8,0:0:0:0:
256,192,20784,1,4,0:0:0:0:
256,192,21060,1,0,0:0:0:0:
256,192,21152,1,8,0:0:0:0:
256,192,21336,1,8,0:0:0:0:
256,192,21520,1,0,0:0:0:0:
256,192,21704,1,8,0:0:0:0:
256,192,21796,1,8,0:0:0:0:
256,192,21888,1,0,0:0:0:0:
256,192,22072,1,0,0:0:0:0:
256,192,22256,1,12,0:0:0:0:
256,192,22624,1,0,0:0:0:0:
256,192,22993,1,0,0:0:0:0:
256,192,23177,1,8,0:0:0:0:
256,192,23361,1,0,0:0:0:0:
256,192,23545,1,8,0:0:0:0:
256,192,23729,1,4,0:0:0:0:
256,192,24005,1,0,0:0:0:0:
256,192,24097,1,8,0:0:0:0:
256,192,24281,1,8,0:0:0:0:
256,192,24465,1,0,0:0:0:0:
256,192,24557,1,0,0:0:0:0:
256,192,24741,1,8,0:0:0:0:
256,192,24833,1,8,0:0:0:0:
256,192,25017,1,8,0:0:0:0:
256,192,25201,1,0,0:0:0:0:
256,192,25385,1,8,0:0:0:0:
256,192,25477,1,8,0:0:0:0:
256,192,25569,1,0,0:0:0:0:
256,192,25753,1,0,0:0:0:0:
256,192,26121,1,0,0:0:0:0:
256,192,26305,1,8,0:0:0:0:
256,192,26490,1,0,0:0:0:0:
256,192,26674,1,8,0:0:0:0:
256,192,26766,1,8,0:0:0:0:
256,192,26950,1,0,0:0:0:0:
256,192,27042,1,8,0:0:0:0:
256,192,27226,1,0,0:0:0:0:
256,192,27410,1,8,0:0:0:0:
256,192,27502,1,8,0:0:0:0:
256,192,27594,1,0,0:0:0:0:
256,192,27686,1,8,0:0:0:0:
256,192,27778,1,8,0:0:0:0:
256,192,27962,1,8,0:0:0:0:
256,192,28146,1,0,0:0:0:0:
256,192,28330,1,8,0:0:0:0:
256,192,28514,1,0,0:0:0:0:
256,192,28698,1,0,0:0:0:0:
256,192,29066,1,8,0:0:0:0:
256,192,29250,1,0,0:0:0:0:
256,192,29434,1,8,0:0:0:0:
256,192,29618,1,4,0:0:0:0:
256,192,29894,1,0,0:0:0:0:
256,192,29986,1,8,0:0:0:0:
256,192,30170,1,8,0:0:0:0:
256,192,30355,1,0,0:0:0:0:
256,192,30447,1,0,0:0:0:0:
256,192,30631,1,8,0:0:0:0:
256,192,30723,1,8,0:0:0:0:
256,192,30907,1,8,0:0:0:0:
256,192,31091,1,0,0:0:0:0:
256,192,31275,1,8,0:0:0:0:
256,192,31367,1,8,0:0:0:0:
256,192,31459,1,0,0:0:0:0:
256,192,31643,1,0,0:0:0:0:
256,192,32011,1,0,0:0:0:0:
256,192,32195,1,8,0:0:0:0:
256,192,32379,1,0,0:0:0:0:
256,192,32563,1,8,0:0:0:0:
256,192,32655,1,8,0:0:0:0:
256,192,32839,1,0,0:0:0:0:
256,192,32931,1,8,0:0:0:0:
256,192,33115,1,0,0:0:0:0:
256,192,33299,1,8,0:0:0:0:
256,192,33391,1,8,0:0:0:0:
256,192,33483,1,0,0:0:0:0:
256,192,33575,1,8,0:0:0:0:
256,192,33667,1,8,0:0:0:0:
256,192,33851,1,0,0:0:0:0:
256,192,34036,1,8,0:0:0:0:
288,192,34404,1,8,0:0:0:0:
288,192,34772,1,8,0:0:0:0:
256,192,34956,1,0,0:0:0:0:
256,192,35140,1,8,0:0:0:0:
256,192,35324,1,0,0:0:0:0:
256,192,35508,5,12,0:0:0:0:
256,192,35692,1,0,0:0:0:0:
256,192,35784,1,0,0:0:0:0:
256,192,35876,1,8,0:0:0:0:
256,192,36060,1,8,0:0:0:0:
256,192,36152,1,8,0:0:0:0:
256,192,36244,1,0,0:0:0:0:
256,192,36428,1,0,0:0:0:0:
256,192,36612,1,8,0:0:0:0:
256,192,36796,1,0,0:0:0:0:
256,192,37072,1,8,0:0:0:0:
256,192,37164,1,0,0:0:0:0:
256,192,37348,1,8,0:0:0:0:
256,192,37532,1,8,0:0:0:0:
256,192,37624,1,8,0:0:0:0:
256,192,37717,1,0,0:0:0:0:
256,192,37901,1,0,0:0:0:0:
256,192,37993,1,0,0:0:0:0:
256,192,38085,1,8,0:0:0:0:
256,192,38269,1,0,0:0:0:0:
256,192,38453,5,8,0:0:0:0:
256,192,38637,1,0,0:0:0:0:
256,192,38729,1,0,0:0:0:0:
256,192,38821,1,8,0:0:0:0:
256,192,39005,1,8,0:0:0:0:
256,192,39097,1,8,0:0:0:0:
256,192,39189,1,0,0:0:0:0:
256,192,39373,1,0,0:0:0:0:
256,192,39557,1,8,0:0:0:0:
256,192,39741,1,0,0:0:0:0:
256,192,40017,1,8,0:0:0:0:
256,192,40109,1,0,0:0:0:0:
256,192,40293,1,8,0:0:0:0:
256,192,40477,1,8,0:0:0:0:
256,192,40569,1,8,0:0:0:0:
256,192,40661,1,0,0:0:0:0:
256,192,40845,1,0,0:0:0:0:
256,192,40937,1,0,0:0:0:0:
256,192,41029,1,8,0:0:0:0:
256,192,41213,1,0,0:0:0:0:
256,192,41397,5,8,0:0:0:0:
256,192,41582,1,0,0:0:0:0:
256,192,41674,1,0,0:0:0:0:
256,192,41766,1,8,0:0:0:0:
256,192,41950,1,8,0:0:0:0:
256,192,42042,1,8,0:0:0:0:
256,192,42134,1,0,0:0:0:0:
256,192,42318,1,0,0:0:0:0:
256,192,42502,1,8,0:0:0:0:
256,192,42686,1,0,0:0:0:0:
256,192,42962,1,8,0:0:0:0:
256,192,43054,1,0,0:0:0:0:
256,192,43238,1,8,0:0:0:0:
256,192,43422,1,8,0:0:0:0:
256,192,43514,1,8,0:0:0:0:
256,192,43606,1,0,0:0:0:0:
256,192,43790,1,0,0:0:0:0:
256,192,43882,1,0,0:0:0:0:
256,192,43974,1,8,0:0:0:0:
256,192,44158,1,0,0:0:0:0:
256,192,44342,1,8,0:0:0:0:
256,192,44434,1,8,0:0:0:0:
256,192,44618,1,8,0:0:0:0:
256,192,44710,1,0,0:0:0:0:
256,192,44894,1,8,0:0:0:0:
256,192,45078,1,0,0:0:0:0:
256,192,45170,1,0,0:0:0:0:
256,192,45355,1,0,0:0:0:0:
256,192,45447,1,8,0:0:0:0:
256,192,45631,1,0,0:0:0:0:
256,192,45999,1,0,0:0:0:0:
256,192,46367,1,0,0:0:0:0:
256,192,46735,1,0,0:0:0:0:
259,198,47103,5,8,0:0:0:0:
256,192,47287,1,0,0:0:0:0:
256,198,47471,1,0,0:0:0:0:
256,200,47655,1,0,0:0:0:0:
259,198,48023,1,0,0:0:0:0:
256,200,48207,1,0,0:0:0:0:
256,198,48391,1,0,0:0:0:0:
256,200,48575,1,8,0:0:0:0:
256,200,48667,1,8,0:0:0:0:
259,198,48759,1,0,0:0:0:0:
259,198,48944,1,0,0:0:0:0:
256,200,49128,1,0,0:0:0:0:
256,200,49496,1,0,0:0:0:0:
256,200,49680,1,0,0:0:0:0:
259,198,49864,1,0,0:0:0:0:
256,200,50048,1,8,0:0:0:0:
256,200,50140,1,8,0:0:0:0:
259,198,50232,1,0,0:0:0:0:
259,198,50416,1,0,0:0:0:0:
256,200,50600,1,0,0:0:0:0:
256,200,50968,1,0,0:0:0:0:
256,200,51152,1,0,0:0:0:0:
259,198,51336,1,0,0:0:0:0:
256,200,51520,1,8,0:0:0:0:
256,200,51612,1,8,0:0:0:0:
259,198,51704,1,0,0:0:0:0:
259,198,51888,1,0,0:0:0:0:
256,200,52072,1,0,0:0:0:0:
256,200,52440,1,0,0:0:0:0:
256,200,52624,1,0,0:0:0:0:
259,198,52809,1,0,0:0:0:0:
256,200,52993,1,8,0:0:0:0:
256,200,53085,1,8,0:0:0:0:
259,198,53177,1,0,0:0:0:0:
256,200,53269,1,0,0:0:0:0:
256,200,53361,1,8,0:0:0:0:
256,200,53545,1,0,0:0:0:0:
256,200,53637,1,0,0:0:0:0:
259,198,53729,1,8,0:0:0:0:
256,200,53913,1,8,0:0:0:0:
256,200,54005,1,0,0:0:0:0:
256,200,54097,1,8,0:0:0:0:
259,198,54189,1,0,0:0:0:0:
256,200,54281,1,8,0:0:0:0:
256,200,54465,1,0,0:0:0:0:
256,200,54649,1,8,0:0:0:0:
259,198,54741,1,8,0:0:0:0:
256,200,54833,1,0,0:0:0:0:
256,200,55017,1,8,0:0:0:0:
256,200,55109,1,8,0:0:0:0:
259,198,55201,1,0,0:0:0:0:
256,200,55385,1,8,0:0:0:0:
256,200,55477,1,0,0:0:0:0:
256,200,55569,1,8,0:0:0:0:
256,200,55661,1,0,0:0:0:0:
259,198,55753,1,8,0:0:0:0:
256,200,55937,1,0,0:0:0:0:
144,176,56121,2,4,P|198:98|549:288,1,612.5
249,192,57594,1,0,0:0:0:0:
249,192,57962,1,8,0:0:0:0:
249,192,58330,1,0,0:0:0:0:
249,192,58698,1,8,0:0:0:0:
249,192,58882,1,0,0:0:0:0:
249,192,59066,1,12,0:0:0:0:
249,192,59250,1,0,0:0:0:0:
249,192,59342,1,0,0:0:0:0:
249,192,59434,1,8,0:0:0:0:
249,192,59618,1,0,0:0:0:0:
249,192,59802,1,8,0:0:0:0:
249,192,59986,1,8,0:0:0:0:
249,192,60078,1,0,0:0:0:0:
249,192,60170,1,8,0:0:0:0:
249,192,60539,1,0,0:0:0:0:
249,192,60723,1,8,0:0:0:0:
249,192,60907,1,8,0:0:0:0:
249,192,60999,1,8,0:0:0:0:
249,192,61091,1,0,0:0:0:0:
249,192,61275,1,8,0:0:0:0:
263,194,61459,1,0,0:0:0:0:
263,194,61643,1,0,0:0:0:0:
263,194,61827,1,0,0:0:0:0:
252,193,62011,1,4,0:0:0:0:
258,192,62287,1,0,0:0:0:0:
263,194,62379,1,8,0:0:0:0:
263,194,62563,1,8,0:0:0:0:
255,190,62747,1,0,0:0:0:0:
252,193,62931,1,8,0:0:0:0:
252,193,63023,1,0,0:0:0:0:
258,192,63115,1,8,0:0:0:0:
258,192,63299,1,8,0:0:0:0:
256,191,63483,1,0,0:0:0:0:
252,193,63851,1,0,0:0:0:0:
252,193,64036,1,0,0:0:0:0:
258,192,64220,1,8,0:0:0:0:
256,191,64404,1,0,0:0:0:0:
252,193,64588,1,8,0:0:0:0:
252,193,64772,1,0,0:0:0:0:
249,192,64956,1,12,0:0:0:0:
249,192,65140,1,0,0:0:0:0:
249,192,65232,1,0,0:0:0:0:
249,192,65324,1,8,0:0:0:0:
249,192,65508,1,0,0:0:0:0:
249,192,65692,1,8,0:0:0:0:
249,192,65876,1,8,0:0:0:0:
249,192,65968,1,0,0:0:0:0:
249,192,66060,1,8,0:0:0:0:
249,192,66428,1,0,0:0:0:0:
249,192,66612,1,8,0:0:0:0:
249,192,66796,1,8,0:0:0:0:
249,192,66888,1,8,0:0:0:0:
249,192,66980,1,0,0:0:0:0:
249,192,67164,1,8,0:0:0:0:
263,194,67348,1,0,0:0:0:0:
263,194,67532,1,0,0:0:0:0:
263,194,67717,1,0,0:0:0:0:
252,193,67901,1,4,0:0:0:0:
258,192,68177,1,0,0:0:0:0:
263,194,68269,1,8,0:0:0:0:
263,194,68453,1,8,0:0:0:0:
255,190,68637,1,0,0:0:0:0:
258,192,69005,1,8,0:0:0:0:
263,194,69373,1,0,0:0:0:0:
263,190,69557,1,0,0:0:0:0:
258,192,69741,1,8,0:0:0:0:
258,192,69925,1,0,0:0:0:0:
263,194,70293,1,8,0:0:0:0:
263,190,70477,1,8,0:0:0:0:
258,192,70661,1,0,0:0:0:0:
256,192,70845,12,0,72134,0:0:0:0:
256,192,72318,5,12,0:0:0:0:
256,192,75263,1,8,0:0:0:0:
256,192,78207,1,4,0:0:0:0:
256,192,81152,1,8,0:0:0:0:
256,192,82624,1,8,0:0:0:0:
256,192,84097,1,4,0:0:0:0:
256,192,84465,1,8,0:0:0:0:
256,192,84833,1,8,0:0:0:0:
256,192,85017,1,8,0:0:0:0:
256,192,85201,1,8,0:0:0:0:
256,192,85385,1,0,0:0:0:0:
256,192,85477,1,0,0:0:0:0:
256,192,85569,1,8,0:0:0:0:
256,192,85937,1,8,0:0:0:0:
256,192,86305,1,8,0:0:0:0:
256,192,86490,1,8,0:0:0:0:
256,192,86674,1,8,0:0:0:0:
256,192,86858,1,0,0:0:0:0:
256,192,86950,1,0,0:0:0:0:
256,192,87042,1,8,0:0:0:0:
256,192,87410,1,8,0:0:0:0:
256,192,87778,1,8,0:0:0:0:
256,192,87962,1,8,0:0:0:0:
256,192,88146,1,8,0:0:0:0:
256,192,88330,1,0,0:0:0:0:
256,192,88422,1,0,0:0:0:0:
256,192,88514,1,8,0:0:0:0:
256,192,88882,1,8,0:0:0:0:
256,192,89250,1,8,0:0:0:0:
256,192,89434,1,8,0:0:0:0:
256,192,89618,1,8,0:0:0:0:
256,192,89802,1,0,0:0:0:0:
256,192,89894,1,0,0:0:0:0:
256,192,89986,1,12,0:0:0:0:
256,192,90355,1,8,0:0:0:0:
256,192,90447,1,8,0:0:0:0:
256,192,90539,1,0,0:0:0:0:
256,192,90723,1,8,0:0:0:0:
256,192,90815,1,8,0:0:0:0:
256,192,90907,1,0,0:0:0:0:
256,192,91091,1,0,0:0:0:0:
256,192,91183,1,0,0:0:0:0:
256,192,91275,1,8,0:0:0:0:
256,192,91459,1,0,0:0:0:0:
256,192,91551,1,0,0:0:0:0:
256,192,91643,1,8,0:0:0:0:
256,192,91827,1,0,0:0:0:0:
256,192,91919,1,0,0:0:0:0:
256,192,92011,1,8,0:0:0:0:
256,192,92103,1,8,0:0:0:0:
256,192,92195,1,0,0:0:0:0:
256,192,92379,1,8,0:0:0:0:
256,192,92563,1,0,0:0:0:0:
256,192,92655,1,0,0:0:0:0:
256,192,92747,1,0,0:0:0:0:
429,81,92931,6,4,P|96:186|171:363,1,612.5
256,192,94404,12,0,95508,0:0:0:0:
256,192,95876,5,12,0:0:0:0:
256,192,96060,1,0,0:0:0:0:
256,192,96152,1,0,0:0:0:0:
256,192,96244,1,8,0:0:0:0:
256,192,96428,1,8,0:0:0:0:
256,192,96520,1,8,0:0:0:0:
256,192,96612,1,0,0:0:0:0:
256,192,96796,1,0,0:0:0:0:
256,192,96980,1,8,0:0:0:0:
256,192,97164,1,0,0:0:0:0:
256,192,97440,1,8,0:0:0:0:
256,192,97532,1,0,0:0:0:0:
256,192,97717,1,8,0:0:0:0:
256,192,97901,1,8,0:0:0:0:
256,192,97993,1,8,0:0:0:0:
256,192,98085,1,0,0:0:0:0:
256,192,98269,1,0,0:0:0:0:
256,192,98361,1,0,0:0:0:0:
256,192,98453,1,8,0:0:0:0:
256,192,98637,1,0,0:0:0:0:
256,192,98821,5,12,0:0:0:0:
256,192,99005,1,0,0:0:0:0:
256,192,99097,1,0,0:0:0:0:
256,192,99189,1,8,0:0:0:0:
256,192,99373,1,8,0:0:0:0:
256,192,99465,1,8,0:0:0:0:
256,192,99557,1,0,0:0:0:0:
256,192,99741,1,0,0:0:0:0:
256,192,99925,1,8,0:0:0:0:
256,192,100109,1,0,0:0:0:0:
256,192,100385,1,8,0:0:0:0:
256,192,100477,1,0,0:0:0:0:
256,192,100661,1,8,0:0:0:0:
256,192,100845,1,8,0:0:0:0:
256,192,100937,1,8,0:0:0:0:
256,192,101029,1,0,0:0:0:0:
256,192,101213,1,0,0:0:0:0:
256,192,101305,1,0,0:0:0:0:
256,192,101397,1,8,0:0:0:0:
256,192,101582,1,0,0:0:0:0:
256,192,101766,5,12,0:0:0:0:
256,192,101950,1,0,0:0:0:0:
256,192,102042,1,0,0:0:0:0:
256,192,102134,1,8,0:0:0:0:
256,192,102318,1,8,0:0:0:0:
256,192,102410,1,8,0:0:0:0:
256,192,102502,1,0,0:0:0:0:
256,192,102686,1,0,0:0:0:0:
256,192,102870,1,8,0:0:0:0:
256,192,103054,1,0,0:0:0:0:
256,192,103330,1,8,0:0:0:0:
256,192,103422,1,0,0:0:0:0:
256,192,103606,1,8,0:0:0:0:
256,192,103790,1,8,0:0:0:0:
256,192,103882,1,8,0:0:0:0:
256,192,103974,1,0,0:0:0:0:
256,192,104158,1,0,0:0:0:0:
256,192,104250,1,0,0:0:0:0:
256,192,104342,1,8,0:0:0:0:
256,192,104526,1,0,0:0:0:0:
256,192,104710,1,8,0:0:0:0:
256,192,104802,1,8,0:0:0:0:
256,192,104986,1,8,0:0:0:0:
256,192,105078,1,0,0:0:0:0:
256,192,105263,1,8,0:0:0:0:
256,192,105447,1,0,0:0:0:0:
256,192,105539,1,0,0:0:0:0:
256,192,105723,1,0,0:0:0:0:
256,192,105815,1,8,0:0:0:0:
256,192,105999,1,0,0:0:0:0:
256,192,106367,1,8,0:0:0:0:
256,192,106735,1,8,0:0:0:0:
256,192,107103,1,8,0:0:0:0:
256,192,107287,1,0,0:0:0:0:
256,192,107655,5,12,0:0:0:0:
256,192,107839,1,0,0:0:0:0:
256,192,108023,1,8,0:0:0:0:
256,192,108115,1,8,0:0:0:0:
256,192,108207,1,0,0:0:0:0:
256,192,108391,1,8,0:0:0:0:
256,192,108575,1,0,0:0:0:0:
256,192,108759,1,8,0:0:0:0:
256,192,108851,1,8,0:0:0:0:
256,192,108944,1,0,0:0:0:0:
256,192,109128,1,8,0:0:0:0:
256,192,109312,1,0,0:0:0:0:
256,192,109496,1,8,0:0:0:0:
256,192,109588,1,8,0:0:0:0:
256,192,109680,1,0,0:0:0:0:
256,192,109864,1,8,0:0:0:0:
261,186,110232,1,8,0:0:0:0:
256,192,110416,1,8,0:0:0:0:
256,192,110600,1,0,0:0:0:0:
256,192,110784,1,8,0:0:0:0:
256,192,110968,1,0,0:0:0:0:
256,192,111060,1,0,0:0:0:0:
256,192,111152,1,8,0:0:0:0:
256,192,111336,1,0,0:0:0:0:
256,192,111520,1,8,0:0:0:0:
256,192,111704,1,0,0:0:0:0:
256,192,111796,1,0,0:0:0:0:
256,192,111888,1,8,0:0:0:0:
256,192,112072,1,0,0:0:0:0:
256,192,112256,1,8,0:0:0:0:
256,192,112440,1,0,0:0:0:0:
256,192,112532,1,0,0:0:0:0:
256,192,112624,1,8,0:0:0:0:
256,192,112809,1,0,0:0:0:0:
261,186,113177,1,0,0:0:0:0:
256,192,113361,1,0,0:0:0:0:
256,192,113545,1,8,0:0:0:0:
261,186,114097,1,8,0:0:0:0:
256,192,114649,1,8,0:0:0:0:
256,192,115017,1,8,0:0:0:0:
261,186,115569,1,8,0:0:0:0:
256,192,116121,1,8,0:0:0:0:
254,192,116490,1,0,0:0:0:0:
256,192,116858,1,0,0:0:0:0:
254,192,117226,1,0,0:0:0:0:
256,192,117594,1,0,0:0:0:0:
254,192,117962,1,0,0:0:0:0:
256,192,118330,1,0,0:0:0:0:
254,192,118698,1,0,0:0:0:0:
256,192,119066,1,0,0:0:0:0:
256,192,119434,1,4,0:0:0:0:
256,192,119802,1,8,0:0:0:0:
256,192,119986,1,8,0:0:0:0:
256,192,120170,1,0,0:0:0:0:
256,192,120355,1,0,0:0:0:0:
256,192,120447,1,8,0:0:0:0:
256,192,120539,1,0,0:0:0:0:
256,192,120723,1,8,0:0:0:0:
256,192,120907,1,0,0:0:0:0:
256,192,121091,1,8,0:0:0:0:
256,192,121275,1,0,0:0:0:0:
256,192,121459,1,0,0:0:0:0:
256,192,121827,1,8,0:0:0:0:
256,192,122011,1,0,0:0:0:0:
256,192,122195,1,0,0:0:0:0:
256,192,122379,1,8,0:0:0:0:
256,192,122471,1,8,0:0:0:0:
256,192,122655,1,0,0:0:0:0:
256,192,122747,1,8,0:0:0:0:
256,192,122931,1,8,0:0:0:0:
256,192,123115,1,0,0:0:0:0:
256,192,123299,1,8,0:0:0:0:
256,192,123391,1,0,0:0:0:0:
256,192,123483,1,8,0:0:0:0:
256,192,123667,1,8,0:0:0:0:
256,192,123851,1,0,0:0:0:0:
256,192,124036,1,8,0:0:0:0:
256,192,124220,1,0,0:0:0:0:
256,192,124404,1,0,0:0:0:0:
256,192,124772,1,8,0:0:0:0:
256,192,124956,1,0,0:0:0:0:
256,192,125140,1,0,0:0:0:0:
256,192,125324,1,12,0:0:0:0:
256,192,125692,1,8,0:0:0:0:
256,192,125876,1,8,0:0:0:0:
256,192,126060,1,0,0:0:0:0:
256,192,126244,1,8,0:0:0:0:
256,192,126336,1,0,0:0:0:0:
256,192,126428,1,8,0:0:0:0:
256,192,126612,1,0,0:0:0:0:
256,192,126796,1,0,0:0:0:0:
256,192,126980,1,8,0:0:0:0:
256,192,127164,1,0,0:0:0:0:
256,192,127348,1,0,0:0:0:0:
256,192,127717,1,8,0:0:0:0:
256,192,127901,1,0,0:0:0:0:
256,192,128085,1,8,0:0:0:0:
256,192,128269,1,0,0:0:0:0:
250,195,128637,1,0,0:0:0:0:
256,192,129005,1,0,0:0:0:0:
256,192,129189,1,8,0:0:0:0:
250,195,129373,1,0,0:0:0:0:
256,190,130661,1,8,0:0:0:0:
256,190,130845,1,0,0:0:0:0:
256,190,131029,1,0,0:0:0:0:
256,190,131213,1,12,0:0:0:0:
256,192,131582,1,0,0:0:0:0:
256,192,131766,1,8,0:0:0:0:
256,192,132134,1,8,0:0:0:0:
256,192,132318,1,0,0:0:0:0:
256,192,132502,1,8,0:0:0:0:
256,192,132870,1,0,0:0:0:0:
256,192,133054,1,8,0:0:0:0:
256,192,133238,1,0,0:0:0:0:
256,192,133606,1,0,0:0:0:0:
256,192,133790,1,8,0:0:0:0:
256,192,133974,1,0,0:0:0:0:
256,192,134342,1,8,0:0:0:0:
256,192,134710,1,8,0:0:0:0:
256,192,135078,1,8,0:0:0:0:
256,192,135447,1,8,0:0:0:0:
256,192,135815,1,0,0:0:0:0:
256,192,135999,1,8,0:0:0:0:
256,192,136183,1,0,0:0:0:0:
256,192,136551,1,8,0:0:0:0:
256,192,136735,1,0,0:0:0:0:
256,192,136919,1,8,0:0:0:0:
256,192,137287,1,8,0:0:0:0:
256,192,137655,1,8,0:0:0:0:
256,192,137839,1,0,0:0:0:0:
256,192,138023,1,8,0:0:0:0:
256,192,138391,1,8,0:0:0:0:
256,192,138759,1,8,0:0:0:0:
256,192,138944,1,0,0:0:0:0:
256,192,139128,1,0,0:0:0:0:
256,192,139496,1,0,0:0:0:0:
256,192,139680,1,0,0:0:0:0:
256,192,139864,1,8,0:0:0:0:
256,192,140232,1,0,0:0:0:0:
256,192,140600,1,0,0:0:0:0:
256,192,140968,1,0,0:0:0:0:
256,192,141336,1,0,0:0:0:0:
256,192,141704,1,8,0:0:0:0:
256,192,142072,1,8,0:0:0:0:
256,192,142440,1,8,0:0:0:0:
256,192,142809,1,8,0:0:0:0:
256,192,142993,5,0,0:0:0:0:
256,198,143177,1,0,0:0:0:0:
256,200,143361,1,0,0:0:0:0:
259,198,143729,1,0,0:0:0:0:
256,200,143913,1,0,0:0:0:0:
256,198,144097,1,0,0:0:0:0:
256,200,144281,1,8,0:0:0:0:
256,200,144373,1,8,0:0:0:0:
259,198,144465,1,0,0:0:0:0:
259,198,144649,1,0,0:0:0:0:
256,200,144833,1,0,0:0:0:0:
256,200,145201,1,0,0:0:0:0:
256,200,145385,1,0,0:0:0:0:
259,198,145569,1,0,0:0:0:0:
256,200,145753,1,8,0:0:0:0:
256,200,145845,1,8,0:0:0:0:
259,198,145937,1,0,0:0:0:0:
259,198,146121,1,0,0:0:0:0:
256,200,146305,1,0,0:0:0:0:
256,200,146674,1,0,0:0:0:0:
256,200,146858,1,0,0:0:0:0:
259,198,147042,1,0,0:0:0:0:
256,200,147226,1,8,0:0:0:0:
256,200,147318,1,8,0:0:0:0:
259,198,147410,1,0,0:0:0:0:
259,198,147594,1,0,0:0:0:0:
256,200,147778,1,0,0:0:0:0:
256,200,148146,1,0,0:0:0:0:
256,200,148330,1,0,0:0:0:0:
259,198,148514,1,0,0:0:0:0:
256,200,148698,1,8,0:0:0:0:
256,200,148790,1,8,0:0:0:0:
259,198,148882,1,0,0:0:0:0:
256,200,148974,1,0,0:0:0:0:
256,200,149066,1,8,0:0:0:0:
256,200,149250,1,0,0:0:0:0:
256,200,149342,1,0,0:0:0:0:
259,198,149434,1,8,0:0:0:0:
256,200,149618,1,8,0:0:0:0:
256,200,149710,1,0,0:0:0:0:
256,200,149802,1,8,0:0:0:0:
259,198,149894,1,0,0:0:0:0:
256,200,149986,1,8,0:0:0:0:
256,200,150170,1,0,0:0:0:0:
256,200,150355,1,8,0:0:0:0:
259,198,150447,1,8,0:0:0:0:
256,200,150539,1,0,0:0:0:0:
256,200,150723,1,8,0:0:0:0:
256,200,150815,1,8,0:0:0:0:
259,198,150907,1,0,0:0:0:0:
256,200,151091,1,8,0:0:0:0:
256,200,151183,1,0,0:0:0:0:
256,200,151275,1,8,0:0:0:0:
256,200,151367,1,0,0:0:0:0:
259,198,151459,1,8,0:0:0:0:
256,200,151643,1,0,0:0:0:0:
23,168,151827,2,4,P|249:75|639:236,1,661.500002523422
249,192,153299,1,0,0:0:0:0:
249,192,153667,1,0,0:0:0:0:
249,192,154036,1,8,0:0:0:0:
249,192,154404,1,0,0:0:0:0:
256,192,154772,12,0,156244,0:0:0:0:
