osu file format v14

[General]
AudioFilename: audio.mp3
AudioLeadIn: 0
PreviewTime: 95784
Countdown: 0
SampleSet: Normal
StackLeniency: 0.7
Mode: 1
LetterboxInBreaks: 0
WidescreenStoryboard: 0

[Editor]
Bookmarks: 23729,47287,107655
DistanceSpacing: 0.8
BeatDivisor: 4
GridSize: 32
TimelineZoom: 0.6999999

[Metadata]
Title:Cosmic Blaster
TitleUnicode:Cosmic Blaster
Artist:F-777
ArtistUnicode:F-777
Creator:Nardoxyribonucleic
Version:Kantan
Source:osu!
Tags:Taiko Featured Artist FA Mappers' Guild MG F777 Jesse Valentine Electronic Instrumental Faputa Vulkin salchow
BeatmapID:2443210
BeatmapSetID:1142117

[Difficulty]
HPDrainRate:8
CircleSize:5
OverallDifficulty:3
ApproachRate:3
SliderMultiplier:1.4
SliderTickRate:1

[Events]
//Background and Video events
0,0,"bg.jpg",0,0
//Break Periods
//Storyboard Layer 0 (Background)
//Storyboard Layer 1 (Fail)
//Storyboard Layer 2 (Pass)
//Storyboard Layer 3 (Foreground)
//Storyboard Layer 4 (Overlay)
//Storyboard Sound Samples

[TimingPoints]
171,368.098159509202,4,1,0,80,1,0
11950,-100,4,1,0,70,0,0
35508,-100,4,1,0,80,0,0
59066,-95.2380952380952,4,1,0,80,0,1
59802,-86.9565217391304,4,1,0,80,0,1
60539,-95.2380952380952,4,1,0,80,0,1
61275,-86.9565217391304,4,1,0,80,0,1
62011,-95.2380952380952,4,1,0,80,0,1
62747,-86.9565217391304,4,1,0,80,0,1
63483,-95.2380952380952,4,1,0,80,0,1
64220,-86.9565217391304,4,1,0,80,0,1
64588,-90.9090909090909,4,1,0,80,0,1
64956,-95.2380952380952,4,1,0,80,0,1
65692,-86.9565217391304,4,1,0,80,0,1
66428,-95.2380952380952,4,1,0,80,0,1
67164,-86.9565217391304,4,1,0,80,0,1
67901,-95.2380952380952,4,1,0,80,0,1
68637,-86.9565217391304,4,1,0,80,0,1
70845,-100,4,1,0,80,0,1
72318,-88.8888888888889,4,1,0,70,0,0
73790,-95.2380952380952,4,1,0,70,0,0
75263,-102.564102564103,4,1,0,70,0,0
84097,-100,4,1,0,80,0,0
95876,-100,4,1,0,90,0,1
119434,-100,4,1,0,80,0,0
131213,-100,4,1,0,70,0,0
142993,-100,4,1,0,80,0,0
154772,-88.8888888888889,4,1,0,80,0,0

[HitObjects]
256,192,171,5,8,0:0:0:0:
256,192,907,1,8,0:0:0:0:
256,192,1643,1,0,0:0:0:0:
256,192,2011,1,0,0:0:0:0:
256,192,2747,1,8,0:0:0:0:
256,192,3115,1,0,0:0:0:0:
256,192,3851,1,8,0:0:0:0:
256,192,4588,1,0,0:0:0:0:
256,192,4956,1,0,0:0:0:0:
256,192,5692,1,8,0:0:0:0:
256,192,6060,1,0,0:0:0:0:
256,192,6796,1,0,0:0:0:0:
256,192,7164,1,8,0:0:0:0:
256,192,7532,1,0,0:0:0:0:
256,192,8269,1,0,0:0:0:0:
256,192,8637,1,0,0:0:0:0:
256,192,9005,1,8,0:0:0:0:
256,192,9373,1,8,0:0:0:0:
256,192,9741,1,0,0:0:0:0:
256,192,10477,1,0,0:0:0:0:
256,192,11950,1,4,0:0:0:0:
256,192,12686,1,8,0:0:0:0:
256,192,13422,1,0,0:0:0:0:
256,192,14526,1,8,0:0:0:0:
256,192,14894,1,0,0:0:0:0:
256,192,15631,1,8,0:0:0:0:
256,192,16367,1,0,0:0:0:0:
256,192,16735,1,0,0:0:0:0:
256,192,17471,1,8,0:0:0:0:
256,192,17839,1,0,0:0:0:0:
256,192,18575,1,8,0:0:0:0:
256,192,19312,1,0,0:0:0:0:
256,192,20416,1,8,0:0:0:0:
256,192,20784,1,0,0:0:0:0:
256,192,21152,1,8,0:0:0:0:
256,192,22256,1,0,0:0:0:0:
256,192,23729,1,4,0:0:0:0:
256,192,24465,1,0,0:0:0:0:
256,192,24833,1,8,0:0:0:0:
256,192,25201,1,0,0:0:0:0:
256,192,26305,1,8,0:0:0:0:
256,192,26674,1,0,0:0:0:0:
256,192,27410,1,8,0:0:0:0:
256,192,28146,1,0,0:0:0:0:
256,192,28514,1,0,0:0:0:0:
256,192,29250,1,8,0:0:0:0:
256,192,29618,1,0,0:0:0:0:
256,192,30355,1,0,0:0:0:0:
256,192,30723,1,8,0:0:0:0:
256,192,31091,1,0,0:0:0:0:
256,192,32195,1,8,0:0:0:0:
256,192,32563,1,0,0:0:0:0:
256,192,32931,1,8,0:0:0:0:
256,192,33667,1,8,0:0:0:0:
256,192,34036,1,0,0:0:0:0:
256,192,35508,1,4,0:0:0:0:
256,192,36244,1,8,0:0:0:0:
256,192,36612,1,0,0:0:0:0:
256,192,36980,1,0,0:0:0:0:
256,192,37717,1,8,0:0:0:0:
256,192,38453,1,0,0:0:0:0:
256,192,39189,1,8,0:0:0:0:
256,192,39557,1,0,0:0:0:0:
256,192,39925,1,8,0:0:0:0:
256,192,40661,1,8,0:0:0:0:
256,192,41397,1,0,0:0:0:0:
256,192,42134,1,8,0:0:0:0:
256,192,42502,1,0,0:0:0:0:
256,192,42870,1,0,0:0:0:0:
256,192,43606,1,8,0:0:0:0:
256,192,44342,1,8,0:0:0:0:
256,192,45447,1,8,0:0:0:0:
256,192,45815,1,0,0:0:0:0:
256,192,47287,1,8,0:0:0:0:
256,192,48023,1,8,0:0:0:0:
256,192,48759,1,0,0:0:0:0:
256,192,49128,1,0,0:0:0:0:
256,192,49864,1,8,0:0:0:0:
256,192,50232,1,0,0:0:0:0:
256,192,50968,1,8,0:0:0:0:
256,192,51704,1,0,0:0:0:0:
256,192,52072,1,0,0:0:0:0:
256,192,52809,1,8,0:0:0:0:
256,192,53177,1,0,0:0:0:0:
256,192,53913,1,0,0:0:0:0:
256,192,54281,1,8,0:0:0:0:
256,192,54649,1,0,0:0:0:0:
256,192,55385,1,0,0:0:0:0:
256,192,56121,1,8,0:0:0:0:
256,192,56490,1,8,0:0:0:0:
256,192,56858,1,0,0:0:0:0:
256,192,57226,1,0,0:0:0:0:
256,192,57594,1,8,0:0:0:0:
256,192,58698,1,0,0:0:0:0:
256,192,59066,1,4,0:0:0:0:
256,192,59802,1,12,0:0:0:0:
256,192,60539,1,0,0:0:0:0:
256,192,61275,1,12,0:0:0:0:
256,192,62011,1,0,0:0:0:0:
256,192,62747,1,12,0:0:0:0:
256,192,63483,1,0,0:0:0:0:
256,192,64220,1,12,0:0:0:0:
256,192,64588,1,12,0:0:0:0:
256,192,64956,1,4,0:0:0:0:
256,192,65692,1,12,0:0:0:0:
256,192,66428,1,0,0:0:0:0:
256,192,67164,1,12,0:0:0:0:
256,192,67901,1,0,0:0:0:0:
256,192,68637,1,12,0:0:0:0:
256,192,70845,12,0,72134,0:0:0:0:
256,192,72318,5,4,0:0:0:0:
256,192,75263,1,8,0:0:0:0:
256,192,78207,1,4,0:0:0:0:
256,192,79680,1,8,0:0:0:0:
256,192,81152,1,0,0:0:0:0:
256,192,82624,1,8,0:0:0:0:
256,192,83361,1,8,0:0:0:0:
256,192,84097,1,4,0:0:0:0:
256,192,84833,1,0,0:0:0:0:
256,192,85201,1,0,0:0:0:0:
256,192,85569,1,0,0:0:0:0:
256,192,86305,1,0,0:0:0:0:
256,192,87042,1,8,0:0:0:0:
256,192,87778,1,0,0:0:0:0:
256,192,88146,1,0,0:0:0:0:
256,192,88514,1,0,0:0:0:0:
256,192,89250,1,0,0:0:0:0:
256,192,89986,1,8,0:0:0:0:
256,192,90355,1,0,0:0:0:0:
256,192,91091,1,0,0:0:0:0:
256,192,91459,1,8,0:0:0:0:
256,192,91827,1,0,0:0:0:0:
256,192,92563,1,0,0:0:0:0:
256,192,92931,1,8,0:0:0:0:
256,192,93667,1,8,0:0:0:0:
256,192,94036,1,8,0:0:0:0:
256,192,94404,1,0,0:0:0:0:
256,192,95876,1,4,0:0:0:0:
256,192,96612,1,8,0:0:0:0:
256,192,96980,1,0,0:0:0:0:
256,192,97348,1,0,0:0:0:0:
256,192,98085,1,8,0:0:0:0:
256,192,98821,1,0,0:0:0:0:
256,192,99557,1,8,0:0:0:0:
256,192,99925,1,0,0:0:0:0:
256,192,100293,1,8,0:0:0:0:
256,192,101029,1,8,0:0:0:0:
256,192,101766,1,0,0:0:0:0:
256,192,102502,1,8,0:0:0:0:
256,192,102870,1,0,0:0:0:0:
256,192,103238,1,0,0:0:0:0:
256,192,103974,1,8,0:0:0:0:
256,192,104710,1,8,0:0:0:0:
256,192,105815,1,8,0:0:0:0:
256,192,106183,1,0,0:0:0:0:
256,192,107655,1,12,0:0:0:0:
256,192,108391,1,8,0:0:0:0:
256,192,108759,1,8,0:0:0:0:
256,192,109128,1,8,0:0:0:0:
256,192,109496,1,8,0:0:0:0:
256,192,109864,1,0,0:0:0:0:
256,192,110600,1,0,0:0:0:0:
256,192,111336,1,0,0:0:0:0:
256,192,111704,1,0,0:0:0:0:
256,192,112072,1,0,0:0:0:0:
256,192,112440,1,0,0:0:0:0:
256,192,112809,1,8,0:0:0:0:
256,192,113545,1,8,0:0:0:0:
256,192,114281,1,8,0:0:0:0:
256,192,114649,1,8,0:0:0:0:
256,192,115017,1,8,0:0:0:0:
256,192,115385,1,8,0:0:0:0:
256,192,115753,1,0,0:0:0:0:
256,192,116490,1,8,0:0:0:0:
256,192,117594,1,8,0:0:0:0:
256,192,117962,1,0,0:0:0:0:
256,192,119434,1,4,0:0:0:0:
256,192,120170,1,0,0:0:0:0:
256,192,120539,1,8,0:0:0:0:
256,192,120907,1,0,0:0:0:0:
256,192,122011,1,8,0:0:0:0:
256,192,122379,1,0,0:0:0:0:
256,192,123115,1,8,0:0:0:0:
256,192,123851,1,0,0:0:0:0:
256,192,124220,1,0,0:0:0:0:
256,192,124956,1,8,0:0:0:0:
256,192,125324,1,0,0:0:0:0:
256,192,126060,1,0,0:0:0:0:
256,192,126428,1,8,0:0:0:0:
256,192,126796,1,0,0:0:0:0:
256,192,127901,1,8,0:0:0:0:
256,192,128269,1,0,0:0:0:0:
256,192,128637,1,8,0:0:0:0:
256,192,129373,1,8,0:0:0:0:
256,192,129741,1,0,0:0:0:0:
256,192,131213,1,4,0:0:0:0:
256,192,132686,1,8,0:0:0:0:
256,192,134158,1,0,0:0:0:0:
256,192,135631,1,8,0:0:0:0:
256,192,136367,1,0,0:0:0:0:
256,192,137103,1,0,0:0:0:0:
256,192,138575,1,8,0:0:0:0:
256,192,140048,1,0,0:0:0:0:
256,192,141520,1,8,0:0:0:0:
256,192,142256,1,8,0:0:0:0:
256,192,142993,1,0,0:0:0:0:
256,192,143729,1,0,0:0:0:0:
256,192,144097,1,0,0:0:0:0:
256,192,144465,1,0,0:0:0:0:
256,192,144833,1,0,0:0:0:0:
256,192,145201,1,0,0:0:0:0:
256,192,145937,1,8,0:0:0:0:
256,192,146674,1,8,0:0:0:0:
256,192,147042,1,8,0:0:0:0:
256,192,147410,1,8,0:0:0:0:
256,192,147778,1,8,0:0:0:0:
256,192,148146,1,8,0:0:0:0:
256,192,148882,1,0,0:0:0:0:
256,192,149618,1,0,0:0:0:0:
256,192,149986,1,8,0:0:0:0:
256,192,150355,1,0,0:0:0:0:
256,192,150723,1,8,0:0:0:0:
256,192,151091,1,0,0:0:0:0:
256,192,151827,1,8,0:0:0:0:
256,192,152931,1,8,0:0:0:0:
256,192,153299,1,0,0:0:0:0:
256,192,154772,2,0,L|320:192,16,39.3750015020371
