osu file format v14

[General]
AudioFilename: audio.mp3
AudioLeadIn: 0
PreviewTime: 95784
Countdown: 0
SampleSet: Normal
StackLeniency: 0.7
Mode: 1
LetterboxInBreaks: 0
WidescreenStoryboard: 0

[Editor]
Bookmarks: 23729,47287,107655,154772
DistanceSpacing: 0.8
BeatDivisor: 4
GridSize: 32
TimelineZoom: 1.7

[Metadata]
Title:Cosmic Blaster
TitleUnicode:Cosmic Blaster
Artist:F-777
ArtistUnicode:F-777
Creator:Nardoxyribonucleic
Version:Fapu's Inner Oni
Source:osu!
Tags:Taiko Featured Artist FA Mappers' Guild MG F777 Jesse Valentine Electronic Instrumental Faputa Vulkin salchow
BeatmapID:2432840
BeatmapSetID:1142117

[Difficulty]
HPDrainRate:6
CircleSize:2
OverallDifficulty:6.5
ApproachRate:10
SliderMultiplier:1.4
SliderTickRate:1

[Events]
//Background and Video events
0,0,"bg.jpg",0,0
//Break Periods
//Storyboard Layer 0 (Background)
//Storyboard Layer 1 (Fail)
//Storyboard Layer 2 (Pass)
//Storyboard Layer 3 (Foreground)
//Storyboard Layer 4 (Overlay)
//Storyboard Sound Samples

[TimingPoints]
171,368.098159509202,4,1,0,80,1,0
171,-125,4,1,0,80,0,0
6060,-125,4,1,0,80,0,0
6244,-123.081770605119,4,1,0,80,0,0
6336,-122.144714614982,4,1,0,80,0,0
6428,-121.221672010522,4,1,0,80,0,0
6520,-120.312475561528,4,1,0,80,0,0
6612,-119.416816037201,4,1,0,80,0,0
6796,-117.665054655418,4,1,0,80,0,0
6980,-115.963810014171,4,1,0,80,0,0
7072,-115.131635755741,4,1,0,80,0,0
7164,-114.31118935077,4,1,0,80,0,0
7256,-113.502353471299,4,1,0,80,0,0
7348,-112.704883389892,4,1,0,80,0,0
7532,-111.1432191522,4,1,0,80,0,0
7717,-109.624120814551,4,1,0,80,0,0
7809,-108.880038151565,4,1,0,80,0,0
7901,-108.14610538838,4,1,0,80,0,0
7993,-107.421885490419,4,1,0,80,0,0
8085,-106.707300806814,4,1,0,80,0,0
8177,-106.002160324027,4,1,0,80,0,0
8269,-105.306388938617,4,1,0,80,0,0
8453,-103.941676246624,4,1,0,80,0,0
8545,-103.272498946621,4,1,0,80,0,0
8637,-102.611988158577,4,1,0,80,0,0
8729,-101.959768714461,4,1,0,80,0,0
8821,-101.315788140582,4,1,0,80,0,0
8913,-100.679891305989,4,1,0,80,0,0
9005,-100,4,1,0,80,0,0
9097,-98.7654320987654,4,1,0,80,0,0
9189,-97.5609756097561,4,1,0,80,0,0
9281,-96.3855421686747,4,1,0,80,0,0
9373,-95.2380952380952,4,1,0,80,0,0
9465,-94.1176470588235,4,1,0,80,0,0
9557,-93.0232558139535,4,1,0,80,0,0
9649,-91.9540229885058,4,1,0,80,0,0
9741,-90.9090909090909,4,1,0,80,0,0
9833,-89.8876404494382,4,1,0,80,0,0
9925,-88.8888888888889,4,1,0,80,0,0
10017,-87.9120879120879,4,1,0,80,0,0
10109,-86.9565217391304,4,1,0,80,0,0
10170,-86.3309600952403,4,1,0,80,0,0
10232,-85.7142612244968,4,1,0,80,0,0
10293,-85.1063829787234,4,1,0,80,0,0
10355,-84.5070660583285,4,1,0,80,0,0
10416,-83.91606044306,4,1,0,80,0,0
10477,-83.3333333333333,4,1,0,80,0,0
11950,-100,4,1,0,70,0,0
35508,-100,4,1,0,80,0,0
47287,-125,4,1,0,80,0,0
53177,-125,4,1,0,80,0,0
53361,-123.076923076923,4,1,0,80,0,0
53453,-122.137404580153,4,1,0,80,0,0
53545,-121.212121212121,4,1,0,80,0,0
53729,-119.402985074627,4,1,0,80,0,0
53821,-118.518518518519,4,1,0,80,0,0
53913,-117.647058823529,4,1,0,80,0,0
54097,-115.942028985507,4,1,0,80,0,0
54189,-115.107913669065,4,1,0,80,0,0
54281,-114.285714285714,4,1,0,80,0,0
54465,-112.676056338028,4,1,0,80,0,0
54557,-111.888111888112,4,1,0,80,0,0
54649,-111.111111111111,4,1,0,80,0,0
54741,-110.344827586207,4,1,0,80,0,0
54833,-109.58904109589,4,1,0,80,0,0
55017,-108.108108108108,4,1,0,80,0,0
55201,-106.666666666667,4,1,0,80,0,0
55293,-105.960264900662,4,1,0,80,0,0
55385,-105.263157894737,4,1,0,80,0,0
55477,-104.575163398693,4,1,0,80,0,0
55569,-103.896103896104,4,1,0,80,0,0
55753,-102.564102564103,4,1,0,80,0,0
55937,-101.26582278481,4,1,0,80,0,0
56029,-100.62893081761,4,1,0,80,0,0
56121,-100,4,1,0,80,0,0
56213,-98.7717730027113,4,1,0,80,0,0
56305,-97.5733507664387,4,1,0,80,0,0
56397,-96.4035684744906,4,1,0,80,0,0
56490,-95.261593097726,4,1,0,80,0,0
56582,-94.1463561594312,4,1,0,80,0,0
56674,-93.0569294377221,4,1,0,80,0,0
56766,-91.9923425574055,4,1,0,80,0,0
56858,-90.9519209955233,4,1,0,80,0,0
56950,-89.9347703110934,4,1,0,80,0,0
57042,-88.9401183970856,4,1,0,80,0,0
57134,-87.9671495476729,4,1,0,80,0,0
57226,-87.0153138250801,4,1,0,80,0,0
57287,-86.3921182742656,4,1,0,80,0,0
57348,-85.7777857837045,4,1,0,80,0,0
57410,-85.1721286133211,4,1,0,80,0,0
57471,-84.5749642882213,4,1,0,80,0,0
57532,-83.9860448787829,4,1,0,80,0,0
57594,-83.4053399434845,4,1,0,80,0,0
57962,-90.9090909090909,4,1,0,80,0,0
58330,-100,4,1,0,80,0,0
58698,-111.111111111111,4,1,0,80,0,0
58882,-117.647058823529,4,1,0,80,0,0
59066,-125,4,1,0,80,0,1
72318,-100,4,1,0,70,0,0
84097,-100,4,1,0,80,0,0
89986,-100,4,1,0,80,0,0
90170,-98.7685536728074,4,1,0,80,0,0
90263,-98.1642307212813,4,1,0,80,0,0
90355,-97.5671627956895,4,1,0,80,0,0
90539,-96.3945544788284,4,1,0,80,0,0
90723,-95.2498880813815,4,1,0,80,0,0
90815,-94.6876443986577,4,1,0,80,0,0
90907,-94.1319994201469,4,1,0,80,0,0
90999,-93.5829252337935,4,1,0,80,0,0
91091,-93.0401328613097,4,1,0,80,0,0
91275,-91.9732210769512,4,1,0,80,0,0
91367,-91.4489723878973,4,1,0,80,0,0
91459,-90.9305835924855,4,1,0,80,0,0
91643,-89.9112396242429,4,1,0,80,0,0
91735,-89.4100901074888,4,1,0,80,0,0
91827,-88.9145753217596,4,1,0,80,0,0
92011,-87.9396874447629,4,1,0,80,0,0
92195,-86.9860213463696,4,1,0,80,0,0
92287,-86.5168655977796,4,1,0,80,0,0
92379,-86.0527434475138,4,1,0,80,0,0
92471,-85.5935743191887,4,1,0,80,0,0
92563,-85.1393518341145,4,1,0,80,0,0
92747,-84.2450756647147,4,1,0,80,0,0
92839,-83.8049456650635,4,1,0,80,0,0
92931,-83.3333333333333,4,1,0,80,0,0
93023,-82.6906888630526,4,1,0,80,0,0
93115,-82.0578130115792,4,1,0,80,0,0
93207,-81.4346173672351,4,1,0,80,0,0
93299,-80.8207508894324,4,1,0,80,0,0
93391,-80.2161343523991,4,1,0,80,0,0
93483,-79.6204334695639,4,1,0,80,0,0
93575,-79.0335774153649,4,1,0,80,0,0
93667,-78.4553091099951,4,1,0,80,0,0
93759,-77.8853807582609,4,1,0,80,0,0
93851,-77.3237328186666,4,1,0,80,0,0
93944,-76.7700682716217,4,1,0,80,0,0
94036,-76.2243343138324,4,1,0,80,0,0
94097,-75.8647634726337,4,1,0,80,0,0
94158,-75.5086261054463,4,1,0,80,0,0
94220,-75.1557603132492,4,1,0,80,0,0
94281,-74.806177194888,4,1,0,80,0,0
94342,-74.4598865975927,4,1,0,80,0,0
94404,-74.1167323711499,4,1,0,80,0,0
95876,-90.9090909090909,4,1,0,90,0,1
107655,-95.2380952380952,4,1,0,90,0,1
113729,-100,4,1,0,90,0,1
119434,-100,4,1,0,80,0,0
131213,-105.263157894737,4,1,0,70,0,0
142256,-106.382978723404,4,1,0,70,0,0
142440,-107.52688172043,4,1,0,70,0,0
142624,-108.695652173913,4,1,0,70,0,0
142809,-109.89010989011,4,1,0,70,0,0
142993,-111.111111111111,4,1,0,80,0,0
148882,-109.89010989011,4,1,0,80,0,0
149066,-108.695652173913,4,1,0,80,0,0
149158,-107.52688172043,4,1,0,80,0,0
149250,-106.382978723404,4,1,0,80,0,0
149434,-105.263157894737,4,1,0,80,0,0
149618,-104.166666666667,4,1,0,80,0,0
149710,-103.092783505155,4,1,0,80,0,0
149802,-102.040816326531,4,1,0,80,0,0
149986,-101.010101010101,4,1,0,80,0,0
150170,-100,4,1,0,80,0,0
150263,-99.009900990099,4,1,0,80,0,0
150355,-98.0392156862745,4,1,0,80,0,0
150539,-97.0873786407767,4,1,0,80,0,0
150631,-96.1538461538461,4,1,0,80,0,0
150723,-95.2380952380952,4,1,0,80,0,0
150815,-94.3396226415094,4,1,0,80,0,0
150907,-93.4579439252336,4,1,0,80,0,0
151091,-92.5925925925926,4,1,0,80,0,0
151275,-90.9090909090909,4,1,0,80,0,0
151367,-90.0900900900901,4,1,0,80,0,0
151459,-89.2857142857143,4,1,0,80,0,0
151551,-88.4955752212389,4,1,0,80,0,0
151643,-87.719298245614,4,1,0,80,0,0
151827,-86.2068965517241,4,1,0,80,0,0
151919,-85.4700854700855,4,1,0,80,0,0
152011,-85.1063829787234,4,1,0,80,0,0
152103,-84.2105263157895,4,1,0,80,0,0
152195,-83.3333333333333,4,1,0,80,0,0
152287,-82.4742268041237,4,1,0,80,0,0
152379,-81.6326530612245,4,1,0,80,0,0
152471,-80.8080808080808,4,1,0,80,0,0
152563,-80,4,1,0,80,0,0
152655,-79.2079207920792,4,1,0,80,0,0
152747,-78.4313725490196,4,1,0,80,0,0
152839,-77.6699029126214,4,1,0,80,0,0
152931,-76.9230769230769,4,1,0,80,0,0
152993,-76.4331404925199,4,1,0,80,0,0
153054,-75.9493478609246,4,1,0,80,0,0
153115,-75.4716981132076,4,1,0,80,0,0
153177,-75.0000187500047,4,1,0,80,0,0
153238,-74.5341429728837,4,1,0,80,0,0
153299,-74.0740740740741,4,1,0,80,0,0
154772,-66.6666666666667,4,1,0,80,0,0

[HitObjects]
256,192,171,5,8,0:0:0:0:
256,192,355,1,8,0:0:0:0:
256,192,539,1,0,0:0:0:0:
256,192,723,1,8,0:0:0:0:
256,192,907,1,0,0:0:0:0:
256,192,1275,1,8,0:0:0:0:
256,192,1459,1,0,0:0:0:0:
256,192,1551,1,0,0:0:0:0:
256,192,1643,1,0,0:0:0:0:
256,192,1827,1,8,0:0:0:0:
256,192,2011,1,0,0:0:0:0:
256,192,2195,1,0,0:0:0:0:
256,192,2379,1,0,0:0:0:0:
256,192,2563,1,8,0:0:0:0:
256,192,2747,1,8,0:0:0:0:
256,192,2931,1,0,0:0:0:0:
256,192,3023,1,0,0:0:0:0:
256,192,3115,1,0,0:0:0:0:
256,192,3299,1,0,0:0:0:0:
256,192,3483,1,8,0:0:0:0:
256,192,3667,1,8,0:0:0:0:
256,192,3851,1,0,0:0:0:0:
256,192,4220,1,8,0:0:0:0:
256,192,4404,1,0,0:0:0:0:
256,192,4496,1,0,0:0:0:0:
256,192,4588,1,0,0:0:0:0:
256,192,4772,1,8,0:0:0:0:
256,192,4956,1,0,0:0:0:0:
256,192,5140,1,0,0:0:0:0:
256,192,5324,1,0,0:0:0:0:
256,192,5508,1,8,0:0:0:0:
256,192,5692,1,8,0:0:0:0:
256,192,5876,1,0,0:0:0:0:
256,192,5968,1,0,0:0:0:0:
256,192,6060,1,8,0:0:0:0:
256,192,6244,1,8,0:0:0:0:
256,192,6336,1,8,0:0:0:0:
256,192,6428,1,0,0:0:0:0:
256,192,6520,1,0,0:0:0:0:
256,192,6612,1,8,0:0:0:0:
256,192,6796,1,0,0:0:0:0:
256,192,6980,1,0,0:0:0:0:
256,192,7072,1,0,0:0:0:0:
256,192,7164,1,8,0:0:0:0:
256,192,7256,1,8,0:0:0:0:
256,192,7348,1,0,0:0:0:0:
256,192,7532,1,0,0:0:0:0:
256,192,7717,1,8,0:0:0:0:
256,192,7809,1,8,0:0:0:0:
256,192,7901,1,0,0:0:0:0:
256,192,7993,1,8,0:0:0:0:
256,192,8085,1,0,0:0:0:0:
256,192,8177,1,0,0:0:0:0:
256,192,8269,1,0,0:0:0:0:
256,192,8453,1,8,0:0:0:0:
256,192,8545,1,8,0:0:0:0:
256,192,8637,1,8,0:0:0:0:
256,192,8729,1,0,0:0:0:0:
256,192,8821,1,0,0:0:0:0:
256,192,8913,1,0,0:0:0:0:
256,192,9005,1,8,0:0:0:0:
256,192,9097,1,0,0:0:0:0:
256,192,9189,1,8,0:0:0:0:
256,192,9281,1,0,0:0:0:0:
256,192,9373,1,8,0:0:0:0:
256,192,9465,1,8,0:0:0:0:
256,192,9557,1,0,0:0:0:0:
256,192,9649,1,0,0:0:0:0:
256,192,9741,1,8,0:0:0:0:
256,192,9833,1,0,0:0:0:0:
256,192,9925,1,8,0:0:0:0:
256,192,10017,1,0,0:0:0:0:
256,192,10109,1,8,0:0:0:0:
256,192,10170,1,8,0:0:0:0:
256,192,10232,1,8,0:0:0:0:
256,192,10293,1,8,0:0:0:0:
256,192,10355,1,8,0:0:0:0:
256,192,10416,1,8,0:0:0:0:
256,192,10477,1,0,0:0:0:0:
256,192,11582,1,0,0:0:0:0:
256,192,11950,1,12,0:0:0:0:
256,192,12318,1,0,0:0:0:0:
256,192,12502,1,8,0:0:0:0:
256,192,12686,1,0,0:0:0:0:
256,192,12870,1,0,0:0:0:0:
256,192,12962,1,8,0:0:0:0:
256,192,13054,1,8,0:0:0:0:
256,192,13238,1,0,0:0:0:0:
256,192,13330,1,0,0:0:0:0:
256,192,13422,1,0,0:0:0:0:
256,192,13606,1,8,0:0:0:0:
256,192,13790,1,0,0:0:0:0:
256,192,13974,1,0,0:0:0:0:
256,192,14342,1,8,0:0:0:0:
256,192,14434,1,8,0:0:0:0:
256,192,14526,1,8,0:0:0:0:
256,192,14710,1,8,0:0:0:0:
256,192,14894,1,0,0:0:0:0:
256,192,14986,1,8,0:0:0:0:
256,192,15078,1,0,0:0:0:0:
256,192,15263,1,8,0:0:0:0:
256,192,15447,1,8,0:0:0:0:
256,192,15631,1,0,0:0:0:0:
256,192,15815,1,8,0:0:0:0:
256,192,15907,1,0,0:0:0:0:
256,192,15999,1,8,0:0:0:0:
256,192,16183,1,8,0:0:0:0:
256,192,16367,1,0,0:0:0:0:
256,192,16551,1,8,0:0:0:0:
256,192,16735,1,0,0:0:0:0:
256,192,16919,1,0,0:0:0:0:
256,192,17287,1,8,0:0:0:0:
256,192,17379,1,8,0:0:0:0:
256,192,17471,1,8,0:0:0:0:
256,192,17655,1,8,0:0:0:0:
256,192,17839,1,4,0:0:0:0:
256,192,18207,1,0,0:0:0:0:
256,192,18391,1,8,0:0:0:0:
256,192,18575,1,0,0:0:0:0:
256,192,18759,1,0,0:0:0:0:
256,192,18851,1,8,0:0:0:0:
256,192,18944,1,8,0:0:0:0:
256,192,19128,1,0,0:0:0:0:
256,192,19220,1,0,0:0:0:0:
256,192,19312,1,0,0:0:0:0:
256,192,19496,1,8,0:0:0:0:
256,192,19680,1,0,0:0:0:0:
256,192,19864,1,0,0:0:0:0:
256,192,20232,1,8,0:0:0:0:
256,192,20324,1,8,0:0:0:0:
256,192,20416,1,0,0:0:0:0:
256,192,20600,1,8,0:0:0:0:
256,192,20784,1,4,0:0:0:0:
256,192,21152,1,8,0:0:0:0:
256,192,21336,1,8,0:0:0:0:
256,192,21520,1,0,0:0:0:0:
256,192,21704,1,8,0:0:0:0:
256,192,21796,1,0,0:0:0:0:
256,192,21888,1,8,0:0:0:0:
256,192,22072,1,0,0:0:0:0:
256,192,22256,1,4,0:0:0:0:
256,192,23361,1,0,0:0:0:0:
256,192,23729,1,12,0:0:0:0:
256,192,24005,1,0,0:0:0:0:
256,192,24097,1,8,0:0:0:0:
256,192,24281,1,8,0:0:0:0:
256,192,24465,1,0,0:0:0:0:
256,192,24649,1,8,0:0:0:0:
256,192,24741,1,8,0:0:0:0:
256,192,24833,1,8,0:0:0:0:
256,192,25017,1,0,0:0:0:0:
256,192,25109,1,0,0:0:0:0:
256,192,25201,1,0,0:0:0:0:
256,192,25385,1,8,0:0:0:0:
256,192,25569,1,0,0:0:0:0:
256,192,25753,1,0,0:0:0:0:
256,192,25845,1,0,0:0:0:0:
256,192,25937,1,0,0:0:0:0:
256,192,26121,1,8,0:0:0:0:
256,192,26213,1,8,0:0:0:0:
256,192,26305,1,0,0:0:0:0:
256,192,26490,1,8,0:0:0:0:
256,192,26674,1,0,0:0:0:0:
256,192,26766,1,8,0:0:0:0:
256,192,26950,1,8,0:0:0:0:
256,192,27042,1,0,0:0:0:0:
256,192,27226,1,8,0:0:0:0:
256,192,27410,1,0,0:0:0:0:
256,192,27594,1,8,0:0:0:0:
256,192,27686,1,0,0:0:0:0:
256,192,27778,1,8,0:0:0:0:
256,192,27962,1,0,0:0:0:0:
256,192,28054,1,0,0:0:0:0:
256,192,28146,1,0,0:0:0:0:
256,192,28330,1,8,0:0:0:0:
256,192,28514,1,0,0:0:0:0:
256,192,28698,1,0,0:0:0:0:
256,192,28790,1,0,0:0:0:0:
256,192,28882,1,0,0:0:0:0:
256,192,29066,1,8,0:0:0:0:
256,192,29158,1,8,0:0:0:0:
256,192,29250,1,8,0:0:0:0:
256,192,29434,1,8,0:0:0:0:
256,192,29618,1,4,0:0:0:0:
256,192,29894,1,8,0:0:0:0:
256,192,29986,1,0,0:0:0:0:
256,192,30170,1,8,0:0:0:0:
256,192,30355,1,0,0:0:0:0:
256,192,30539,1,8,0:0:0:0:
256,192,30631,1,8,0:0:0:0:
256,192,30723,1,8,0:0:0:0:
256,192,30907,1,0,0:0:0:0:
256,192,30999,1,0,0:0:0:0:
256,192,31091,1,0,0:0:0:0:
256,192,31275,1,8,0:0:0:0:
256,192,31459,1,0,0:0:0:0:
256,192,31643,1,0,0:0:0:0:
256,192,31735,1,0,0:0:0:0:
256,192,31827,1,0,0:0:0:0:
256,192,32011,1,8,0:0:0:0:
256,192,32103,1,8,0:0:0:0:
256,192,32195,1,0,0:0:0:0:
256,192,32379,1,8,0:0:0:0:
256,192,32563,1,4,0:0:0:0:
256,192,32839,1,0,0:0:0:0:
256,192,32931,1,8,0:0:0:0:
256,192,33115,1,8,0:0:0:0:
256,192,33299,1,0,0:0:0:0:
256,192,33483,1,8,0:0:0:0:
256,192,33575,1,0,0:0:0:0:
256,192,33667,1,8,0:0:0:0:
256,192,33851,1,0,0:0:0:0:
256,192,34036,1,4,0:0:0:0:
256,192,35140,1,0,0:0:0:0:
256,192,35508,1,12,0:0:0:0:
256,192,35692,1,8,0:0:0:0:
256,192,35876,1,0,0:0:0:0:
256,192,36060,1,8,0:0:0:0:
256,192,36244,1,0,0:0:0:0:
256,192,36428,1,0,0:0:0:0:
256,192,36612,1,8,0:0:0:0:
256,192,36796,1,8,0:0:0:0:
256,192,36980,1,0,0:0:0:0:
256,192,37072,1,0,0:0:0:0:
256,192,37164,1,0,0:0:0:0:
256,192,37348,1,0,0:0:0:0:
256,192,37532,1,8,0:0:0:0:
256,192,37717,1,8,0:0:0:0:
256,192,37901,1,0,0:0:0:0:
256,192,37993,1,0,0:0:0:0:
256,192,38085,1,8,0:0:0:0:
256,192,38269,1,0,0:0:0:0:
256,192,38453,1,8,0:0:0:0:
256,192,38545,1,8,0:0:0:0:
256,192,38637,1,8,0:0:0:0:
256,192,38821,1,0,0:0:0:0:
256,192,39005,1,8,0:0:0:0:
256,192,39189,1,0,0:0:0:0:
256,192,39373,1,0,0:0:0:0:
256,192,39557,1,8,0:0:0:0:
256,192,39741,1,8,0:0:0:0:
256,192,39925,1,0,0:0:0:0:
256,192,40017,1,0,0:0:0:0:
256,192,40109,1,0,0:0:0:0:
256,192,40293,1,0,0:0:0:0:
256,192,40477,1,8,0:0:0:0:
256,192,40569,1,8,0:0:0:0:
256,192,40661,1,8,0:0:0:0:
256,192,40845,1,0,0:0:0:0:
256,192,40937,1,0,0:0:0:0:
256,192,41029,1,8,0:0:0:0:
256,192,41213,1,8,0:0:0:0:
256,192,41397,1,4,0:0:0:0:
256,192,41582,1,0,0:0:0:0:
256,192,41766,1,8,0:0:0:0:
256,192,41950,1,8,0:0:0:0:
256,192,42134,1,0,0:0:0:0:
256,192,42318,1,8,0:0:0:0:
256,192,42502,1,0,0:0:0:0:
256,192,42686,1,8,0:0:0:0:
256,192,42870,1,0,0:0:0:0:
256,192,42962,1,0,0:0:0:0:
256,192,43054,1,0,0:0:0:0:
256,192,43238,1,0,0:0:0:0:
256,192,43422,1,8,0:0:0:0:
256,192,43606,1,8,0:0:0:0:
256,192,43790,1,0,0:0:0:0:
256,192,43882,1,0,0:0:0:0:
256,192,43974,1,8,0:0:0:0:
256,192,44158,1,0,0:0:0:0:
256,192,44342,1,8,0:0:0:0:
256,192,44434,1,0,0:0:0:0:
256,192,44526,1,0,0:0:0:0:
256,192,44618,1,8,0:0:0:0:
256,192,44710,1,0,0:0:0:0:
256,192,44802,1,0,0:0:0:0:
256,192,44894,1,8,0:0:0:0:
256,192,44986,1,0,0:0:0:0:
256,192,45078,1,0,0:0:0:0:
256,192,45170,1,8,0:0:0:0:
256,192,45263,1,0,0:0:0:0:
256,192,45355,1,0,0:0:0:0:
256,192,45447,1,8,0:0:0:0:
256,192,45631,1,0,0:0:0:0:
256,192,45815,1,8,0:0:0:0:
256,192,45999,1,0,0:0:0:0:
256,192,46091,1,8,0:0:0:0:
256,192,46275,1,8,0:0:0:0:
256,192,46367,1,0,0:0:0:0:
256,192,46459,1,8,0:0:0:0:
256,192,46643,1,8,0:0:0:0:
256,192,46735,1,0,0:0:0:0:
256,192,46827,1,0,0:0:0:0:
256,192,46919,1,8,0:0:0:0:
256,192,47287,1,0,0:0:0:0:
256,192,47471,1,0,0:0:0:0:
256,192,47655,1,0,0:0:0:0:
256,192,47839,1,0,0:0:0:0:
256,192,48207,1,0,0:0:0:0:
256,192,48391,1,0,0:0:0:0:
256,192,48575,1,0,0:0:0:0:
256,192,48667,1,0,0:0:0:0:
256,192,48759,1,0,0:0:0:0:
256,192,48944,1,0,0:0:0:0:
256,192,49128,1,0,0:0:0:0:
256,192,49312,1,0,0:0:0:0:
256,192,49680,1,0,0:0:0:0:
256,192,49864,1,8,0:0:0:0:
256,192,50048,1,0,0:0:0:0:
256,192,50140,1,0,0:0:0:0:
256,192,50232,1,0,0:0:0:0:
256,192,50416,1,0,0:0:0:0:
256,192,50600,1,0,0:0:0:0:
256,192,50784,1,0,0:0:0:0:
256,192,51152,1,0,0:0:0:0:
256,192,51336,1,0,0:0:0:0:
256,192,51520,1,0,0:0:0:0:
256,192,51612,1,0,0:0:0:0:
256,192,51704,1,0,0:0:0:0:
256,192,51888,1,0,0:0:0:0:
256,192,52072,1,0,0:0:0:0:
256,192,52256,1,0,0:0:0:0:
256,192,52624,1,0,0:0:0:0:
256,192,52809,1,8,0:0:0:0:
256,192,52993,1,0,0:0:0:0:
256,192,53085,1,0,0:0:0:0:
256,192,53177,1,8,0:0:0:0:
256,192,53361,1,0,0:0:0:0:
256,192,53453,1,0,0:0:0:0:
256,192,53545,1,0,0:0:0:0:
256,192,53729,1,0,0:0:0:0:
256,192,53821,1,0,0:0:0:0:
256,192,53913,1,8,0:0:0:0:
256,192,54097,1,0,0:0:0:0:
256,192,54189,1,0,0:0:0:0:
256,192,54281,1,0,0:0:0:0:
256,192,54465,1,0,0:0:0:0:
256,192,54557,1,0,0:0:0:0:
256,192,54649,1,8,0:0:0:0:
256,192,54741,1,8,0:0:0:0:
256,192,54833,1,0,0:0:0:0:
256,192,55017,1,0,0:0:0:0:
256,192,55201,1,0,0:0:0:0:
256,192,55293,1,0,0:0:0:0:
256,192,55385,1,8,0:0:0:0:
256,192,55477,1,0,0:0:0:0:
256,192,55569,1,8,0:0:0:0:
256,192,55753,1,0,0:0:0:0:
256,192,55937,1,0,0:0:0:0:
256,192,56029,1,0,0:0:0:0:
256,192,56121,1,8,0:0:0:0:
256,192,56213,1,0,0:0:0:0:
256,192,56305,1,8,0:0:0:0:
256,192,56397,1,0,0:0:0:0:
256,192,56490,1,8,0:0:0:0:
256,192,56582,1,8,0:0:0:0:
256,192,56674,1,0,0:0:0:0:
256,192,56766,1,0,0:0:0:0:
256,192,56858,1,8,0:0:0:0:
256,192,56950,1,0,0:0:0:0:
256,192,57042,1,8,0:0:0:0:
256,192,57134,1,0,0:0:0:0:
256,192,57226,1,8,0:0:0:0:
256,192,57287,1,8,0:0:0:0:
256,192,57348,1,8,0:0:0:0:
256,192,57410,1,8,0:0:0:0:
256,192,57471,1,8,0:0:0:0:
256,192,57532,1,8,0:0:0:0:
256,192,57594,1,0,0:0:0:0:
256,192,57962,1,8,0:0:0:0:
256,192,58330,1,8,0:0:0:0:
256,192,58698,1,0,0:0:0:0:
256,192,58882,1,0,0:0:0:0:
256,192,59066,1,12,0:0:0:0:
256,192,59802,1,4,0:0:0:0:
256,192,60539,1,0,0:0:0:0:
256,192,61091,1,0,0:0:0:0:
256,192,61275,1,4,0:0:0:0:
256,192,61643,1,8,0:0:0:0:
256,192,61827,1,8,0:0:0:0:
256,192,62011,1,0,0:0:0:0:
256,192,62747,1,4,0:0:0:0:
256,192,63483,1,0,0:0:0:0:
256,192,64036,1,0,0:0:0:0:
256,192,64220,1,4,0:0:0:0:
256,192,64404,1,0,0:0:0:0:
256,192,64588,1,4,0:0:0:0:
256,192,64772,1,0,0:0:0:0:
256,192,64956,1,12,0:0:0:0:
256,192,65692,1,4,0:0:0:0:
256,192,66428,1,0,0:0:0:0:
256,192,66980,1,8,0:0:0:0:
256,192,67072,1,8,0:0:0:0:
256,192,67164,1,4,0:0:0:0:
256,192,67532,1,8,0:0:0:0:
256,192,67717,1,8,0:0:0:0:
256,192,67901,1,0,0:0:0:0:
256,192,68637,1,12,0:0:0:0:
256,192,69373,1,0,0:0:0:0:
256,192,70845,8,0,72134,0:0:0:0:
256,192,72318,5,12,0:0:0:0:
256,192,75263,1,8,0:0:0:0:
256,192,78207,1,12,0:0:0:0:
256,192,78944,1,0,0:0:0:0:
256,192,79680,1,0,0:0:0:0:
256,192,80416,1,0,0:0:0:0:
256,192,81152,1,8,0:0:0:0:
256,192,81888,1,0,0:0:0:0:
256,192,82624,1,8,0:0:0:0:
256,192,82993,1,0,0:0:0:0:
256,192,83361,1,0,0:0:0:0:
256,192,83729,1,0,0:0:0:0:
256,192,84097,1,12,0:0:0:0:
256,192,84281,1,0,0:0:0:0:
256,192,84465,1,0,0:0:0:0:
256,192,84649,1,0,0:0:0:0:
256,192,84833,1,0,0:0:0:0:
256,192,85201,1,0,0:0:0:0:
256,192,85385,1,0,0:0:0:0:
256,192,85477,1,0,0:0:0:0:
256,192,85569,1,0,0:0:0:0:
256,192,85753,1,0,0:0:0:0:
256,192,85937,1,0,0:0:0:0:
256,192,86121,1,0,0:0:0:0:
256,192,86305,1,0,0:0:0:0:
256,192,86674,1,0,0:0:0:0:
256,192,86858,1,0,0:0:0:0:
256,192,86950,1,0,0:0:0:0:
256,192,87042,1,8,0:0:0:0:
256,192,87226,1,0,0:0:0:0:
256,192,87410,1,0,0:0:0:0:
256,192,87594,1,0,0:0:0:0:
256,192,87778,1,0,0:0:0:0:
256,192,88146,1,0,0:0:0:0:
256,192,88330,1,0,0:0:0:0:
256,192,88422,1,0,0:0:0:0:
256,192,88514,1,0,0:0:0:0:
256,192,88698,1,0,0:0:0:0:
256,192,88882,1,0,0:0:0:0:
256,192,89066,1,0,0:0:0:0:
256,192,89250,1,0,0:0:0:0:
256,192,89618,1,0,0:0:0:0:
256,192,89802,1,0,0:0:0:0:
256,192,89894,1,0,0:0:0:0:
256,192,89986,1,12,0:0:0:0:
256,192,90170,1,0,0:0:0:0:
256,192,90263,1,0,0:0:0:0:
256,192,90355,1,0,0:0:0:0:
256,192,90539,1,8,0:0:0:0:
256,192,90723,1,0,0:0:0:0:
256,192,90815,1,0,0:0:0:0:
256,192,90907,1,0,0:0:0:0:
256,192,90999,1,0,0:0:0:0:
256,192,91091,1,8,0:0:0:0:
256,192,91275,1,0,0:0:0:0:
256,192,91367,1,0,0:0:0:0:
256,192,91459,1,8,0:0:0:0:
256,192,91643,1,0,0:0:0:0:
256,192,91735,1,0,0:0:0:0:
256,192,91827,1,0,0:0:0:0:
256,192,92011,1,8,0:0:0:0:
256,192,92195,1,0,0:0:0:0:
256,192,92287,1,0,0:0:0:0:
256,192,92379,1,0,0:0:0:0:
256,192,92471,1,0,0:0:0:0:
256,192,92563,1,8,0:0:0:0:
256,192,92747,1,0,0:0:0:0:
256,192,92839,1,0,0:0:0:0:
256,192,92931,1,8,0:0:0:0:
256,192,93023,1,0,0:0:0:0:
256,192,93115,1,8,0:0:0:0:
256,192,93207,1,0,0:0:0:0:
256,192,93299,1,8,0:0:0:0:
256,192,93391,1,8,0:0:0:0:
256,192,93483,1,0,0:0:0:0:
256,192,93575,1,0,0:0:0:0:
256,192,93667,1,8,0:0:0:0:
256,192,93759,1,0,0:0:0:0:
256,192,93851,1,8,0:0:0:0:
256,192,93944,1,0,0:0:0:0:
256,192,94036,1,8,0:0:0:0:
256,192,94097,1,8,0:0:0:0:
256,192,94158,1,8,0:0:0:0:
256,192,94220,1,8,0:0:0:0:
256,192,94281,1,8,0:0:0:0:
256,192,94342,1,8,0:0:0:0:
256,192,94404,1,0,0:0:0:0:
256,192,95876,1,12,0:0:0:0:
256,192,96060,1,8,0:0:0:0:
256,192,96244,1,0,0:0:0:0:
256,192,96428,1,8,0:0:0:0:
256,192,96612,1,0,0:0:0:0:
256,192,96796,1,0,0:0:0:0:
256,192,96888,1,0,0:0:0:0:
256,192,96980,1,8,0:0:0:0:
256,192,97164,1,8,0:0:0:0:
256,192,97348,1,0,0:0:0:0:
256,192,97440,1,0,0:0:0:0:
256,192,97532,1,0,0:0:0:0:
256,192,97717,1,0,0:0:0:0:
256,192,97901,1,8,0:0:0:0:
256,192,98085,1,8,0:0:0:0:
256,192,98269,1,0,0:0:0:0:
256,192,98361,1,0,0:0:0:0:
256,192,98453,1,8,0:0:0:0:
256,192,98637,1,0,0:0:0:0:
256,192,98821,1,8,0:0:0:0:
256,192,98913,1,8,0:0:0:0:
256,192,99005,1,8,0:0:0:0:
256,192,99189,1,0,0:0:0:0:
256,192,99373,1,8,0:0:0:0:
256,192,99557,1,0,0:0:0:0:
256,192,99741,1,0,0:0:0:0:
256,192,99833,1,0,0:0:0:0:
256,192,99925,1,8,0:0:0:0:
256,192,100109,1,8,0:0:0:0:
256,192,100293,1,0,0:0:0:0:
256,192,100385,1,0,0:0:0:0:
256,192,100477,1,0,0:0:0:0:
256,192,100661,1,0,0:0:0:0:
256,192,100845,1,8,0:0:0:0:
256,192,100937,1,8,0:0:0:0:
256,192,101029,1,0,0:0:0:0:
256,192,101121,1,0,0:0:0:0:
256,192,101213,1,8,0:0:0:0:
256,192,101397,1,8,0:0:0:0:
256,192,101490,1,8,0:0:0:0:
256,192,101582,1,0,0:0:0:0:
256,192,101766,1,12,0:0:0:0:
256,192,101950,1,0,0:0:0:0:
256,192,102042,1,0,0:0:0:0:
256,192,102134,1,8,0:0:0:0:
256,192,102318,1,8,0:0:0:0:
256,192,102502,1,0,0:0:0:0:
256,192,102686,1,8,0:0:0:0:
256,192,102778,1,8,0:0:0:0:
256,192,102870,1,0,0:0:0:0:
256,192,103054,1,8,0:0:0:0:
256,192,103238,1,0,0:0:0:0:
256,192,103330,1,0,0:0:0:0:
256,192,103422,1,0,0:0:0:0:
256,192,103606,1,0,0:0:0:0:
256,192,103790,1,8,0:0:0:0:
256,192,103974,1,8,0:0:0:0:
256,192,104158,1,0,0:0:0:0:
256,192,104250,1,0,0:0:0:0:
256,192,104342,1,8,0:0:0:0:
256,192,104526,1,0,0:0:0:0:
256,192,104710,1,8,0:0:0:0:
256,192,104802,1,8,0:0:0:0:
256,192,104894,1,0,0:0:0:0:
256,192,104986,1,8,0:0:0:0:
256,192,105078,1,8,0:0:0:0:
256,192,105170,1,0,0:0:0:0:
256,192,105263,1,8,0:0:0:0:
256,192,105355,1,8,0:0:0:0:
256,192,105447,1,0,0:0:0:0:
256,192,105539,1,8,0:0:0:0:
256,192,105631,1,8,0:0:0:0:
256,192,105723,1,0,0:0:0:0:
256,192,105815,1,8,0:0:0:0:
256,192,105999,1,0,0:0:0:0:
256,192,106183,1,8,0:0:0:0:
256,192,106367,1,0,0:0:0:0:
256,192,106459,1,8,0:0:0:0:
256,192,106643,1,8,0:0:0:0:
256,192,106735,1,0,0:0:0:0:
256,192,106827,1,8,0:0:0:0:
256,192,107011,1,8,0:0:0:0:
256,192,107103,1,0,0:0:0:0:
256,192,107195,1,0,0:0:0:0:
256,192,107287,1,8,0:0:0:0:
256,192,107655,1,4,0:0:0:0:
256,192,107839,1,0,0:0:0:0:
256,192,108023,1,0,0:0:0:0:
256,192,108207,1,0,0:0:0:0:
256,192,108391,1,0,0:0:0:0:
256,192,108575,1,0,0:0:0:0:
256,192,108759,1,0,0:0:0:0:
256,192,108944,1,0,0:0:0:0:
256,192,109036,1,0,0:0:0:0:
256,192,109128,1,8,0:0:0:0:
256,192,109312,1,8,0:0:0:0:
256,192,109496,1,8,0:0:0:0:
256,192,109680,1,8,0:0:0:0:
256,192,109864,1,0,0:0:0:0:
256,192,110048,1,0,0:0:0:0:
256,192,110140,1,0,0:0:0:0:
256,192,110232,1,8,0:0:0:0:
256,192,110416,1,8,0:0:0:0:
256,192,110508,1,8,0:0:0:0:
256,192,110600,1,0,0:0:0:0:
256,192,110784,1,0,0:0:0:0:
256,192,110968,1,0,0:0:0:0:
256,192,111152,1,0,0:0:0:0:
256,192,111336,1,0,0:0:0:0:
256,192,111520,1,0,0:0:0:0:
256,192,111704,1,0,0:0:0:0:
256,192,111888,1,0,0:0:0:0:
256,192,111980,1,0,0:0:0:0:
256,192,112072,1,8,0:0:0:0:
256,192,112256,1,8,0:0:0:0:
256,192,112440,1,8,0:0:0:0:
256,192,112624,1,8,0:0:0:0:
256,192,112809,1,0,0:0:0:0:
256,192,112993,1,0,0:0:0:0:
256,192,113085,1,0,0:0:0:0:
256,192,113177,1,8,0:0:0:0:
256,192,113361,1,8,0:0:0:0:
256,192,113453,1,8,0:0:0:0:
256,192,113545,1,4,0:0:0:0:
256,192,113913,1,0,0:0:0:0:
256,192,114097,1,8,0:0:0:0:
256,192,114281,1,0,0:0:0:0:
256,192,114465,1,8,0:0:0:0:
256,192,114649,1,0,0:0:0:0:
256,192,114833,1,8,0:0:0:0:
256,192,114925,1,8,0:0:0:0:
256,192,115017,1,0,0:0:0:0:
256,192,115201,1,0,0:0:0:0:
256,192,115385,1,8,0:0:0:0:
256,192,115569,1,8,0:0:0:0:
256,192,115753,1,0,0:0:0:0:
256,192,115937,1,0,0:0:0:0:
256,192,116029,1,0,0:0:0:0:
256,192,116121,1,8,0:0:0:0:
256,192,116305,1,0,0:0:0:0:
256,192,116490,1,8,0:0:0:0:
256,192,116582,1,0,0:0:0:0:
256,192,116674,1,0,0:0:0:0:
256,192,116766,1,8,0:0:0:0:
256,192,116858,1,0,0:0:0:0:
256,192,116950,1,0,0:0:0:0:
256,192,117042,1,8,0:0:0:0:
256,192,117134,1,0,0:0:0:0:
256,192,117226,1,0,0:0:0:0:
256,192,117318,1,8,0:0:0:0:
256,192,117410,1,0,0:0:0:0:
256,192,117502,1,0,0:0:0:0:
256,192,117594,1,8,0:0:0:0:
256,192,117778,1,0,0:0:0:0:
256,192,117962,1,8,0:0:0:0:
256,192,118146,1,0,0:0:0:0:
256,192,118238,1,8,0:0:0:0:
256,192,118422,1,8,0:0:0:0:
256,192,118514,1,0,0:0:0:0:
256,192,118606,1,8,0:0:0:0:
256,192,118790,1,8,0:0:0:0:
256,192,118882,1,0,0:0:0:0:
256,192,118974,1,0,0:0:0:0:
256,192,119066,1,8,0:0:0:0:
256,192,119434,1,12,0:0:0:0:
256,192,119710,1,0,0:0:0:0:
256,192,119802,1,8,0:0:0:0:
256,192,119986,1,8,0:0:0:0:
256,192,120170,1,0,0:0:0:0:
256,192,120355,1,8,0:0:0:0:
256,192,120447,1,8,0:0:0:0:
256,192,120539,1,8,0:0:0:0:
256,192,120723,1,0,0:0:0:0:
256,192,120815,1,0,0:0:0:0:
256,192,120907,1,0,0:0:0:0:
256,192,121091,1,8,0:0:0:0:
256,192,121275,1,0,0:0:0:0:
256,192,121459,1,0,0:0:0:0:
256,192,121643,1,0,0:0:0:0:
256,192,121827,1,8,0:0:0:0:
256,192,121919,1,8,0:0:0:0:
256,192,122011,1,0,0:0:0:0:
256,192,122195,1,8,0:0:0:0:
256,192,122379,1,0,0:0:0:0:
256,192,122471,1,8,0:0:0:0:
256,192,122655,1,8,0:0:0:0:
256,192,122747,1,0,0:0:0:0:
256,192,122931,1,8,0:0:0:0:
256,192,123115,1,0,0:0:0:0:
256,192,123299,1,8,0:0:0:0:
256,192,123391,1,0,0:0:0:0:
256,192,123483,1,8,0:0:0:0:
256,192,123667,1,0,0:0:0:0:
256,192,123759,1,0,0:0:0:0:
256,192,123851,1,0,0:0:0:0:
256,192,124036,1,8,0:0:0:0:
256,192,124220,1,0,0:0:0:0:
256,192,124404,1,0,0:0:0:0:
256,192,124588,1,0,0:0:0:0:
256,192,124772,1,8,0:0:0:0:
256,192,124864,1,8,0:0:0:0:
256,192,124956,1,8,0:0:0:0:
256,192,125140,1,8,0:0:0:0:
256,192,125324,1,4,0:0:0:0:
256,192,125600,1,8,0:0:0:0:
256,192,125692,1,0,0:0:0:0:
256,192,125876,1,8,0:0:0:0:
256,192,126060,1,0,0:0:0:0:
256,192,126244,1,8,0:0:0:0:
256,192,126336,1,8,0:0:0:0:
256,192,126428,1,8,0:0:0:0:
256,192,126612,1,0,0:0:0:0:
256,192,126704,1,0,0:0:0:0:
256,192,126796,1,0,0:0:0:0:
256,192,126980,1,8,0:0:0:0:
256,192,127164,1,0,0:0:0:0:
256,192,127348,1,0,0:0:0:0:
256,192,127532,1,0,0:0:0:0:
256,192,127717,1,8,0:0:0:0:
256,192,127809,1,8,0:0:0:0:
256,192,127901,1,0,0:0:0:0:
256,192,128085,1,8,0:0:0:0:
256,192,128269,1,4,0:0:0:0:
256,192,128637,1,8,0:0:0:0:
256,192,128821,1,8,0:0:0:0:
256,192,129005,1,0,0:0:0:0:
256,192,129189,1,8,0:0:0:0:
256,192,129281,1,8,0:0:0:0:
256,192,129373,1,8,0:0:0:0:
256,192,129557,1,0,0:0:0:0:
256,192,129741,1,8,0:0:0:0:
256,192,131213,1,12,0:0:0:0:
256,192,131582,1,0,0:0:0:0:
256,192,131766,1,8,0:0:0:0:
256,192,131950,1,0,0:0:0:0:
256,192,132134,1,8,0:0:0:0:
256,192,132318,1,0,0:0:0:0:
256,192,132502,1,8,0:0:0:0:
256,192,132686,1,8,0:0:0:0:
256,192,132870,1,0,0:0:0:0:
256,192,133054,1,8,0:0:0:0:
256,192,133238,1,0,0:0:0:0:
256,192,133422,1,0,0:0:0:0:
256,192,133606,1,8,0:0:0:0:
256,192,133790,1,0,0:0:0:0:
256,192,133974,1,8,0:0:0:0:
256,192,134342,1,8,0:0:0:0:
256,192,134526,1,0,0:0:0:0:
256,192,134710,1,8,0:0:0:0:
256,192,134894,1,0,0:0:0:0:
256,192,135078,1,8,0:0:0:0:
256,192,135263,1,0,0:0:0:0:
256,192,135447,1,8,0:0:0:0:
256,192,135631,1,8,0:0:0:0:
256,192,135815,1,0,0:0:0:0:
256,192,135999,1,8,0:0:0:0:
256,192,136183,1,0,0:0:0:0:
256,192,136367,1,0,0:0:0:0:
256,192,136551,1,8,0:0:0:0:
256,192,136735,1,0,0:0:0:0:
256,192,136919,1,8,0:0:0:0:
256,192,137287,1,0,0:0:0:0:
256,192,137471,1,8,0:0:0:0:
256,192,137655,1,0,0:0:0:0:
256,192,137839,1,8,0:0:0:0:
256,192,138023,1,0,0:0:0:0:
256,192,138207,1,8,0:0:0:0:
256,192,138391,1,0,0:0:0:0:
256,192,138575,1,0,0:0:0:0:
256,192,138759,1,8,0:0:0:0:
256,192,138944,1,0,0:0:0:0:
256,192,139128,1,8,0:0:0:0:
256,192,139312,1,8,0:0:0:0:
256,192,139496,1,0,0:0:0:0:
256,192,139680,1,8,0:0:0:0:
256,192,139864,1,0,0:0:0:0:
256,192,140232,1,8,0:0:0:0:
256,192,140416,1,0,0:0:0:0:
256,192,140600,1,8,0:0:0:0:
256,192,140784,1,0,0:0:0:0:
256,192,140968,1,8,0:0:0:0:
256,192,141152,1,0,0:0:0:0:
256,192,141336,1,8,0:0:0:0:
256,192,141520,1,8,0:0:0:0:
256,192,141704,1,0,0:0:0:0:
256,192,141888,1,8,0:0:0:0:
256,192,142072,1,0,0:0:0:0:
256,192,142256,1,0,0:0:0:0:
256,192,142440,1,8,0:0:0:0:
256,192,142624,1,0,0:0:0:0:
256,192,142809,1,8,0:0:0:0:
256,192,142993,1,4,0:0:0:0:
256,192,143177,1,0,0:0:0:0:
256,192,143361,1,0,0:0:0:0:
256,192,143545,1,0,0:0:0:0:
256,192,143913,1,0,0:0:0:0:
256,192,144097,1,0,0:0:0:0:
256,192,144281,1,0,0:0:0:0:
256,192,144373,1,0,0:0:0:0:
256,192,144465,1,0,0:0:0:0:
256,192,144649,1,0,0:0:0:0:
256,192,144833,1,0,0:0:0:0:
256,192,145017,1,0,0:0:0:0:
256,192,145385,1,0,0:0:0:0:
256,192,145569,1,8,0:0:0:0:
256,192,145753,1,0,0:0:0:0:
256,192,145845,1,0,0:0:0:0:
256,192,145937,1,0,0:0:0:0:
256,192,146121,1,0,0:0:0:0:
256,192,146305,1,0,0:0:0:0:
256,192,146490,1,0,0:0:0:0:
256,192,146858,1,0,0:0:0:0:
256,192,147042,1,0,0:0:0:0:
256,192,147226,1,0,0:0:0:0:
256,192,147318,1,0,0:0:0:0:
256,192,147410,1,0,0:0:0:0:
256,192,147594,1,0,0:0:0:0:
256,192,147778,1,0,0:0:0:0:
256,192,147962,1,0,0:0:0:0:
256,192,148330,1,0,0:0:0:0:
256,192,148514,1,8,0:0:0:0:
256,192,148698,1,0,0:0:0:0:
256,192,148790,1,0,0:0:0:0:
256,192,148882,1,8,0:0:0:0:
256,192,149066,1,8,0:0:0:0:
256,192,149158,1,8,0:0:0:0:
256,192,149250,1,8,0:0:0:0:
256,192,149434,1,8,0:0:0:0:
256,192,149618,1,0,0:0:0:0:
256,192,149710,1,0,0:0:0:0:
256,192,149802,1,8,0:0:0:0:
256,192,149986,1,8,0:0:0:0:
256,192,150170,1,8,0:0:0:0:
256,192,150263,1,8,0:0:0:0:
256,192,150355,1,8,0:0:0:0:
256,192,150539,1,8,0:0:0:0:
256,192,150631,1,8,0:0:0:0:
256,192,150723,1,0,0:0:0:0:
256,192,150815,1,0,0:0:0:0:
256,192,150907,1,8,0:0:0:0:
256,192,151091,1,0,0:0:0:0:
256,192,151275,1,0,0:0:0:0:
256,192,151367,1,0,0:0:0:0:
256,192,151459,1,8,0:0:0:0:
256,192,151551,1,8,0:0:0:0:
256,192,151643,1,0,0:0:0:0:
256,192,151827,1,8,0:0:0:0:
256,192,151919,1,8,0:0:0:0:
256,192,152011,1,0,0:0:0:0:
256,192,152103,1,8,0:0:0:0:
256,192,152195,1,8,0:0:0:0:
256,192,152287,1,0,0:0:0:0:
256,192,152379,1,8,0:0:0:0:
256,192,152471,1,8,0:0:0:0:
256,192,152563,1,0,0:0:0:0:
256,192,152655,1,8,0:0:0:0:
256,192,152747,1,8,0:0:0:0:
256,192,152839,1,0,0:0:0:0:
256,192,152931,1,8,0:0:0:0:
256,192,152993,1,8,0:0:0:0:
256,192,153054,1,8,0:0:0:0:
256,192,153115,1,8,0:0:0:0:
256,192,153177,1,8,0:0:0:0:
256,192,153238,1,8,0:0:0:0:
256,192,153299,1,0,0:0:0:0:
256,192,154404,1,8,0:0:0:0:
256,192,154772,2,0,L|385:191,8,105.000004005432
