osu file format v14

[General]
AudioFilename: audio.mp3
AudioLeadIn: 0
PreviewTime: 85425
Countdown: 0
SampleSet: Soft
StackLeniency: 0.7
Mode: 3
LetterboxInBreaks: 0
SpecialStyle: 0
WidescreenStoryboard: 1

[Editor]
DistanceSpacing: 0.8
BeatDivisor: 4
GridSize: 32
TimelineZoom: 1.2

[Metadata]
Title:Airborne Robots
TitleUnicode:Airborne Robots
Artist:F-777
ArtistUnicode:F-777
Creator:Salty Mermaid
Version:Normal
Source:Geometry Dash Meltdown
Tags:f777 jesse valentine ludicrous speed instrumental breakbeat electronic
BeatmapID:1376805
BeatmapSetID:649618

[Difficulty]
HPDrainRate:7
CircleSize:4
OverallDifficulty:7
ApproachRate:5
SliderMultiplier:1.4
SliderTickRate:1

[Events]
//Background and Video events
0,0,"Sans titre.png",0,0
//Break Periods
//Storyboard Layer 0 (Background)
//Storyboard Layer 1 (Fail)
//Storyboard Layer 2 (Pass)
//Storyboard Layer 3 (Foreground)
//Storyboard Sound Samples

[TimingPoints]
395,300,4,1,1,40,1,0
470,-100,4,2,1,60,0,0
19595,-100,4,2,77,60,0,0
38795,-100,4,2,55,70,0,0
38945,-100,4,2,2,70,0,0
45995,-100,4,2,69,35,0,0
48395,-100,4,2,77,80,0,1
48545,-100,4,2,2,80,0,1
57995,-100,4,2,77,80,0,1
58145,-100,4,2,2,80,0,1
67145,-100,4,2,77,80,0,1
67595,-100,4,2,55,80,0,1
67745,-100,4,2,2,80,0,1
69995,-100,4,2,55,60,0,1
70145,-100,4,2,2,80,0,1
72395,-100,4,2,55,80,0,1
72545,-100,4,2,2,80,0,1
74795,-100,4,2,55,80,0,1
74945,-100,4,2,2,80,0,1
77195,-100,4,2,77,80,0,1
77495,-100,4,2,2,80,0,1
79595,-100,4,2,55,80,0,1
79745,-100,4,2,2,80,0,1
81995,-100,4,2,55,80,0,1
82145,-100,4,2,2,80,0,1
84395,-100,4,2,55,80,0,1
84545,-100,4,2,2,80,0,1
85595,-100,4,2,55,80,0,0
85895,-100,4,2,2,80,0,0
86045,-100,4,2,55,80,0,0
86345,-100,4,2,2,80,0,0
86495,-100,4,2,55,80,0,0
87095,-100,4,2,2,80,0,0
87245,-100,4,2,55,80,0,0
87545,-100,4,2,2,80,0,0
87695,-100,4,2,55,60,0,0
87995,-100,4,2,55,60,0,0
88145,-100,4,2,2,80,0,0
107195,-100,4,2,77,60,0,0
115595,-100,4,2,2,60,0,0
116795,-100,4,2,55,80,0,0
116870,-100,4,2,2,80,0,0
117545,-100,4,2,2,80,0,0
119195,-100,4,2,55,90,0,0
119345,-100,4,2,2,80,0,0
121595,-100,4,2,55,90,0,0
121745,-100,4,2,2,80,0,0
123995,-100,4,2,55,90,0,0
124145,-100,4,2,2,80,0,0
126395,-100,4,2,55,80,0,0
126470,-100,4,2,2,80,0,0
128795,-100,4,2,55,90,0,0
128945,-100,4,2,2,80,0,0
131195,-100,4,2,55,90,0,0
131345,-100,4,2,2,80,0,0
133595,-100,4,2,55,90,0,0
133745,-100,4,2,2,80,0,0
135995,-100,4,2,55,80,0,0
136220,-100,4,2,2,80,0,0
138395,-100,4,2,55,80,0,0
138695,-100,4,2,2,80,0,0
140795,-100,4,2,55,60,0,0
141095,-100,4,2,2,80,0,0
143195,-100,4,2,55,80,0,0
143495,-100,4,2,2,80,0,0
145595,-100,4,2,55,70,0,0

[HitObjects]
64,192,395,5,4,0:0:0:0:
448,192,395,1,0,0:0:0:0:
192,192,995,1,0,0:0:0:0:
448,192,1595,5,0,0:0:0:0:
320,192,2495,1,0,0:0:0:0:
64,192,2795,1,4,0:0:0:0:
192,192,3395,1,0,0:0:0:0:
320,192,3995,1,0,0:0:0:0:
448,192,4895,1,0,0:0:0:0:
192,192,5195,1,4,0:0:0:0:
320,192,5795,1,0,0:0:0:0:
64,192,6395,1,0,0:0:0:0:
192,192,7295,1,0,0:0:0:0:
64,192,7595,1,4,0:0:0:0:
448,192,8195,1,0,0:0:0:0:
192,192,8795,1,0,0:0:0:0:
64,192,9695,1,0,0:0:0:0:
320,192,9995,1,8,0:0:0:0:
448,192,9995,1,0,0:0:0:0:
64,192,11195,1,8,0:0:0:0:
320,192,12395,1,8,0:0:0:0:
448,192,13595,1,8,0:0:0:0:
320,192,14795,1,8,0:0:0:0:
192,192,15995,1,8,0:0:0:0:
64,192,17195,1,8,0:0:0:0:
320,192,18395,1,8,0:0:0:0:
192,192,19595,1,4,0:0:0:0:
448,192,19595,1,0,0:0:0:0:
64,192,20195,1,0,0:0:0:0:
320,192,20795,1,0,0:0:0:0:
448,192,21395,1,0,0:0:0:0:
64,192,21995,1,0,0:0:0:0:
192,192,22595,1,0,0:0:0:0:
320,192,23195,1,0,0:0:0:0:
192,192,23795,1,0,0:0:0:0:
448,192,24395,1,0,0:0:0:0:
320,192,24995,1,0,0:0:0:0:
64,192,25595,1,0,0:0:0:0:
320,192,26195,1,0,0:0:0:0:
192,192,26795,1,0,0:0:0:0:
64,192,27395,1,0,0:0:0:0:
448,192,27995,1,0,0:0:0:0:
320,192,28595,1,0,0:0:0:0:
192,192,29195,1,4,0:0:0:0:
64,192,29195,1,0,0:0:0:0:
448,192,29495,1,0,0:0:0:0:
320,192,29645,1,0,0:0:0:0:
64,192,30095,1,0,0:0:0:0:
192,192,30245,1,0,0:0:0:0:
448,192,30545,1,0,0:0:0:0:
320,192,30695,1,0,0:0:0:0:
192,192,30845,1,0,0:0:0:0:
64,192,31295,1,0,0:0:0:0:
192,192,31445,1,0,0:0:0:0:
320,192,31745,1,0,0:0:0:0:
448,192,31895,1,0,0:0:0:0:
64,192,32045,1,0,0:0:0:0:
448,192,32495,1,0,0:0:0:0:
320,192,32645,1,0,0:0:0:0:
192,192,32945,1,0,0:0:0:0:
64,192,33095,1,0,0:0:0:0:
448,192,33245,1,0,0:0:0:0:
320,192,33545,1,0,0:0:0:0:
64,192,33695,128,0,33995:0:0:0:0:
320,192,34295,1,0,0:0:0:0:
448,192,34445,1,0,0:0:0:0:
192,192,34895,1,0,0:0:0:0:
64,192,35045,1,0,0:0:0:0:
192,192,35345,1,0,0:0:0:0:
320,192,35495,1,0,0:0:0:0:
448,192,35645,1,0,0:0:0:0:
320,192,36095,1,0,0:0:0:0:
64,192,36245,1,0,0:0:0:0:
192,192,36545,1,0,0:0:0:0:
320,192,36695,1,0,0:0:0:0:
448,192,36845,1,0,0:0:0:0:
448,192,37295,1,0,0:0:0:0:
64,192,37445,1,0,0:0:0:0:
192,192,37745,1,0,0:0:0:0:
320,192,37895,1,0,0:0:0:0:
448,192,38045,1,0,0:0:0:0:
320,192,38345,1,0,0:0:0:0:
64,192,38495,128,0,38795:0:0:0:0:
320,192,38795,1,4,0:0:0:0:
192,192,38795,1,0,0:0:0:0:
448,192,39095,1,8,0:0:0:0:
320,192,39395,1,8,0:0:0:0:
192,192,39695,1,8,0:0:0:0:
64,192,39995,1,10,0:0:0:0:
448,192,40295,1,8,0:0:0:0:
64,192,40595,1,8,0:0:0:0:
448,192,40895,1,8,0:0:0:0:
64,192,41195,1,10,0:0:0:0:
192,192,41495,1,8,0:0:0:0:
320,192,41795,1,8,0:0:0:0:
448,192,42095,1,8,0:0:0:0:
64,192,42395,1,10,0:0:0:0:
320,192,42695,1,8,0:0:0:0:
192,192,42995,1,8,0:0:0:0:
320,192,43295,1,8,0:0:0:0:
64,192,43595,1,10,0:0:0:0:
448,192,43895,1,8,0:0:0:0:
192,192,44195,1,8,0:0:0:0:
320,192,44495,1,8,0:0:0:0:
64,192,44795,1,10,0:0:0:0:
448,192,45095,1,8,0:0:0:0:
64,192,45395,1,8,0:0:0:0:
320,192,45695,1,8,0:0:0:0:
192,192,45995,128,8,48395:0:0:0:0:
320,192,47195,128,8,48395:0:0:0:0:
64,192,48395,1,4,0:0:0:0:
320,192,48695,1,8,0:0:0:0:
448,192,48695,1,0,0:0:0:0:
64,192,49145,1,2,0:0:0:0:
192,192,49295,1,8,0:0:0:0:
448,192,49295,1,0,0:0:0:0:
320,192,49595,1,2,0:0:0:0:
64,192,49895,1,8,0:0:0:0:
192,192,49895,1,0,0:0:0:0:
320,192,50345,1,2,0:0:0:0:
448,192,50495,1,0,0:0:0:0:
64,192,50495,1,8,0:0:0:0:
192,192,50795,1,2,0:0:0:0:
320,192,51095,1,0,0:0:0:0:
64,192,51095,1,8,0:0:0:0:
448,192,51545,1,2,0:0:0:0:
192,192,51695,1,0,0:0:0:0:
64,192,51695,1,8,0:0:0:0:
320,192,51995,1,2,0:0:0:0:
448,192,52295,1,0,0:0:0:0:
192,192,52295,1,8,0:0:0:0:
64,192,52745,1,2,0:0:0:0:
448,192,52895,1,0,0:0:0:0:
320,192,52895,1,8,0:0:0:0:
192,192,53195,1,2,0:0:0:0:
64,192,53495,1,8,0:0:0:0:
448,192,53495,1,0,0:0:0:0:
320,192,53945,1,2,0:0:0:0:
192,192,54095,1,0,0:0:0:0:
64,192,54095,1,8,0:0:0:0:
448,192,54395,1,2,0:0:0:0:
64,192,54695,1,0,0:0:0:0:
320,192,54695,1,8,0:0:0:0:
192,192,55145,1,2,0:0:0:0:
64,192,55295,1,8,0:0:0:0:
448,192,55295,1,0,0:0:0:0:
320,192,55595,1,2,0:0:0:0:
448,192,55895,1,0,0:0:0:0:
192,192,55895,1,8,0:0:0:0:
192,192,56345,1,2,0:0:0:0:
448,192,56495,1,0,0:0:0:0:
320,192,56495,1,8,0:0:0:0:
64,192,56795,128,2,57245:0:0:0:0:
448,192,57245,128,0,57995:0:0:0:0:
64,192,57995,1,4,0:0:0:0:
320,192,58295,1,8,0:0:0:0:
192,192,58295,1,0,0:0:0:0:
192,192,58745,1,2,0:0:0:0:
64,192,58895,1,8,0:0:0:0:
320,192,58895,1,0,0:0:0:0:
448,192,59195,1,2,0:0:0:0:
192,192,59495,1,8,0:0:0:0:
320,192,59495,1,0,0:0:0:0:
320,192,59945,1,2,0:0:0:0:
192,192,60095,1,8,0:0:0:0:
448,192,60095,1,0,0:0:0:0:
320,192,60395,1,2,0:0:0:0:
64,192,60695,1,8,0:0:0:0:
448,192,60695,1,0,0:0:0:0:
192,192,61145,1,2,0:0:0:0:
448,192,61295,1,8,0:0:0:0:
320,192,61295,1,0,0:0:0:0:
64,192,61595,1,2,0:0:0:0:
192,192,61895,1,8,0:0:0:0:
320,192,61895,1,0,0:0:0:0:
448,192,62345,1,2,0:0:0:0:
320,192,62495,1,0,0:0:0:0:
64,192,62495,1,8,0:0:0:0:
192,192,62795,1,2,0:0:0:0:
64,192,63095,1,8,0:0:0:0:
448,192,63095,1,0,0:0:0:0:
320,192,63545,1,2,0:0:0:0:
192,192,63695,1,0,0:0:0:0:
64,192,63695,1,8,0:0:0:0:
448,192,63995,1,2,0:0:0:0:
320,192,64295,1,8,0:0:0:0:
64,192,64295,1,0,0:0:0:0:
192,192,64745,1,2,0:0:0:0:
448,192,64895,1,8,0:0:0:0:
64,192,64895,1,0,0:0:0:0:
320,192,65195,1,2,0:0:0:0:
192,192,65495,1,8,0:0:0:0:
448,192,65495,1,0,0:0:0:0:
64,192,65945,1,2,0:0:0:0:
192,192,66095,1,8,0:0:0:0:
320,192,66095,1,0,0:0:0:0:
448,192,66395,128,2,66845:0:0:0:0:
192,192,66845,128,0,67595:0:0:0:0:
64,192,67595,1,8,0:0:0:0:
448,192,67595,128,0,68645:0:0:0:0:
320,192,68645,1,2,0:0:0:0:
64,192,68795,128,8,69845:0:0:0:0:
192,192,69845,1,2,0:0:0:0:
320,192,69995,128,8,71045:0:0:0:0:
448,192,71045,1,2,0:0:0:0:
192,192,71195,128,8,71795:0:0:0:0:
448,192,71795,128,0,72095:0:0:0:0:
320,192,72095,128,8,72395:0:0:0:0:
64,192,72395,128,8,73445:0:0:0:0:
192,192,73445,1,2,0:0:0:0:
448,192,73595,128,8,74645:0:0:0:0:
64,192,74645,1,2,0:0:0:0:
320,192,74795,128,8,75845:0:0:0:0:
448,192,75845,1,2,0:0:0:0:
192,192,75995,128,8,76445:0:0:0:0:
448,192,76445,128,2,77045:0:0:0:0:
320,192,77045,1,2,0:0:0:0:
64,192,77195,128,4,77495:0:0:0:0:
320,192,77495,1,8,0:0:0:0:
448,192,77495,1,0,0:0:0:0:
448,192,77945,1,2,0:0:0:0:
320,192,78095,1,8,0:0:0:0:
64,192,78095,1,0,0:0:0:0:
192,192,78395,1,2,0:0:0:0:
320,192,78695,1,8,0:0:0:0:
448,192,78695,1,0,0:0:0:0:
192,192,79145,1,2,0:0:0:0:
448,192,79295,1,8,0:0:0:0:
64,192,79295,1,0,0:0:0:0:
320,192,79595,128,8,79895:0:0:0:0:
192,192,79895,1,8,0:0:0:0:
64,192,79895,1,0,0:0:0:0:
448,192,80345,1,2,0:0:0:0:
192,192,80495,1,8,0:0:0:0:
320,192,80495,1,0,0:0:0:0:
64,192,80795,1,2,0:0:0:0:
192,192,81095,1,8,0:0:0:0:
448,192,81095,1,0,0:0:0:0:
320,192,81545,1,2,0:0:0:0:
64,192,81695,1,8,0:0:0:0:
448,192,81695,1,0,0:0:0:0:
192,192,81995,128,8,82295:0:0:0:0:
320,192,82295,1,8,0:0:0:0:
448,192,82295,1,0,0:0:0:0:
64,192,82745,1,2,0:0:0:0:
320,192,82895,1,8,0:0:0:0:
448,192,82895,1,0,0:0:0:0:
192,192,83195,1,2,0:0:0:0:
64,192,83495,1,8,0:0:0:0:
320,192,83495,1,0,0:0:0:0:
448,192,83945,1,2,0:0:0:0:
192,192,84095,1,8,0:0:0:0:
64,192,84095,1,0,0:0:0:0:
320,192,84395,128,8,84695:0:0:0:0:
192,192,84695,1,8,0:0:0:0:
448,192,84695,1,0,0:0:0:0:
64,192,85145,1,2,0:0:0:0:
320,192,85295,1,8,0:0:0:0:
448,192,85295,1,0,0:0:0:0:
192,192,85595,1,8,0:0:0:0:
64,192,85595,1,0,0:0:0:0:
320,192,86045,1,8,0:0:0:0:
448,192,86045,1,0,0:0:0:0:
192,192,86495,1,2,0:0:0:0:
64,192,86495,1,0,0:0:0:0:
320,192,86795,1,8,0:0:0:0:
448,192,86795,1,0,0:0:0:0:
64,192,87245,1,8,0:0:0:0:
192,192,87245,1,0,0:0:0:0:
320,192,87695,1,2,0:0:0:0:
448,192,87695,1,0,0:0:0:0:
64,192,87995,1,4,0:0:0:0:
192,192,88295,1,8,0:0:0:0:
448,192,88295,1,0,0:0:0:0:
64,192,88745,1,2,0:0:0:0:
192,192,88895,1,8,0:0:0:0:
320,192,88895,1,0,0:0:0:0:
448,192,89195,1,2,0:0:0:0:
320,192,89495,1,8,0:0:0:0:
64,192,89495,1,0,0:0:0:0:
448,192,89945,1,2,0:0:0:0:
192,192,90095,1,8,0:0:0:0:
64,192,90095,1,0,0:0:0:0:
448,192,90395,1,2,0:0:0:0:
320,192,90695,1,8,0:0:0:0:
192,192,90695,1,0,0:0:0:0:
448,192,91145,1,2,0:0:0:0:
320,192,91295,1,8,0:0:0:0:
64,192,91295,1,0,0:0:0:0:
192,192,91595,1,2,0:0:0:0:
320,192,91895,1,8,0:0:0:0:
448,192,91895,1,0,0:0:0:0:
192,192,92345,1,2,0:0:0:0:
320,192,92495,1,8,0:0:0:0:
448,192,92495,1,0,0:0:0:0:
64,192,92795,1,2,0:0:0:0:
192,192,93095,1,8,0:0:0:0:
320,192,93095,1,0,0:0:0:0:
64,192,93545,1,2,0:0:0:0:
192,192,93695,1,8,0:0:0:0:
320,192,93695,1,0,0:0:0:0:
448,192,93995,1,2,0:0:0:0:
192,192,94295,1,8,0:0:0:0:
64,192,94295,1,0,0:0:0:0:
448,192,94745,1,2,0:0:0:0:
192,192,94895,1,8,0:0:0:0:
64,192,94895,1,0,0:0:0:0:
320,192,95195,1,2,0:0:0:0:
448,192,95495,1,8,0:0:0:0:
64,192,95495,1,0,0:0:0:0:
320,192,95945,1,2,0:0:0:0:
448,192,96095,1,8,0:0:0:0:
192,192,96095,1,0,0:0:0:0:
64,192,96395,1,8,0:0:0:0:
320,192,96545,1,2,0:0:0:0:
448,192,96545,1,0,0:0:0:0:
320,192,96845,1,2,0:0:0:0:
448,192,96845,1,0,0:0:0:0:
448,192,97145,1,0,0:0:0:0:
320,192,97145,1,2,0:0:0:0:
448,192,97445,1,0,0:0:0:0:
320,192,97445,1,2,0:0:0:0:
64,192,97595,1,0,0:0:0:0:
448,192,98195,1,0,0:0:0:0:
320,192,98795,1,0,0:0:0:0:
192,192,99395,1,0,0:0:0:0:
64,192,99995,1,0,0:0:0:0:
320,192,100595,1,0,0:0:0:0:
192,192,101195,1,0,0:0:0:0:
448,192,101795,1,0,0:0:0:0:
320,192,102395,1,0,0:0:0:0:
64,192,102995,1,0,0:0:0:0:
448,192,103595,1,0,0:0:0:0:
192,192,104195,1,0,0:0:0:0:
64,192,104795,1,0,0:0:0:0:
320,192,105395,1,0,0:0:0:0:
448,192,105995,1,0,0:0:0:0:
192,192,106595,1,0,0:0:0:0:
320,192,107195,128,4,107795:0:0:0:0:
64,192,107795,128,0,108395:0:0:0:0:
192,192,108395,128,0,108995:0:0:0:0:
320,192,108995,128,0,109595:0:0:0:0:
64,192,109595,128,0,110195:0:0:0:0:
192,192,110195,128,0,110795:0:0:0:0:
320,192,110795,128,0,111395:0:0:0:0:
448,192,111395,128,0,111995:0:0:0:0:
192,192,111995,128,0,112595:0:0:0:0:
448,192,112595,128,0,113195:0:0:0:0:
64,192,113195,128,0,113795:0:0:0:0:
320,192,113795,128,0,114395:0:0:0:0:
192,192,114395,128,0,114995:0:0:0:0:
64,192,114395,128,0,114995:0:0:0:0:
448,192,114995,128,0,115595:0:0:0:0:
320,192,114995,128,0,115595:0:0:0:0:
64,192,115595,1,8,0:0:0:0:
320,192,115745,1,0,0:0:0:0:
448,192,115745,1,2,0:0:0:0:
320,192,116045,1,0,0:0:0:0:
448,192,116045,1,2,0:0:0:0:
320,192,116345,1,0,0:0:0:0:
448,192,116345,1,2,0:0:0:0:
320,192,116645,1,0,0:0:0:0:
448,192,116645,1,2,0:0:0:0:
64,192,116795,128,4,117095:0:0:0:0:
448,192,117095,1,8,0:0:0:0:
192,192,117095,1,0,0:0:0:0:
192,192,117545,1,2,0:0:0:0:
320,192,117695,1,8,0:0:0:0:
448,192,117695,1,0,0:0:0:0:
64,192,117995,1,2,0:0:0:0:
192,192,118295,1,8,0:0:0:0:
320,192,118295,1,0,0:0:0:0:
448,192,118745,1,2,0:0:0:0:
192,192,118895,1,8,0:0:0:0:
64,192,118895,1,0,0:0:0:0:
320,192,119195,128,8,119495:0:0:0:0:
192,192,119495,1,8,0:0:0:0:
448,192,119495,1,0,0:0:0:0:
320,192,119945,1,2,0:0:0:0:
64,192,120095,1,8,0:0:0:0:
448,192,120095,1,0,0:0:0:0:
192,192,120395,1,2,0:0:0:0:
320,192,120695,1,8,0:0:0:0:
448,192,120695,1,0,0:0:0:0:
192,192,121145,1,2,0:0:0:0:
320,192,121295,1,0,0:0:0:0:
64,192,121295,1,8,0:0:0:0:
448,192,121595,128,8,121895:0:0:0:0:
192,192,121895,1,8,0:0:0:0:
320,192,121895,1,0,0:0:0:0:
448,192,122345,1,2,0:0:0:0:
320,192,122495,1,8,0:0:0:0:
64,192,122495,1,0,0:0:0:0:
192,192,122795,1,2,0:0:0:0:
64,192,123095,1,8,0:0:0:0:
448,192,123095,1,0,0:0:0:0:
320,192,123545,1,2,0:0:0:0:
192,192,123695,1,8,0:0:0:0:
448,192,123695,1,0,0:0:0:0:
64,192,123995,128,8,124295:0:0:0:0:
320,192,124295,1,0,0:0:0:0:
192,192,124295,1,8,0:0:0:0:
448,192,124745,1,2,0:0:0:0:
320,192,124895,1,0,0:0:0:0:
64,192,124895,1,8,0:0:0:0:
192,192,125195,1,8,0:0:0:0:
64,192,125345,1,2,0:0:0:0:
448,192,125345,1,0,0:0:0:0:
64,192,125645,1,2,0:0:0:0:
448,192,125645,1,0,0:0:0:0:
448,192,125945,1,0,0:0:0:0:
64,192,125945,1,2,0:0:0:0:
448,192,126245,1,0,0:0:0:0:
64,192,126245,1,2,0:0:0:0:
320,192,126395,1,4,0:0:0:0:
192,192,126695,1,8,0:0:0:0:
64,192,126695,1,0,0:0:0:0:
320,192,127145,1,2,0:0:0:0:
192,192,127295,1,8,0:0:0:0:
448,192,127295,1,0,0:0:0:0:
320,192,127595,1,2,0:0:0:0:
64,192,127895,1,8,0:0:0:0:
448,192,127895,1,0,0:0:0:0:
192,192,128345,1,2,0:0:0:0:
320,192,128495,1,0,0:0:0:0:
64,192,128495,1,8,0:0:0:0:
448,192,128795,1,8,0:0:0:0:
320,192,129095,1,0,0:0:0:0:
192,192,129095,1,8,0:0:0:0:
64,192,129545,1,2,0:0:0:0:
192,192,129695,1,8,0:0:0:0:
448,192,129695,1,0,0:0:0:0:
320,192,129995,1,2,0:0:0:0:
64,192,130295,1,8,0:0:0:0:
448,192,130295,1,0,0:0:0:0:
192,192,130745,1,2,0:0:0:0:
320,192,130895,1,8,0:0:0:0:
448,192,130895,1,0,0:0:0:0:
192,192,131195,128,8,131495:0:0:0:0:
64,192,131495,1,8,0:0:0:0:
320,192,131495,1,0,0:0:0:0:
448,192,131945,1,2,0:0:0:0:
192,192,132095,1,8,0:0:0:0:
64,192,132095,1,0,0:0:0:0:
320,192,132395,1,2,0:0:0:0:
192,192,132695,1,8,0:0:0:0:
448,192,132695,1,0,0:0:0:0:
320,192,133145,1,2,0:0:0:0:
64,192,133295,1,8,0:0:0:0:
448,192,133295,1,0,0:0:0:0:
320,192,133595,128,8,133895:0:0:0:0:
192,192,133895,1,0,0:0:0:0:
64,192,133895,1,8,0:0:0:0:
448,192,134345,1,2,0:0:0:0:
192,192,134495,1,8,0:0:0:0:
320,192,134495,1,0,0:0:0:0:
64,192,134795,1,8,0:0:0:0:
320,192,134945,1,0,0:0:0:0:
192,192,134945,1,2,0:0:0:0:
192,192,135245,1,2,0:0:0:0:
320,192,135245,1,0,0:0:0:0:
192,192,135545,1,2,0:0:0:0:
320,192,135545,1,0,0:0:0:0:
192,192,135845,1,2,0:0:0:0:
320,192,135845,1,0,0:0:0:0:
448,192,135995,128,4,136445:0:0:0:0:
64,192,136445,128,0,136895:0:0:0:0:
192,192,136895,128,8,137195:0:0:0:0:
320,192,137195,128,2,137645:0:0:0:0:
448,192,137645,128,0,138095:0:0:0:0:
192,192,138095,128,8,138395:0:0:0:0:
64,192,138395,128,8,138845:0:0:0:0:
320,192,138845,128,0,139295:0:0:0:0:
448,192,139295,128,8,139595:0:0:0:0:
192,192,139595,128,2,140045:0:0:0:0:
64,192,140045,128,0,140495:0:0:0:0:
320,192,140495,128,8,140795:0:0:0:0:
448,192,140795,128,8,141245:0:0:0:0:
192,192,141245,128,0,141695:0:0:0:0:
64,192,141695,128,8,141995:0:0:0:0:
320,192,141995,128,2,142445:0:0:0:0:
448,192,142445,128,0,142895:0:0:0:0:
64,192,142895,128,8,143195:0:0:0:0:
192,192,143195,128,8,143645:0:0:0:0:
320,192,143645,128,0,144095:0:0:0:0:
448,192,144095,128,8,144395:0:0:0:0:
320,192,144395,1,8,0:0:0:0:
192,192,144545,1,2,0:0:0:0:
64,192,144545,1,0,0:0:0:0:
192,192,144845,1,2,0:0:0:0:
64,192,144845,1,0,0:0:0:0:
192,192,145145,1,2,0:0:0:0:
64,192,145145,1,0,0:0:0:0:
192,192,145445,1,2,0:0:0:0:
64,192,145445,1,0,0:0:0:0:
448,192,145595,1,4,0:0:0:0:
