osu file format v14

[General]
AudioFilename: audio.mp3
AudioLeadIn: 0
PreviewTime: 87720
Countdown: 0
SampleSet: Soft
StackLeniency: 0.7
Mode: 2
LetterboxInBreaks: 0
WidescreenStoryboard: 0

[Editor]
DistanceSpacing: 1.2
BeatDivisor: 4
GridSize: 4
TimelineZoom: 3.35

[Metadata]
Title:Airborne Robots
TitleUnicode:Airborne Robots
Artist:F-777
ArtistUnicode:F-777
Creator:JBHyperion
Version:Hyperdimension Flying Object
Source:Geometry Dash Meltdown
Tags:Jesse Valentine Ludicrous Speed instrumental breakbeat electronic
BeatmapID:907557
BeatmapSetID:419373

[Difficulty]
HPDrainRate:7
CircleSize:4.2
OverallDifficulty:9.6
ApproachRate:9.6
SliderMultiplier:1.5
SliderTickRate:2

[Events]
//Background and Video events
0,0,"47381_abstract_abstract_geometry.jpg",0,0
//Break Periods
//Storyboard Layer 0 (Background)
//Storyboard Layer 1 (Fail)
//Storyboard Layer 2 (Pass)
//Storyboard Layer 3 (Foreground)
//Storyboard Sound Samples

[TimingPoints]
120,300,4,2,1,45,1,0
1320,-100,4,2,1,50,0,0
2520,-100,4,2,1,55,0,0
3720,-100,4,2,1,60,0,0
4920,-100,4,2,1,65,0,0
6120,-100,4,2,1,70,0,0
7320,-100,4,2,1,75,0,0
8520,-100,4,2,1,80,0,0
9720,-100,4,2,1,55,0,0
10920,-100,4,2,1,60,0,0
12120,-100,4,2,1,65,0,0
13320,-100,4,2,1,70,0,0
15720,-100,4,2,1,75,0,0
16920,-100,4,2,1,80,0,0
19320,-100,4,2,77,60,0,0
19395,-100,4,2,1,60,0,0
28920,-100,4,2,77,60,0,0
28995,-100,4,2,1,60,0,0
29220,-100,4,2,77,60,0,0
29295,-100,4,2,1,60,0,0
29820,-100,4,2,77,60,0,0
29895,-100,4,2,1,60,0,0
30420,-100,4,2,77,60,0,0
30495,-100,4,2,1,60,0,0
31020,-100,4,2,77,60,0,0
31320,-100,4,2,1,60,0,0
31620,-100,4,2,77,50,0,0
31695,-100,4,2,1,50,0,0
32220,-100,4,2,77,50,0,0
32520,-100,4,2,1,50,0,0
32970,-100,4,2,77,70,0,0
33045,-100,4,2,1,60,0,0
33420,-100,4,2,77,70,0,0
33495,-100,4,2,1,60,0,0
34020,-100,4,2,77,70,0,0
34095,-100,4,2,1,60,0,0
34620,-100,4,2,77,70,0,0
34695,-100,4,2,1,60,0,0
35220,-100,4,2,77,70,0,0
35295,-100,4,2,1,60,0,0
35820,-100,4,2,77,70,0,0
36120,-100,4,2,1,60,0,0
36420,-100,4,2,77,70,0,0
36495,-100,4,2,1,60,0,0
37020,-100,4,2,77,70,0,0
37320,-100,4,2,1,60,0,0
37770,-100,4,2,77,70,0,0
37845,-100,4,2,1,60,0,0
38220,-100,4,2,77,70,0,0
38295,-100,4,2,1,60,0,0
38520,-100,4,2,55,70,0,0
38670,-100,4,2,2,5,0,0
38820,-100,4,2,2,55,0,0
39120,-100,4,2,2,5,0,0
39270,-100,4,2,2,70,0,0
39870,-100,4,2,2,5,0,0
40020,-100,4,2,2,55,0,0
40920,-100,4,2,2,60,0,0
41070,-100,4,2,2,5,0,0
41220,-100,4,2,2,60,0,0
42120,-100,4,2,2,65,0,0
42270,-100,4,2,2,5,0,0
42420,-100,4,2,2,65,0,0
43320,-100,4,2,2,70,0,0
45720,-100,4,2,69,45,0,0
46020,-100,4,2,69,50,0,0
46320,-100,4,2,69,55,0,0
46620,-100,4,2,69,60,0,0
46920,-100,4,2,69,65,0,0
47220,-100,4,2,69,70,0,0
47520,-100,4,2,69,75,0,0
47820,-100,4,2,69,80,0,0
48120,-57.1428571428571,4,2,77,80,0,1
48270,-80,4,2,2,80,0,1
48720,-80,4,2,1,60,0,1
49020,-80,4,2,2,80,0,1
49770,-80,4,2,1,60,0,1
50220,-80,4,2,2,80,0,1
50520,-80,4,2,1,60,0,1
50670,-80,4,2,2,80,0,1
51120,-80,4,2,1,60,0,1
51420,-80,4,2,2,80,0,1
52170,-80,4,2,1,60,0,1
52320,-80,4,2,2,80,0,1
52395,-80,4,2,1,60,0,1
52620,-80,4,2,2,80,0,1
52920,-80,4,2,1,60,0,1
53070,-80,4,2,2,5,0,1
53145,-80,4,2,2,80,0,1
53520,-80,4,2,1,60,0,1
53820,-80,4,2,2,80,0,1
54720,-80,4,2,1,60,0,1
55020,-80,4,2,2,80,0,1
55320,-80,4,2,1,60,0,1
55470,-80,4,2,2,80,0,1
55920,-80,4,2,1,60,0,1
56220,-80,4,2,2,80,0,1
56520,-100,4,2,77,70,0,0
57420,-80,4,2,77,70,0,0
57720,-66.6666666666667,4,2,77,80,0,1
57870,-80,4,2,2,80,0,1
58320,-80,4,2,1,60,0,1
58620,-80,4,2,2,80,0,1
59370,-80,4,2,1,60,0,1
59820,-80,4,2,2,80,0,1
60120,-80,4,2,1,60,0,1
60270,-80,4,2,2,80,0,1
60720,-80,4,2,1,60,0,1
61020,-80,4,2,2,80,0,1
61770,-80,4,2,1,60,0,1
61920,-80,4,2,2,80,0,1
61995,-80,4,2,1,60,0,1
62220,-80,4,2,2,80,0,1
62520,-80,4,2,1,60,0,1
62670,-80,4,2,2,5,0,1
62745,-80,4,2,2,80,0,1
63120,-80,4,2,1,60,0,1
63420,-80,4,2,2,80,0,1
64320,-80,4,2,1,60,0,1
64620,-80,4,2,2,80,0,1
64920,-80,4,2,1,60,0,1
65070,-80,4,2,2,80,0,1
65520,-80,4,2,1,60,0,1
65820,-80,4,2,2,80,0,1
66120,-80,4,2,77,80,0,1
66195,-80,4,2,1,60,0,1
66420,-80,4,2,1,80,0,1
66570,-80,4,2,77,80,0,1
66645,-80,4,2,1,80,0,1
66870,-80,4,2,77,80,0,1
67245,-100,4,2,1,80,0,0
67320,-50,4,2,55,80,0,1
67470,-80,4,2,2,80,0,1
67770,-80,4,2,1,60,0,1
68070,-80,4,2,2,80,0,1
68520,-80,4,2,55,80,0,1
68670,-80,4,2,2,80,0,1
68970,-80,4,2,1,60,0,1
69270,-80,4,2,2,80,0,1
69720,-80,4,2,1,60,0,1
69870,-80,4,2,2,80,0,1
70170,-80,4,2,1,60,0,1
70470,-80,4,2,2,80,0,1
70920,-80,4,2,55,80,0,1
71070,-80,4,2,2,80,0,1
71370,-80,4,2,1,60,0,1
71520,-66.6666666666667,4,2,55,80,0,1
71970,-66.6666666666667,4,2,1,60,0,1
72270,-80,4,2,2,80,0,1
72570,-80,4,2,1,60,0,1
72870,-80,4,2,2,80,0,1
73320,-80,4,2,55,80,0,1
73470,-80,4,2,2,80,0,1
73770,-80,4,2,1,60,0,1
74070,-80,4,2,2,80,0,1
74520,-80,4,2,1,60,0,1
74670,-80,4,2,2,80,0,1
74970,-80,4,2,1,60,0,1
75270,-80,4,2,2,80,0,1
75720,-100,4,2,77,70,0,0
75870,-100,4,2,1,70,0,0
76170,-100,4,2,77,70,0,0
76620,-66.6666666666667,4,2,77,70,0,0
76770,-66.6666666666667,4,2,1,70,0,0
76920,-66.6666666666667,4,2,77,80,0,1
77070,-66.6666666666667,4,2,1,60,0,1
77220,-66.6666666666667,4,2,2,80,0,1
77520,-66.6666666666667,4,2,1,60,0,1
77820,-66.6666666666667,4,2,2,80,0,1
78120,-66.6666666666667,4,2,1,80,0,1
78270,-66.6666666666667,4,2,1,60,0,1
78420,-66.6666666666667,4,2,2,80,0,1
78720,-66.6666666666667,4,2,1,60,0,1
79020,-66.6666666666667,4,2,2,80,0,1
79320,-66.6666666666667,4,2,1,80,0,1
79470,-66.6666666666667,4,2,1,60,0,1
79620,-66.6666666666667,4,2,2,80,0,1
79695,-66.6666666666667,4,2,1,60,0,1
80070,-66.6666666666667,4,2,2,80,0,1
80520,-66.6666666666667,4,2,1,80,0,1
80670,-66.6666666666667,4,2,1,60,0,1
80820,-66.6666666666667,4,2,2,80,0,1
80895,-66.6666666666667,4,2,1,60,0,1
81120,-66.6666666666667,4,2,1,80,0,1
81420,-66.6666666666667,4,2,2,80,0,1
81720,-66.6666666666667,4,2,1,80,0,1
81870,-66.6666666666667,4,2,1,60,0,1
82020,-66.6666666666667,4,2,2,80,0,1
82320,-66.6666666666667,4,2,1,60,0,1
82620,-66.6666666666667,4,2,2,80,0,1
82920,-66.6666666666667,4,2,1,80,0,1
83070,-66.6666666666667,4,2,1,60,0,1
83220,-66.6666666666667,4,2,2,80,0,1
83520,-66.6666666666667,4,2,1,60,0,1
83820,-66.6666666666667,4,2,2,80,0,1
84120,-66.6666666666667,4,2,1,80,0,1
84270,-66.6666666666667,4,2,1,60,0,1
84420,-66.6666666666667,4,2,2,80,0,1
84495,-66.6666666666667,4,2,1,60,0,1
84720,-66.6666666666667,4,2,2,60,0,1
84795,-66.6666666666667,4,2,1,60,0,1
85020,-66.6666666666667,4,2,2,80,0,1
85320,-80,4,2,55,80,0,0
85770,-100,4,2,55,80,0,0
86520,-80,4,2,55,80,0,0
87720,-66.6666666666667,4,2,55,80,0,1
88020,-80,4,2,2,80,0,1
88095,-80,4,2,1,60,0,1
88470,-80,4,2,2,80,0,1
88920,-80,4,2,2,5,0,1
89070,-80,4,2,2,80,0,1
89295,-80,4,2,1,60,0,1
89820,-80,4,2,2,80,0,1
90120,-80,4,2,1,60,0,1
90420,-80,4,2,2,80,0,1
90495,-80,4,2,1,60,0,1
90645,-80,4,2,2,60,0,1
90795,-80,4,2,1,60,0,1
90870,-80,4,2,2,80,0,1
91320,-80,4,2,2,5,0,1
91470,-80,4,2,2,80,0,1
91770,-80,4,2,1,60,0,1
91920,-80,4,2,2,60,0,1
92070,-80,4,2,1,60,0,1
92220,-80,4,2,2,60,0,1
92520,-80,4,2,1,80,0,1
92670,-80,4,2,2,80,0,1
92895,-80,4,2,1,60,0,1
93270,-80,4,2,2,80,0,1
93720,-80,4,2,2,5,0,1
93870,-80,4,2,2,80,0,1
94095,-80,4,2,1,60,0,1
94470,-80,4,2,2,80,0,1
94920,-80,4,2,1,80,0,1
95220,-80,4,2,2,80,0,1
95295,-80,4,2,1,60,0,1
95670,-80,4,2,2,80,0,1
96120,-80,4,2,55,70,0,1
96270,-80,4,2,2,60,0,1
96420,-80,4,2,55,70,0,1
96570,-80,4,2,2,60,0,1
96720,-80,4,2,55,70,0,1
96870,-80,4,2,2,60,0,1
97020,-80,4,2,55,60,0,1
97170,-80,4,2,2,50,0,1
97245,-80,4,2,1,50,0,0
97320,-66.6666666666667,4,2,55,80,0,1
97470,-66.6666666666667,4,2,2,80,0,1
97620,-80,4,2,2,80,0,1
97695,-80,4,2,1,60,0,1
98070,-80,4,2,2,80,0,1
98520,-80,4,2,2,5,0,1
98670,-80,4,2,2,80,0,1
98895,-80,4,2,1,60,0,1
99270,-80,4,2,2,80,0,1
99720,-80,4,2,1,80,0,1
99870,-80,4,2,2,80,0,1
100095,-80,4,2,1,60,0,1
100320,-80,4,2,2,80,0,1
100920,-80,4,2,1,80,0,1
101295,-80,4,2,1,60,0,1
101370,-80,4,2,2,60,0,1
101595,-100,4,2,2,60,0,1
101670,-80,4,2,2,60,0,1
101820,-80,4,2,2,80,0,1
101895,-80,4,2,1,60,0,1
102120,-80,4,2,1,80,0,1
102270,-80,4,2,2,80,0,1
102495,-80,4,2,1,60,0,1
102870,-80,4,2,2,80,0,1
103320,-80,4,2,2,5,0,1
103470,-80,4,2,2,80,0,1
103845,-80,4,2,1,50,0,1
104070,-80,4,2,2,80,0,1
104595,-80,4,2,1,60,0,1
104820,-80,4,2,2,80,0,1
104895,-80,4,2,1,60,0,1
105270,-80,4,2,2,80,0,1
105720,-80,4,2,55,70,0,1
105870,-80,4,2,2,60,0,1
106020,-80,4,2,55,70,0,1
106170,-80,4,2,2,60,0,1
106320,-80,4,2,55,70,0,1
106470,-80,4,2,2,60,0,1
106620,-80,4,2,55,60,0,1
106920,-100,4,2,1,90,0,0
109170,-66.6666666666667,4,2,1,80,0,0
109470,-100,4,2,1,80,0,0
110370,-66.6666666666667,4,2,1,80,0,0
110670,-100,4,2,1,80,0,0
113970,-66.6666666666667,4,2,1,80,0,0
114270,-100,4,2,1,80,0,0
115170,-66.6666666666667,4,2,1,80,0,0
115470,-100,4,2,1,80,0,0
116520,-100,4,2,77,60,0,0
116670,-100,4,2,1,30,0,0
117120,-100,4,2,1,35,0,0
117720,-100,4,2,1,40,0,0
118320,-100,4,2,1,45,0,0
118920,-100,4,2,1,50,0,0
119520,-100,4,2,1,55,0,0
120120,-100,4,2,1,60,0,0
120720,-100,4,2,1,65,0,0
121020,-100,4,2,1,50,0,0
121320,-100,4,2,1,55,0,0
121920,-100,4,2,1,60,0,0
122520,-100,4,2,1,65,0,0
123120,-100,4,2,1,70,0,0
123720,-100,4,2,1,75,0,0
124320,-100,4,2,1,80,0,0
124920,-100,4,2,55,60,0,0
125220,-80,4,2,55,70,0,0
125520,-80,4,2,55,80,0,0
125820,-80,4,2,55,90,0,0
126120,-50,4,2,55,80,0,1
126195,-100,4,2,2,80,0,0
126720,-100,4,2,1,60,0,0
126870,-100,4,2,2,80,0,0
127320,-100,4,2,1,60,0,0
127470,-100,4,2,2,80,0,0
127920,-100,4,2,1,60,0,0
128070,-100,4,2,2,80,0,0
128295,-100,4,2,1,60,0,0
128820,-100,4,2,2,80,0,0
129120,-100,4,2,1,60,0,0
129270,-100,4,2,2,80,0,0
129720,-80,4,2,1,80,0,0
129870,-80,4,2,2,80,0,0
130170,-80,4,2,1,60,0,0
130320,-80,4,2,2,80,0,0
130920,-57.1428571428571,4,2,55,90,0,0
131070,-100,4,2,2,80,0,0
131370,-100,4,2,1,60,0,0
131520,-100,4,2,1,80,0,0
131670,-100,4,2,2,80,0,0
132120,-100,4,2,1,80,0,0
132270,-100,4,2,2,80,0,0
132570,-100,4,2,1,60,0,0
132720,-100,4,2,1,80,0,0
132870,-100,4,2,2,80,0,0
133095,-100,4,2,1,60,0,0
133320,-100,4,2,1,80,0,0
133470,-100,4,2,2,80,0,0
133920,-100,4,2,1,80,0,0
134070,-100,4,2,2,80,0,0
134520,-80,4,2,1,80,0,0
134670,-80,4,2,2,80,0,0
135720,-66.6666666666667,4,2,55,80,0,1
135795,-100,4,2,2,80,0,0
136095,-100,4,2,1,60,0,0
136320,-100,4,2,1,80,0,0
136470,-100,4,2,2,80,0,0
136920,-100,4,2,1,80,0,0
137070,-100,4,2,2,80,0,0
137520,-100,4,2,1,80,0,0
137670,-100,4,2,2,80,0,0
137895,-100,4,2,1,60,0,0
138120,-100,4,2,1,80,0,0
138270,-100,4,2,2,80,0,0
138495,-100,4,2,1,60,0,0
138870,-100,4,2,2,80,0,0
139320,-80,4,2,1,80,0,0
139470,-80,4,2,2,80,0,0
139770,-80,4,2,1,60,0,0
139920,-80,4,2,2,80,0,0
140520,-57.1428571428571,4,2,55,90,0,0
140670,-100,4,2,2,80,0,0
140895,-100,4,2,1,60,0,0
141270,-100,4,2,2,80,0,0
141720,-100,4,2,1,80,0,0
141870,-100,4,2,2,80,0,0
142095,-100,4,2,1,60,0,0
142620,-100,4,2,2,80,0,0
142695,-100,4,2,1,60,0,0
142920,-100,4,2,1,80,0,0
143070,-100,4,2,2,80,0,0
143520,-100,4,2,1,80,0,0
143670,-100,4,2,2,80,0,0
145320,-80,4,2,55,80,0,1
145470,-80,4,2,2,80,0,1
145920,-80,4,2,2,5,0,1
146070,-80,4,2,2,80,0,1
146895,-80,4,2,1,60,0,1
147270,-80,4,2,2,80,0,1
147720,-80,4,2,55,80,0,1
147870,-80,4,2,2,80,0,1
148095,-80,4,2,1,60,0,1
148470,-80,4,2,2,80,0,1
149445,-80,4,2,2,60,0,1
149520,-80,4,2,1,60,0,1
149595,-80,4,2,2,60,0,1
149745,-80,4,2,1,60,0,1
149820,-80,4,2,2,60,0,1
150120,-80,4,2,55,60,0,1
150270,-80,4,2,2,80,0,1
150720,-80,4,2,2,5,0,1
150870,-80,4,2,2,80,0,1
151695,-80,4,2,1,60,0,1
152070,-80,4,2,2,80,0,1
152520,-80,4,2,55,80,0,1
152670,-80,4,2,2,80,0,1
152895,-80,4,2,1,60,0,1
153270,-80,4,2,2,80,0,1
153720,-80,4,2,2,80,0,1
154020,-66.6666666666667,4,2,2,80,0,1
154320,-57.1428571428571,4,2,2,70,0,1
154620,-50,4,2,2,70,0,1
154920,-100,4,2,55,70,0,0
156120,-80,4,2,55,70,0,0
157320,-66.6666666666667,4,2,55,70,0,0
158670,-100,4,2,1,60,0,0
160020,-100,4,2,1,55,0,0
160170,-100,4,2,1,50,0,0
160320,-100,4,2,1,45,0,0
160470,-100,4,2,1,40,0,0
160620,-100,4,2,1,35,0,0
160770,-100,4,2,1,30,0,0
160920,-100,4,2,1,25,0,0
161070,-100,4,2,1,20,0,0
161220,-100,4,2,1,15,0,0
161370,-100,4,2,1,10,0,0
161520,-100,4,2,1,5,0,0

[Colours]
Combo1 : 0,140,140
Combo2 : 0,200,100
Combo3 : 100,255,255
Combo4 : 0,75,255

[HitObjects]
228,320,120,5,4,0:0:0:0:
165,279,270,1,0,0:0:0:0:
130,214,420,1,0,0:0:0:0:
129,140,570,1,0,0:0:0:0:
160,72,720,1,0,0:0:0:0:
222,33,870,1,0,0:0:0:0:
297,32,1020,1,0,0:0:0:0:
360,71,1170,1,0,0:0:0:0:
268,104,1320,5,2,0:0:0:0:
200,131,1470,1,0,0:0:0:0:
175,199,1620,1,0,0:0:0:0:
208,264,1770,1,0,0:0:0:0:
278,283,1920,1,2,0:0:0:0:
340,243,2070,1,0,0:0:0:0:
272,208,2220,1,2,0:0:0:0:
208,264,2370,1,0,0:0:0:0:
340,243,2520,5,4,0:0:0:0:
415,184,2670,1,0,0:0:0:0:
407,89,2820,1,0,0:0:0:0:
322,43,2970,1,0,0:0:0:0:
232,44,3120,1,0,0:0:0:0:
159,61,3270,1,0,0:0:0:0:
101,108,3420,1,0,0:0:0:0:
68,174,3570,1,0,0:0:0:0:
148,172,3720,5,2,0:0:0:0:
222,170,3870,1,0,0:0:0:0:
288,204,4020,1,0,0:0:0:0:
329,266,4170,1,0,0:0:0:0:
216,304,4320,1,2,0:0:0:0:
152,264,4470,1,0,0:0:0:0:
317,266,4620,1,2,0:0:0:0:
380,224,4770,1,0,0:0:0:0:
216,188,4920,6,0,L|204:112,1,75,4|0,0:0|0:0,0:0:0:0:
68,112,5220,2,0,L|80:36,1,75
232,36,5520,2,0,L|244:112,1,75
108,112,5820,2,0,L|96:188,1,75
248,192,6120,6,0,L|332:192,1,75,2|0,0:0|0:0,0:0:0:0:
472,256,6420,2,0,L|388:256,1,75
248,284,6720,1,2,0:0:0:0:
160,304,6870,1,0,0:0:0:0:
312,284,7020,1,2,0:0:0:0:
378,345,7170,1,0,0:0:0:0:
220,368,7320,5,4,0:0:0:0:
125,343,7470,1,0,0:0:0:0:
72,261,7620,1,0,0:0:0:0:
88,165,7770,1,0,0:0:0:0:
224,224,7920,1,2,0:0:0:0:
318,252,8070,1,0,0:0:0:0:
414,227,8220,1,0,0:0:0:0:
482,155,8370,1,0,0:0:0:0:
332,104,8520,6,0,L|252:104,1,75,2|0,0:0|0:0,0:0:0:0:
388,172,8820,2,0,L|300:172,1,75
164,164,9120,2,0,L|244:164,1,75,2|0,0:0|0:0,0:0:0:0:
88,220,9420,2,0,L|12:220,1,75,2|0,0:0|0:0,0:0:0:0:
300,264,9720,5,10,0:0:0:0:
348,244,9770,1,0,0:0:0:0:
368,196,9820,1,0,0:0:0:0:
348,148,9870,1,0,0:0:0:0:
300,140,9920,1,0,0:0:0:0:
256,160,9970,1,0,0:0:0:0:
210,192,10020,1,0,0:0:0:0:
164,200,10070,1,0,0:0:0:0:
116,192,10120,1,0,0:0:0:0:
92,152,10170,1,0,0:0:0:0:
112,108,10220,1,0,0:0:0:0:
156,92,10270,1,0,0:0:0:0:
300,140,10320,5,2,0:0:0:0:
351,156,10370,1,0,0:0:0:0:
376,208,10420,1,0,0:0:0:0:
348,256,10470,1,0,0:0:0:0:
300,264,10520,1,0,0:0:0:0:
256,232,10570,1,0,0:0:0:0:
212,224,10620,1,0,0:0:0:0:
168,224,10670,1,0,0:0:0:0:
124,232,10720,1,0,0:0:0:0:
96,264,10770,1,0,0:0:0:0:
88,308,10820,1,0,0:0:0:0:
112,344,10870,1,0,0:0:0:0:
165,344,10920,5,8,0:0:0:0:
218,342,10970,1,0,0:0:0:0:
261,309,11020,1,0,0:0:0:0:
277,252,11070,1,0,0:0:0:0:
258,207,11120,1,0,0:0:0:0:
212,177,11170,1,0,0:0:0:0:
168,132,11220,1,0,0:0:0:0:
168,72,11270,1,0,0:0:0:0:
216,40,11320,1,0,0:0:0:0:
272,60,11370,1,0,0:0:0:0:
288,116,11420,1,0,0:0:0:0:
256,160,11470,1,0,0:0:0:0:
112,208,11520,5,2,0:0:0:0:
49,209,11570,1,0,0:0:0:0:
8,258,11620,1,0,0:0:0:0:
19,320,11670,1,0,0:0:0:0:
74,353,11720,1,0,0:0:0:0:
134,334,11770,1,0,0:0:0:0:
187,302,11820,1,0,0:0:0:0:
236,264,11870,1,0,0:0:0:0:
300,264,11920,1,0,0:0:0:0:
324,316,11970,1,0,0:0:0:0:
300,368,12020,1,0,0:0:0:0:
240,380,12070,1,0,0:0:0:0:
187,302,12120,5,8,0:0:0:0:
174,269,12170,1,0,0:0:0:0:
180,235,12220,1,0,0:0:0:0:
203,210,12270,1,0,0:0:0:0:
237,201,12320,1,0,0:0:0:0:
272,200,12370,1,0,0:0:0:0:
237,201,12420,1,0,0:0:0:0:
193,191,12470,1,0,0:0:0:0:
159,162,12520,1,0,0:0:0:0:
136,112,12570,1,0,0:0:0:0:
144,76,12620,1,0,0:0:0:0:
168,40,12670,1,0,0:0:0:0:
312,28,12720,5,2,0:0:0:0:
348,48,12770,1,0,0:0:0:0:
372,84,12820,1,0,0:0:0:0:
379,127,12870,1,0,0:0:0:0:
367,170,12920,1,0,0:0:0:0:
334,200,12970,1,0,0:0:0:0:
281,201,13020,1,0,0:0:0:0:
223,213,13070,1,0,0:0:0:0:
187,259,13120,1,0,0:0:0:0:
188,318,13170,1,0,0:0:0:0:
226,363,13220,1,0,0:0:0:0:
284,373,13270,1,0,0:0:0:0:
428,364,13320,5,8,0:0:0:0:
465,317,13370,1,0,0:0:0:0:
464,258,13420,1,0,0:0:0:0:
427,214,13470,1,0,0:0:0:0:
372,185,13520,1,0,0:0:0:0:
345,185,13570,1,0,0:0:0:0:
372,187,13620,1,0,0:0:0:0:
401,135,13670,1,0,0:0:0:0:
391,78,13720,1,0,0:0:0:0:
346,40,13770,1,0,0:0:0:0:
287,40,13820,1,0,0:0:0:0:
233,65,13870,1,0,0:0:0:0:
68,144,13920,5,2,0:0:0:0:
43,168,13970,1,0,0:0:0:0:
32,201,14020,1,2,0:0:0:0:
35,234,14070,1,0,0:0:0:0:
54,265,14120,1,2,0:0:0:0:
83,283,14170,1,0,0:0:0:0:
268,296,14220,5,2,0:0:0:0:
310,291,14270,1,0,0:0:0:0:
350,268,14320,1,2,0:0:0:0:
372,230,14370,1,0,0:0:0:0:
374,186,14420,1,2,0:0:0:0:
355,145,14470,1,0,0:0:0:0:
319,119,14520,5,2,0:0:0:0:
275,111,14570,1,0,0:0:0:0:
223,131,14620,1,0,0:0:0:0:
206,161,14670,1,0,0:0:0:0:
200,205,14720,1,0,0:0:0:0:
218,246,14770,1,0,0:0:0:0:
252,272,14820,1,0,0:0:0:0:
236,312,14870,1,0,0:0:0:0:
196,332,14920,1,0,0:0:0:0:
152,332,14970,1,0,0:0:0:0:
120,304,15020,1,0,0:0:0:0:
116,256,15070,1,0,0:0:0:0:
304,212,15120,5,2,0:0:0:0:
344,212,15170,1,0,0:0:0:0:
388,224,15220,1,0,0:0:0:0:
424,256,15270,1,0,0:0:0:0:
444,300,15320,1,0,0:0:0:0:
445,349,15370,1,0,0:0:0:0:
389,337,15420,1,0,0:0:0:0:
341,301,15470,1,0,0:0:0:0:
318,250,15520,1,0,0:0:0:0:
333,193,15570,1,0,0:0:0:0:
380,158,15620,1,0,0:0:0:0:
438,160,15670,1,0,0:0:0:0:
485,193,15720,5,8,0:0:0:0:
508,246,15770,1,0,0:0:0:0:
494,303,15820,1,0,0:0:0:0:
456,336,15870,1,0,0:0:0:0:
408,336,15920,1,0,0:0:0:0:
372,304,15970,1,0,0:0:0:0:
412,284,16020,1,0,0:0:0:0:
436,237,16070,1,0,0:0:0:0:
447,179,16120,1,0,0:0:0:0:
427,123,16170,1,0,0:0:0:0:
382,85,16220,1,0,0:0:0:0:
323,75,16270,1,0,0:0:0:0:
176,76,16320,5,2,0:0:0:0:
109,87,16370,1,0,0:0:0:0:
84,146,16420,1,0,0:0:0:0:
98,209,16470,1,0,0:0:0:0:
162,232,16520,1,0,0:0:0:0:
220,197,16570,1,0,0:0:0:0:
266,156,16620,1,0,0:0:0:0:
321,131,16670,1,0,0:0:0:0:
377,157,16720,1,0,0:0:0:0:
409,210,16770,1,0,0:0:0:0:
408,271,16820,1,0,0:0:0:0:
373,322,16870,1,0,0:0:0:0:
330,348,16920,5,8,0:0:0:0:
286,356,16970,1,0,0:0:0:0:
245,348,17020,1,0,0:0:0:0:
206,336,17070,1,0,0:0:0:0:
171,314,17120,1,0,0:0:0:0:
144,284,17170,1,0,0:0:0:0:
125,248,17220,1,0,0:0:0:0:
116,208,17270,1,0,0:0:0:0:
117,168,17320,1,0,0:0:0:0:
130,129,17370,1,0,0:0:0:0:
152,94,17420,1,0,0:0:0:0:
182,67,17470,1,0,0:0:0:0:
328,44,17520,5,2,0:0:0:0:
386,54,17570,1,0,0:0:0:0:
425,98,17620,1,0,0:0:0:0:
422,156,17670,1,0,0:0:0:0:
378,195,17720,1,0,0:0:0:0:
320,191,17770,1,0,0:0:0:0:
264,172,17820,1,0,0:0:0:0:
210,180,17870,1,0,0:0:0:0:
166,212,17920,1,0,0:0:0:0:
150,264,17970,1,0,0:0:0:0:
166,316,18020,1,0,0:0:0:0:
210,348,18070,1,0,0:0:0:0:
356,348,18120,5,2,0:0:0:0:
408,339,18170,1,0,0:0:0:0:
448,283,18220,1,0,0:0:0:0:
444,215,18270,1,0,0:0:0:0:
396,167,18320,1,0,0:0:0:0:
342,169,18370,1,0,0:0:0:0:
296,191,18420,1,2,0:0:0:0:
244,203,18470,1,0,0:0:0:0:
189,177,18520,1,0,0:0:0:0:
176,119,18570,1,0,0:0:0:0:
210,74,18620,1,0,0:0:0:0:
266,61,18670,1,0,0:0:0:0:
432,168,18720,5,2,0:0:0:0:
465,197,18770,1,0,0:0:0:0:
478,239,18820,1,2,0:0:0:0:
466,282,18870,1,0,0:0:0:0:
433,311,18920,1,2,0:0:0:0:
390,318,18970,1,0,0:0:0:0:
227,271,19020,5,2,0:0:0:0:
178,271,19070,1,2,0:0:0:0:
138,243,19120,1,2,0:0:0:0:
122,196,19170,1,2,0:0:0:0:
136,149,19220,1,2,0:0:0:0:
176,119,19270,1,2,0:0:0:0:
366,207,19320,6,0,B|448:208|448:208|496:152,1,150,4|0,0:0|0:0,0:0:0:0:
340,88,19770,2,0,L|184:124,1,150,2|0,0:0|0:0,0:0:0:0:
300,192,20220,1,0,0:0:0:0:
88,192,20370,1,4,0:0:0:0:
165,192,20520,1,0,0:0:0:0:
240,192,20670,1,0,0:0:0:0:
392,192,20820,2,0,L|432:264,1,75,2|0,0:0|0:0,0:0:0:0:
276,252,21120,2,0,L|364:288,2,75,2|0|0,0:0|0:0|0:0,0:0:0:0:
64,192,21570,6,0,P|36:152|108:108,1,150,2|0,0:0|0:0,0:0:0:0:
208,108,22020,2,0,L|292:108,1,75,2|0,0:0|0:0,0:0:0:0:
168,44,22320,1,2,0:0:0:0:
272,44,22470,1,0,0:0:0:0:
156,44,22620,1,0,0:0:0:0:
368,44,22770,6,0,P|428:60|468:148,1,150,4|0,0:0|0:0,0:0:0:0:
364,132,23220,1,2,0:0:0:0:
452,132,23370,1,0,0:0:0:0:
348,132,23520,1,2,0:0:0:0:
436,132,23670,1,0,0:0:0:0:
300,132,23820,2,0,L|216:132,1,75,2|0,0:0|0:0,0:0:0:0:
436,192,24120,6,0,P|492:228|436:264,1,150,4|0,0:0|0:0,0:0:0:0:
292,264,24570,2,0,L|436:192,1,150,2|0,0:0|0:0,0:0:0:0:
320,196,25020,1,0,0:0:0:0:
108,192,25170,2,0,P|44:168|48:92,1,150,4|0,0:0|0:0,0:0:0:0:
200,104,25620,2,0,L|272:136,1,75,2|0,0:0|0:0,0:0:0:0:
116,196,25920,2,0,L|204:160,2,75,2|0|0,0:0|0:0|0:0,0:0:0:0:
328,192,26370,6,0,P|404:236|420:300,1,150,2|0,0:0|0:0,0:0:0:0:
312,292,26820,2,0,L|228:292,1,75,2|0,0:0|0:0,0:0:0:0:
132,360,27120,1,2,0:0:0:0:
252,360,27270,1,0,0:0:0:0:
116,360,27420,1,0,0:0:0:0:
328,360,27570,6,0,P|388:344|420:256,1,150,4|0,0:0|0:0,0:0:0:0:
301,266,28020,1,2,0:0:0:0:
421,268,28170,1,0,0:0:0:0:
301,190,28320,2,0,L|217:190,1,75,2|0,0:0|0:0,0:0:0:0:
377,126,28620,2,0,L|461:126,1,75,2|0,0:0|0:0,0:0:0:0:
188,72,28920,6,0,L|108:72,1,75,4|0,0:0|0:0,0:0:0:0:
324,128,29220,2,0,L|400:128,2,75,2|2|0,0:0|0:0|0:0,0:0:0:0:
220,128,29670,1,2,0:0:0:0:
432,192,29820,2,0,L|368:248,1,75,8|2,0:0|0:0,0:0:0:0:
224,248,30120,6,0,L|276:308,1,75,0|2,0:0|0:0,0:0:0:0:
484,304,30420,2,0,L|392:304,2,75,2|2|0,0:0|0:0|0:0,0:0:0:0:
380,304,30870,1,2,0:0:0:0:
168,304,31020,2,0,B|132:304|132:304|172:304,1,75,8|2,0:0|0:0,0:0:0:0:
320,232,31320,6,0,L|400:232,1,75
184,176,31620,2,0,L|108:176,2,75,2|2|0,0:0|0:0|0:0,0:0:0:0:
288,176,32070,1,0,0:0:0:0:
152,176,32220,1,8,0:0:0:0:
380,176,32370,6,0,B|456:176|456:176|508:116,1,150,2|0,0:0|0:0,0:0:0:0:
364,116,32820,1,2,0:0:0:0:
152,120,32970,2,0,L|80:92,1,75,2|0,0:0|0:0,0:0:0:0:
188,96,33270,1,0,0:0:0:0:
52,180,33420,2,0,L|136:208,1,75,8|2,0:0|0:0,0:0:0:0:
348,124,33720,6,0,L|428:124,1,75,4|0,0:0|0:0,0:0:0:0:
212,180,34020,2,0,L|136:180,2,75,2|2|0,0:0|0:0|0:0,0:0:0:0:
316,180,34470,1,2,0:0:0:0:
164,120,34620,1,8,0:0:0:0:
376,120,34770,6,0,L|456:120,2,75,2|0|0,0:0|0:0|0:0,0:0:0:0:
240,120,35220,1,2,0:0:0:0:
16,356,35370,2,0,L|108:356,1,75,2|0,0:0|0:0,0:0:0:0:
168,356,35670,1,2,0:0:0:0:
376,356,35820,1,8,0:0:0:0:
236,356,35970,1,2,0:0:0:0:
312,288,36120,6,0,L|232:288,1,75
444,232,36420,2,0,L|508:192,2,75,2|2|0,0:0|0:0|0:0,0:0:0:0:
328,232,36870,1,2,0:0:0:0:
480,232,37020,1,8,0:0:0:0:
264,232,37170,6,0,L|108:232,1,150,2|0,0:0|0:0,0:0:0:0:
324,176,37620,1,2,0:0:0:0:
428,176,37770,2,0,B|466:176|466:176|424:176,1,75,2|2,0:0|0:0,0:0:0:0:
308,176,38070,1,0,0:0:0:0:
156,176,38220,2,0,L|64:176,1,75,8|2,0:0|0:0,0:0:0:0:
344,60,38520,6,0,L|496:84,1,150,4|8,0:0|0:0,0:0:0:0:
280,176,38970,2,0,L|128:200,1,150,0|2,0:0|0:0,0:0:0:0:
252,252,39420,2,0,L|176:264,1,75,8|0,0:0|0:0,0:0:0:0:
392,252,39720,6,0,P|472:216|492:152,1,150,12|8,0:0|0:0,0:0:0:0:
280,136,40170,2,0,P|228:96|284:72,1,150,0|2,0:0|0:0,0:0:0:0:
416,72,40620,2,0,L|340:72,1,75,8|0,0:0|0:0,0:0:0:0:
128,72,40920,6,0,P|56:96|28:160,1,150,12|8,0:0|0:0,0:0:0:0:
240,192,41370,2,0,L|388:248,1,150,0|2,0:0|0:0,0:0:0:0:
260,276,41820,2,0,L|332:304,1,75,8|0,0:0|0:0,0:0:0:0:
120,276,42120,6,0,P|52:248|68:184,1,150,12|8,0:0|0:0,0:0:0:0:
280,192,42570,2,0,P|332:152|276:128,1,150,0|2,0:0|0:0,0:0:0:0:
144,128,43020,2,0,L|68:140,1,75,8|0,0:0|0:0,0:0:0:0:
336,192,43320,6,0,L|344:268,1,75,12|0,0:0|0:0,0:0:0:0:
132,192,43620,2,0,L|124:268,1,75,8|0,0:0|0:0,0:0:0:0:
351,192,43920,2,0,L|343:268,1,75,8|2,0:0|0:0,0:0:0:0:
104,192,44220,2,0,L|112:268,1,75,8|0,0:0|0:0,0:0:0:0:
412,192,44520,6,0,L|496:192,1,75,12|0,0:0|0:0,0:0:0:0:
224,192,44820,2,0,L|148:192,1,75,8|0,0:0|0:0,0:0:0:0:
300,40,45120,1,8,0:0:0:0:
148,40,45270,1,2,0:0:0:0:
376,40,45420,1,8,0:0:0:0:
132,40,45570,1,2,0:0:0:0:
412,136,45720,5,8,0:0:0:0:
399,209,45795,1,8,0:0:0:0:
360,272,45870,1,8,0:0:0:0:
301,317,45945,1,8,0:0:0:0:
152,324,46020,5,8,0:0:0:0:
86,268,46095,1,8,0:0:0:0:
76,183,46170,1,8,0:0:0:0:
125,113,46245,1,8,0:0:0:0:
316,192,46320,5,8,0:0:0:0:
380,232,46395,1,8,0:0:0:0:
376,304,46470,1,8,0:0:0:0:
301,317,46545,1,8,0:0:0:0:
92,312,46620,5,8,0:0:0:0:
24,280,46695,1,8,0:0:0:0:
24,208,46770,1,8,0:0:0:0:
91,180,46845,1,8,0:0:0:0:
244,116,46920,6,8,L|264:116,7,18.75
160,80,47220,6,8,L|140:80,7,18.75
272,40,47520,6,8,L|292:40,7,18.75
136,16,47820,6,8,L|116:16,7,18.75
260,116,48120,6,0,L|392:116,1,131.250001251698,4|0,0:0|0:0,0:0:0:0:
240,116,48420,1,8,0:0:0:0:
352,116,48570,2,0,L|400:116,1,46.875,2|0,0:0|0:0,0:0:0:0:
448,116,48720,2,0,L|494:116,2,46.875,2|2|2,0:0|0:0|0:0,0:0:0:0:
204,116,49020,1,8,0:0:0:0:
45,116,49170,2,0,L|92:116,1,46.875,2|2,0:0|0:0,0:0:0:0:
160,116,49320,5,0,0:0:0:0:
272,192,49470,2,0,L|225:192,1,46.875,2|0,0:0|0:0,0:0:0:0:
164,192,49620,1,8,0:0:0:0:
232,260,49770,2,0,L|288:260,1,46.875,2|2,0:0|0:0,0:0:0:0:
232,260,49920,2,0,L|180:260,2,46.875,2|2|2,0:0|0:0|0:0,0:0:0:0:
476,192,50220,1,8,0:0:0:0:
380,192,50370,2,0,L|316:192,1,46.875,2|2,0:0|0:0,0:0:0:0:
184,192,50520,6,0,L|88:192,1,93.75,4|0,0:0|0:0,0:0:0:0:
260,268,50820,2,0,B|308:268|308:268|252:268,1,93.75,8|2,0:0|0:0,0:0:0:0:
208,268,51045,1,0,0:0:0:0:
152,268,51120,2,0,L|92:268,2,46.875,2|2|2,0:0|0:0|0:0,0:0:0:0:
396,268,51420,1,8,0:0:0:0:
284,236,51570,2,0,L|333:237,1,46.875,2|2,0:0|0:0,0:0:0:0:
484,140,51720,6,0,L|405:191,1,93.75,0|2,0:0|0:0,0:0:0:0:
180,192,52020,1,8,0:0:0:0:
68,192,52170,2,0,L|116:192,1,46.875,2|2,0:0|0:0,0:0:0:0:
180,192,52320,1,2,0:0:0:0:
236,172,52395,1,2,0:0:0:0:
244,108,52470,1,2,0:0:0:0:
20,108,52620,1,8,0:0:0:0:
112,108,52770,2,0,L|172:108,1,46.875,2|2,0:0|0:0,0:0:0:0:
344,16,52920,6,0,P|404:44|428:124,1,140.625,4|0,0:0|0:0,0:0:0:0:
332,112,53220,1,8,0:0:0:0:
424,188,53370,2,0,L|364:188,1,46.875,2|0,0:0|0:0,0:0:0:0:
320,188,53520,1,2,0:0:0:0:
260,220,53595,1,2,0:0:0:0:
248,288,53670,1,2,0:0:0:0:
476,288,53820,1,8,0:0:0:0:
380,288,53970,2,0,L|328:288,1,46.875,2|2,0:0|0:0,0:0:0:0:
180,288,54120,6,0,B|80:288,1,93.75,0|2,0:0|0:0,0:0:0:0:
256,192,54420,1,8,0:0:0:0:
136,192,54570,1,2,0:0:0:0:
232,104,54720,1,2,0:0:0:0:
172,104,54795,1,2,0:0:0:0:
112,104,54870,1,2,0:0:0:0:
336,36,55020,1,8,0:0:0:0:
216,68,55170,2,0,L|265:67,1,46.875,2|2,0:0|0:0,0:0:0:0:
404,192,55320,6,0,L|500:192,1,93.75,4|0,0:0|0:0,0:0:0:0:
264,264,55620,2,0,L|168:264,1,93.75,8|2,0:0|0:0,0:0:0:0:
328,264,55920,2,0,L|376:288,2,46.875,2|2|2,0:0|0:0|0:0,0:0:0:0:
92,264,56220,1,8,0:0:0:0:
200,264,56370,2,0,L|248:264,1,46.875,2|2,0:0|0:0,0:0:0:0:
380,192,56520,5,8,0:0:0:0:
156,192,56670,2,0,L|104:192,1,37.5
288,128,56820,2,0,L|340:128,1,37.5
120,68,56970,1,2,0:0:0:0:
16,68,57120,1,0,0:0:0:0:
27,140,57195,1,0,0:0:0:0:
82,189,57270,1,8,0:0:0:0:
156,191,57345,1,0,0:0:0:0:
380,192,57420,2,0,L|476:192,1,93.75,2|8,0:0|0:0,0:0:0:0:
181,288,57720,6,0,L|69:288,1,112.500004291535,4|0,0:0|0:0,0:0:0:0:
333,288,58020,1,8,0:0:0:0:
216,288,58170,2,0,L|262:288,1,46.875,2|0,0:0|0:0,0:0:0:0:
312,288,58320,2,0,L|358:288,2,46.875,2|2|2,0:0|0:0|0:0,0:0:0:0:
37,288,58620,1,8,0:0:0:0:
148,288,58770,2,0,L|212:288,1,46.875,2|2,0:0|0:0,0:0:0:0:
241,288,58920,5,0,0:0:0:0:
96,212,59070,2,0,L|149:212,1,46.875,2|0,0:0|0:0,0:0:0:0:
308,212,59220,1,8,0:0:0:0:
213,212,59370,2,0,L|165:212,1,46.875,2|2,0:0|0:0,0:0:0:0:
337,212,59520,2,0,L|377:180,2,46.875,2|2|2,0:0|0:0|0:0,0:0:0:0:
93,212,59820,1,8,0:0:0:0:
205,212,59970,2,0,L|269:212,1,46.875,2|2,0:0|0:0,0:0:0:0:
81,136,60120,6,0,B|36:136|36:136|88:136,1,93.75,4|0,0:0|0:0,0:0:0:0:
327,140,60420,2,0,L|421:140,1,93.75,8|2,0:0|0:0,0:0:0:0:
260,140,60720,1,2,0:0:0:0:
212,140,60795,1,2,0:0:0:0:
165,140,60870,1,2,0:0:0:0:
401,140,61020,1,8,0:0:0:0:
289,140,61170,2,0,L|237:140,1,46.875,2|2,0:0|0:0,0:0:0:0:
160,212,61320,6,0,P|128:244|160:268,1,93.75,0|2,0:0|0:0,0:0:0:0:
400,212,61620,1,8,0:0:0:0:
288,212,61770,2,0,L|236:212,1,46.875,2|2,0:0|0:0,0:0:0:0:
337,212,61920,2,0,L|381:248,2,46.875,0|2|2,0:0|0:0|0:0,0:0:0:0:
93,212,62220,1,8,0:0:0:0:
205,212,62370,2,0,L|261:244,1,46.875,2|2,0:0|0:0,0:0:0:0:
77,212,62520,6,0,P|43:169|105:134,1,140.625,4|0,0:0|0:0,0:0:0:0:
273,132,62820,1,8,0:0:0:0:
181,132,62970,2,0,L|121:132,1,46.875,2|0,0:0|0:0,0:0:0:0:
241,132,63120,1,2,0:0:0:0:
310,135,63195,1,2,0:0:0:0:
360,183,63270,1,2,0:0:0:0:
117,212,63420,1,8,0:0:0:0:
229,212,63570,2,0,L|265:244,1,46.875,2|2,0:0|0:0,0:0:0:0:
179,300,63720,6,0,B|81:300,1,93.75,0|2,0:0|0:0,0:0:0:0:
329,300,64020,1,8,0:0:0:0:
65,300,64170,1,2,0:0:0:0:
177,192,64320,1,2,0:0:0:0:
117,192,64395,1,2,0:0:0:0:
57,192,64470,1,2,0:0:0:0:
301,192,64620,1,8,0:0:0:0:
189,192,64770,2,0,L|141:164,1,46.875,2|2,0:0|0:0,0:0:0:0:
321,120,64920,6,0,L|417:120,1,93.75,4|0,0:0|0:0,0:0:0:0:
169,40,65220,2,0,L|265:40,1,93.75,8|2,0:0|0:0,0:0:0:0:
416,40,65520,2,0,L|464:64,2,46.875,2|2|2,0:0|0:0|0:0,0:0:0:0:
189,40,65820,1,8,0:0:0:0:
301,40,65970,2,0,L|349:40,1,46.875,2|2,0:0|0:0,0:0:0:0:
177,128,66120,6,0,L|72:128,1,93.75,8|2,0:0|0:0,0:0:0:0:
144,192,66345,1,2,0:0:0:0:
204,192,66420,2,0,L|256:192,1,46.875,2|2,0:0|0:0,0:0:0:0:
404,192,66570,1,2,0:0:0:0:
395,252,66645,1,2,0:0:0:0:
354,299,66720,1,2,0:0:0:0:
296,300,66795,1,2,0:0:0:0:
123,268,66870,1,8,0:0:0:0:
340,268,67020,1,2,0:0:0:0:
123,268,67170,1,8,0:0:0:0:
396,192,67320,6,0,B|484:192|484:192|420:192,1,150,8|0,0:0|0:0,0:0:0:0:
276,192,67620,1,8,0:0:0:0:
368,104,67770,2,0,L|414:104,1,46.875,2|2,0:0|0:0,0:0:0:0:
244,104,67920,1,2,0:0:0:0:
179,81,67995,1,2,0:0:0:0:
152,18,68070,1,2,0:0:0:0:
396,20,68220,1,8,0:0:0:0:
116,20,68370,6,0,L|16:20,1,93.75,2|8,0:0|0:0,0:0:0:0:
172,20,68670,1,0,0:0:0:0:
416,104,68820,2,0,L|320:104,1,93.75,2|2,0:0|0:0,0:0:0:0:
256,104,69045,1,2,0:0:0:0:
420,192,69120,2,0,L|476:192,2,46.875,2|2|2,0:0|0:0|0:0,0:0:0:0:
184,192,69420,1,8,0:0:0:0:
428,272,69570,1,2,0:0:0:0:
148,192,69720,6,0,L|52:192,1,93.75,4|0,0:0|0:0,0:0:0:0:
300,192,70020,1,8,0:0:0:0:
188,280,70170,2,0,L|132:280,1,46.875,2|2,0:0|0:0,0:0:0:0:
312,280,70320,1,2,0:0:0:0:
372,304,70395,1,2,0:0:0:0:
396,364,70470,1,2,0:0:0:0:
152,364,70620,1,8,0:0:0:0:
432,232,70770,6,0,B|488:232|488:232|504:196,1,93.75,2|8,0:0|0:0,0:0:0:0:
352,192,71070,1,0,0:0:0:0:
116,192,71220,1,8,0:0:0:0:
352,96,71370,2,0,L|404:96,1,46.875,2|2,0:0|0:0,0:0:0:0:
196,76,71520,2,0,L|84:76,1,112.500004291535,8|0,0:0|0:0,0:0:0:0:
388,192,71820,2,0,L|500:192,1,112.500004291535,2|2,0:0|0:0,0:0:0:0:
160,192,72120,6,0,L|9:192,1,112.500004291535,4|0,0:0|0:0,0:0:0:0:
292,192,72420,1,8,0:0:0:0:
180,104,72570,2,0,L|124:104,1,46.875,2|2,0:0|0:0,0:0:0:0:
304,104,72720,1,2,0:0:0:0:
368,104,72795,1,2,0:0:0:0:
428,104,72870,1,2,0:0:0:0:
184,20,73020,1,8,0:0:0:0:
428,20,73170,6,0,B|476:20|476:20|508:52,1,93.75,2|8,0:0|0:0,0:0:0:0:
380,20,73470,1,0,0:0:0:0:
136,104,73620,2,0,L|40:144,1,93.75,8|2,0:0|0:0,0:0:0:0:
116,188,73845,1,2,0:0:0:0:
288,192,73920,2,0,L|348:192,2,46.875,2|2|2,0:0|0:0|0:0,0:0:0:0:
48,192,74220,1,8,0:0:0:0:
292,272,74370,1,2,0:0:0:0:
12,268,74520,6,0,L|108:268,1,93.75,4|0,0:0|0:0,0:0:0:0:
348,192,74820,1,8,0:0:0:0:
236,192,74970,2,0,L|180:192,1,46.875,2|2,0:0|0:0,0:0:0:0:
360,272,75120,2,0,L|408:272,2,46.875,2|2|2,0:0|0:0|0:0,0:0:0:0:
116,272,75420,1,8,0:0:0:0:
380,352,75570,1,2,0:0:0:0:
80,348,75720,5,8,0:0:0:0:
304,272,75870,1,2,0:0:0:0:
370,249,75945,1,2,0:0:0:0:
374,178,76020,1,2,0:0:0:0:
309,149,76095,1,2,0:0:0:0:
120,148,76170,1,2,0:0:0:0:
344,64,76320,1,8,0:0:0:0:
404,64,76395,1,0,0:0:0:0:
464,64,76470,1,2,0:0:0:0:
184,64,76620,2,0,L|68:64,1,112.500004291535,8|2,0:0|0:0,0:0:0:0:
376,192,76920,5,4,0:0:0:0:
264,192,77070,2,0,L|216:152,2,56.2500021457673,2|2|8,0:0|0:0|0:0,0:0:0:0:
328,192,77295,1,0,0:0:0:0:
392,192,77370,1,0,0:0:0:0:
168,192,77520,2,0,L|112:192,2,56.2500021457673,2|2|2,0:0|0:0|0:0,0:0:0:0:
440,192,77820,1,8,0:0:0:0:
320,192,77970,2,0,L|252:192,1,56.2500021457673,2|2,0:0|0:0,0:0:0:0:
84,192,78120,5,4,0:0:0:0:
196,352,78270,2,0,L|140:352,1,56.2500021457673,2|2,0:0|0:0,0:0:0:0:
80,352,78420,2,0,L|24:352,2,56.2500021457673,8|0|0,0:0|0:0|0:0,0:0:0:0:
356,352,78720,1,2,0:0:0:0:
412,352,78795,1,2,0:0:0:0:
468,352,78870,1,2,0:0:0:0:
220,288,79020,1,8,0:0:0:0:
312,288,79170,2,0,L|376:288,1,56.2500021457673,2|2,0:0|0:0,0:0:0:0:
184,192,79320,6,0,L|64:192,1,112.500004291535,4|2,0:0|0:0,0:0:0:0:
128,124,79545,1,2,0:0:0:0:
352,128,79620,1,10,0:0:0:0:
403,109,79695,1,2,0:0:0:0:
422,58,79770,1,2,0:0:0:0:
396,10,79845,1,2,0:0:0:0:
172,8,79920,1,2,0:0:0:0:
105,48,79995,1,0,0:0:0:0:
127,123,80070,1,2,0:0:0:0:
376,192,80220,1,8,0:0:0:0:
488,192,80370,2,0,L|424:192,1,56.2500021457673,2|2,0:0|0:0,0:0:0:0:
252,192,80520,5,4,0:0:0:0:
356,272,80670,2,0,L|416:272,1,56.2500021457673,2|2,0:0|0:0,0:0:0:0:
340,348,80820,2,0,L|292:312,1,56.2500021457673,8|2,0:0|0:0,0:0:0:0:
368,348,80970,1,2,0:0:0:0:
124,192,81120,6,0,L|39:276,1,112.500004291535,4|0,0:0|0:0,0:0:0:0:
316,192,81420,2,0,L|444:192,1,112.500004291535,8|2,0:0|0:0,0:0:0:0:
372,120,81645,1,2,0:0:0:0:
184,192,81720,5,4,0:0:0:0:
264,192,81870,2,0,L|312:152,2,56.2500021457673,2|2|8,0:0|0:0|0:0,0:0:0:0:
200,192,82095,1,0,0:0:0:0:
136,192,82170,1,0,0:0:0:0:
404,192,82320,2,0,L|460:192,2,56.2500021457673,2|2|2,0:0|0:0|0:0,0:0:0:0:
132,272,82620,1,8,0:0:0:0:
232,272,82770,2,0,L|276:232,1,56.2500021457673,2|2,0:0|0:0,0:0:0:0:
92,184,82920,5,4,0:0:0:0:
184,112,83070,2,0,L|241:112,1,56.2500021457673,2|2,0:0|0:0,0:0:0:0:
308,184,83220,2,0,L|252:184,1,56.2500021457673,8|0,0:0|0:0,0:0:0:0:
184,184,83370,1,0,0:0:0:0:
460,272,83520,1,2,0:0:0:0:
404,272,83595,1,2,0:0:0:0:
348,272,83670,1,2,0:0:0:0:
80,272,83820,1,8,0:0:0:0:
172,272,83970,2,0,L|236:272,1,56.2500021457673,2|2,0:0|0:0,0:0:0:0:
404,192,84120,6,0,L|304:136,1,112.500004291535,4|2,0:0|0:0,0:0:0:0:
248,136,84345,1,2,0:0:0:0:
416,136,84420,1,8,0:0:0:0:
467,117,84495,1,2,0:0:0:0:
486,66,84570,1,2,0:0:0:0:
460,18,84645,1,2,0:0:0:0:
255,20,84720,1,2,0:0:0:0:
188,60,84795,1,2,0:0:0:0:
210,135,84870,1,2,0:0:0:0:
459,192,85020,1,8,0:0:0:0:
211,220,85170,2,0,L|208:292,1,56.2500021457673,2|2,0:0|0:0,0:0:0:0:
344,260,85320,6,0,P|396:188|336:128,1,187.5,8|0,0:0|0:0,0:0:0:0:
128,192,85770,2,0,P|88:128|124:64,1,150,8|0,0:0|0:0,0:0:0:0:
336,128,86220,2,0,L|428:128,1,75,2|0,0:0|0:0,0:0:0:0:
128,192,86520,6,0,P|138:280|222:311,1,187.5,8|0,0:0|0:0,0:0:0:0:
448,192,86970,2,0,P|500:248|424:296,1,187.5,8|0,0:0|0:0,0:0:0:0:
192,312,87420,2,0,L|96:312,1,93.75,2|0,0:0|0:0,0:0:0:0:
348,192,87720,6,0,L|464:192,1,112.500004291535,4|0,0:0|0:0,0:0:0:0:
212,312,88020,1,8,0:0:0:0:
137,292,88095,1,2,0:0:0:0:
84,236,88170,1,2,0:0:0:0:
71,160,88245,1,2,0:0:0:0:
144,188,88320,1,2,0:0:0:0:
212,152,88395,1,2,0:0:0:0:
220,76,88470,1,2,0:0:0:0:
164,28,88545,1,0,0:0:0:0:
96,56,88620,1,8,0:0:0:0:
340,52,88770,6,0,B|436:52|436:52|484:132,1,187.5,2|2,0:0|0:0,0:0:0:0:
236,192,89220,1,8,0:0:0:0:
164,204,89295,1,0,0:0:0:0:
155,276,89370,1,0,0:0:0:0:
221,305,89445,1,0,0:0:0:0:
164,348,89520,1,0,0:0:0:0:
96,324,89595,1,0,0:0:0:0:
72,256,89670,1,2,0:0:0:0:
288,192,89820,1,8,0:0:0:0:
192,112,89970,2,0,L|146:157,1,46.875,2|2,0:0|0:0,0:0:0:0:
316,116,90120,5,2,0:0:0:0:
360,157,90195,1,2,0:0:0:0:
363,218,90270,1,2,0:0:0:0:
323,263,90345,1,0,0:0:0:0:
152,192,90420,1,8,0:0:0:0:
104,144,90495,1,2,0:0:0:0:
108,76,90570,1,2,0:0:0:0:
168,48,90645,1,2,0:0:0:0:
260,116,90720,1,2,0:0:0:0:
324,136,90795,1,2,0:0:0:0:
376,96,90870,1,2,0:0:0:0:
380,32,90945,1,0,0:0:0:0:
228,32,91020,1,8,0:0:0:0:
480,184,91170,6,0,P|508:272|432:308,1,187.5,2|2,0:0|0:0,0:0:0:0:
192,316,91620,1,8,0:0:0:0:
304,316,91770,1,2,0:0:0:0:
358,304,91845,1,2,0:0:0:0:
400,267,91920,1,2,0:0:0:0:
418,215,91995,1,2,0:0:0:0:
406,160,92070,1,0,0:0:0:0:
376,124,92145,1,2,0:0:0:0:
208,188,92220,1,8,0:0:0:0:
152,152,92295,1,0,0:0:0:0:
144,84,92370,1,2,0:0:0:0:
192,36,92445,1,0,0:0:0:0:
380,36,92520,6,0,L|488:36,1,93.75,4|0,0:0|0:0,0:0:0:0:
228,36,92820,1,8,0:0:0:0:
204,112,92895,1,2,0:0:0:0:
252,188,92970,1,2,0:0:0:0:
324,188,93045,1,2,0:0:0:0:
292,252,93120,1,2,0:0:0:0:
216,252,93195,1,2,0:0:0:0:
180,188,93270,1,2,0:0:0:0:
216,124,93345,1,0,0:0:0:0:
292,124,93420,1,8,0:0:0:0:
52,130,93570,6,0,B|52:226|52:226|132:274,1,187.5,2|2,0:0|0:0,0:0:0:0:
376,284,94020,1,8,0:0:0:0:
374,222,94095,1,2,0:0:0:0:
340,170,94170,1,2,0:0:0:0:
284,144,94245,1,2,0:0:0:0:
112,144,94320,1,2,0:0:0:0:
129,77,94395,1,2,0:0:0:0:
184,34,94470,1,2,0:0:0:0:
428,36,94620,1,8,0:0:0:0:
332,36,94770,2,0,L|268:36,1,46.875,2|2,0:0|0:0,0:0:0:0:
132,144,94920,5,4,0:0:0:0:
272,144,95070,1,0,0:0:0:0:
132,144,95220,1,8,0:0:0:0:
92,200,95295,1,2,0:0:0:0:
92,268,95370,1,2,0:0:0:0:
144,316,95445,1,2,0:0:0:0:
212,320,95520,1,2,0:0:0:0:
264,280,95595,1,2,0:0:0:0:
280,216,95670,1,2,0:0:0:0:
40,196,95820,2,0,L|132:144,1,93.75,8|2,0:0|0:0,0:0:0:0:
384,192,96120,6,0,L|496:192,1,93.75,8|2,0:0|0:0,0:0:0:0:
196,72,96420,2,0,L|84:72,1,93.75,8|2,0:0|0:0,0:0:0:0:
384,76,96720,2,0,L|276:76,1,93.75,8|2,0:0|0:0,0:0:0:0:
44,192,97020,2,0,L|140:192,1,93.75,2|2,0:0|0:0,0:0:0:0:
408,192,97320,6,0,B|472:192|472:192|504:152,1,112.500004291535,4|0,0:0|0:0,0:0:0:0:
256,192,97620,1,8,0:0:0:0:
180,184,97695,1,2,0:0:0:0:
129,127,97770,1,2,0:0:0:0:
130,50,97845,1,2,0:0:0:0:
296,48,97920,2,0,L|408:48,1,93.75,2|0,0:0|0:0,0:0:0:0:
144,48,98220,1,8,0:0:0:0:
389,48,98370,6,0,P|448:88|396:176,1,187.5,2|2,0:0|0:0,0:0:0:0:
152,192,98820,1,8,0:0:0:0:
101,227,98895,1,2,0:0:0:0:
77,284,98970,1,2,0:0:0:0:
88,345,99045,1,2,0:0:0:0:
276,268,99120,1,2,0:0:0:0:
312,332,99195,1,2,0:0:0:0:
263,382,99270,1,2,0:0:0:0:
48,384,99420,1,8,0:0:0:0:
144,344,99570,2,0,L|196:344,1,46.875,2|2,0:0|0:0,0:0:0:0:
332,192,99720,6,0,L|428:192,1,93.75,4|0,0:0|0:0,0:0:0:0:
204,104,100020,1,8,0:0:0:0:
268,104,100095,1,2,0:0:0:0:
330,104,100170,1,2,0:0:0:0:
96,104,100320,2,0,L|164:36,1,93.75,2|2,0:0|0:0,0:0:0:0:
400,192,100620,1,8,0:0:0:0:
156,192,100770,2,0,L|119:228,1,46.875,2|2,0:0|0:0,0:0:0:0:
296,192,100920,6,0,L|400:192,1,93.75,4|0,0:0|0:0,0:0:0:0:
144,328,101220,1,8,0:0:0:0:
88,288,101295,1,2,0:0:0:0:
92,220,101370,1,2,0:0:0:0:
156,192,101445,1,2,0:0:0:0:
224,188,101520,1,2,0:0:0:0:
292,156,101595,1,2,0:0:0:0:
300,84,101670,1,2,0:0:0:0:
68,40,101820,1,8,0:0:0:0:
17,95,101895,1,0,0:0:0:0:
37,168,101970,1,0,0:0:0:0:
108,191,102045,1,0,0:0:0:0:
320,192,102120,6,0,B|420:192,1,93.75,4|0,0:0|0:0,0:0:0:0:
188,192,102420,1,8,0:0:0:0:
196,268,102495,1,2,0:0:0:0:
253,319,102570,1,2,0:0:0:0:
330,318,102645,1,2,0:0:0:0:
164,344,102720,2,0,L|52:344,1,93.75,2|2,0:0|0:0,0:0:0:0:
310,318,103020,1,8,0:0:0:0:
48,264,103170,6,0,P|4:212|88:168,1,187.5,2|2,0:0|0:0,0:0:0:0:
176,168,103545,1,0,0:0:0:0:
356,232,103620,1,8,0:0:0:0:
420,204,103695,1,2,0:0:0:0:
440,136,103770,1,2,0:0:0:0:
412,72,103845,1,0,0:0:0:0:
206,105,103920,1,0,0:0:0:0:
176,168,103995,1,0,0:0:0:0:
219,219,104070,1,2,0:0:0:0:
488,188,104220,1,8,0:0:0:0:
244,104,104370,2,0,L|192:104,1,46.875,2|2,0:0|0:0,0:0:0:0:
384,188,104520,5,2,0:0:0:0:
404,246,104595,1,2,0:0:0:0:
398,308,104670,1,2,0:0:0:0:
366,361,104745,1,2,0:0:0:0:
156,220,104820,1,8,0:0:0:0:
98,151,104895,1,2,0:0:0:0:
130,68,104970,1,2,0:0:0:0:
219,57,105045,1,2,0:0:0:0:
456,196,105120,5,2,0:0:0:0:
441,286,105195,1,2,0:0:0:0:
375,350,105270,1,2,0:0:0:0:
283,361,105345,1,0,0:0:0:0:
98,151,105420,2,0,L|48:152,1,46.875,8|0,0:0|0:0,0:0:0:0:
332,60,105570,2,0,L|380:60,1,46.875,2|0,0:0|0:0,0:0:0:0:
144,192,105720,6,0,L|32:192,1,93.75,8|2,0:0|0:0,0:0:0:0:
348,192,106020,2,0,L|452:192,1,93.75,8|2,0:0|0:0,0:0:0:0:
172,192,106320,2,0,L|95:268,1,93.75,8|2,0:0|0:0,0:0:0:0:
352,192,106620,2,0,L|376:284,1,93.75,2|0,0:0|0:0,0:0:0:0:
148,192,106920,6,0,B|76:192|76:192|24:120,1,150,4|0,0:0|0:0,0:0:0:0:
244,88,107370,2,0,P|328:144|332:188,1,150,2|0,0:0|0:0,0:0:0:0:
228,184,107820,1,0,0:0:0:0:
380,184,107970,2,0,P|452:212|480:280,1,150,4|0,0:0|0:0,0:0:0:0:
328,276,108420,2,0,L|248:276,1,75,2|0,0:0|0:0,0:0:0:0:
404,184,108720,2,0,L|484:184,2,75,2|0|0,0:0|0:0|0:0,0:0:0:0:
124,192,109170,6,0,P|36:144|56:32,1,225.000008583069,2|0,0:0|0:0,0:0:0:0:
204,32,109620,2,0,L|216:128,1,75,2|0,0:0|0:0,0:0:0:0:
364,144,109920,2,0,L|376:240,1,75,2|0,0:0|0:0,0:0:0:0:
212,216,110220,1,2,0:0:0:0:
476,192,110370,6,0,P|496:295|405:349,1,225.000008583069,4|0,0:0|0:0,0:0:0:0:
264,304,110820,2,0,L|276:208,1,75,2|0,0:0|0:0,0:0:0:0:
424,192,111120,2,0,L|436:96,1,75,2|0,0:0|0:0,0:0:0:0:
208,80,111420,2,0,L|132:80,1,75,2|0,0:0|0:0,0:0:0:0:
396,192,111720,6,0,B|512:192|512:192|472:192,1,150,4|0,0:0|0:0,0:0:0:0:
268,192,112170,2,0,P|216:232|268:272,1,150,2|0,0:0|0:0,0:0:0:0:
380,272,112620,1,0,0:0:0:0:
216,272,112770,2,0,L|72:212,1,150,4|0,0:0|0:0,0:0:0:0:
228,144,113220,2,0,L|304:104,1,75,2|0,0:0|0:0,0:0:0:0:
144,56,113520,2,0,L|224:56,2,75,2|0|0,0:0|0:0|0:0,0:0:0:0:
424,132,113970,6,0,P|512:180|492:292,1,225.000008583069,2|0,0:0|0:0,0:0:0:0:
344,292,114420,2,0,L|264:292,1,75,2|0,0:0|0:0,0:0:0:0:
420,192,114720,1,2,0:0:0:0:
316,192,114870,1,0,0:0:0:0:
468,192,115020,1,2,0:0:0:0:
152,192,115170,6,0,P|64:120|112:36,1,225.000008583069,4|0,0:0|0:0,0:0:0:0:
260,192,115620,2,0,L|272:288,1,75,2|0,0:0|0:0,0:0:0:0:
420,264,115920,2,0,L|408:360,1,75,2|0,0:0|0:0,0:0:0:0:
184,332,116220,2,0,L|108:332,1,75,2|0,0:0|0:0,0:0:0:0:
364,304,116520,5,4,0:0:0:0:
409,216,116670,1,0,0:0:0:0:
391,120,116820,1,0,0:0:0:0:
318,54,116970,1,0,0:0:0:0:
192,140,117120,1,2,0:0:0:0:
194,236,117270,1,0,0:0:0:0:
266,302,117420,1,0,0:0:0:0:
364,304,117570,1,0,0:0:0:0:
266,302,117720,5,2,0:0:0:0:
152,323,117870,1,0,0:0:0:0:
98,219,118020,1,0,0:0:0:0:
182,139,118170,1,0,0:0:0:0:
316,140,118320,1,2,0:0:0:0:
388,201,118470,1,0,0:0:0:0:
405,297,118620,1,0,0:0:0:0:
355,381,118770,1,0,0:0:0:0:
197,192,118920,6,0,L|117:192,2,75,2|0|0,0:0|0:0|0:0,0:0:0:0:
301,192,119370,1,0,0:0:0:0:
157,124,119520,1,2,0:0:0:0:
66,146,119670,1,0,0:0:0:0:
68,238,119820,1,0,0:0:0:0:
159,255,119970,1,0,0:0:0:0:
301,192,120120,6,0,L|381:192,2,75,2|0|0,0:0|0:0|0:0,0:0:0:0:
197,192,120570,1,0,0:0:0:0:
341,256,120720,1,2,0:0:0:0:
220,280,120870,1,2,0:0:0:0:
172,280,120945,1,2,0:0:0:0:
316,348,121020,2,0,L|400:348,1,75,4|0,0:0|0:0,0:0:0:0:
109,344,121320,5,2,0:0:0:0:
28,273,121470,1,0,0:0:0:0:
41,166,121620,1,0,0:0:0:0:
138,119,121770,1,0,0:0:0:0:
289,208,121920,1,2,0:0:0:0:
208,295,122070,1,0,0:0:0:0:
90,275,122220,1,0,0:0:0:0:
52,160,122370,1,0,0:0:0:0:
208,295,122520,5,2,0:0:0:0:
336,318,122670,1,0,0:0:0:0:
409,211,122820,1,0,0:0:0:0:
341,100,122970,1,0,0:0:0:0:
188,208,123120,2,0,L|256:168,1,75,2|0,0:0|0:0,0:0:0:0:
404,100,123420,2,0,L|324:100,1,75
120,100,123720,5,2,0:0:0:0:
196,32,123870,2,0,L|240:32,2,37.5
92,32,124170,1,0,0:0:0:0:
244,100,124320,2,0,L|340:100,1,75,2|0,0:0|0:0,0:0:0:0:
152,100,124620,2,0,L|72:100,1,75,2|0,0:0|0:0,0:0:0:0:
288,192,124920,5,2,0:0:0:0:
64,192,125070,1,0,0:0:0:0:
392,192,125220,2,0,L|492:192,1,93.75,2|0,0:0|0:0,0:0:0:0:
112,108,125520,2,0,L|12:108,1,93.75,8|0,0:0|0:0,0:0:0:0:
412,104,125820,2,0,L|508:104,1,93.75,8|0,0:0|0:0,0:0:0:0:
156,192,126120,6,0,B|80:192|80:192|40:260,1,150,4|0,0:0|0:0,0:0:0:0:
192,288,126420,1,8,0:0:0:0:
56,288,126570,1,0,0:0:0:0:
320,288,126720,2,0,L|400:288,1,75,4|0,0:0|0:0,0:0:0:0:
244,288,127020,1,8,0:0:0:0:
380,288,127170,1,2,0:0:0:0:
116,288,127320,6,0,L|36:288,1,75,2|0,0:0|0:0,0:0:0:0:
176,192,127620,1,8,0:0:0:0:
116,192,127695,1,0,0:0:0:0:
56,192,127770,1,0,0:0:0:0:
320,192,127920,2,0,L|400:192,1,75,4|0,0:0|0:0,0:0:0:0:
176,192,128220,1,8,0:0:0:0:
124,152,128295,1,2,0:0:0:0:
152,92,128370,1,2,0:0:0:0:
212,84,128445,1,2,0:0:0:0:
380,64,128520,6,0,L|468:64,1,75,4|0,0:0|0:0,0:0:0:0:
304,64,128820,1,8,0:0:0:0:
440,64,128970,1,0,0:0:0:0:
176,192,129120,2,0,L|92:192,1,75,4|0,0:0|0:0,0:0:0:0:
252,192,129420,1,8,0:0:0:0:
116,120,129570,2,0,L|72:120,1,37.5,2|2,0:0|0:0,0:0:0:0:
304,120,129720,6,0,L|400:120,1,93.75,4|0,0:0|0:0,0:0:0:0:
152,192,130020,1,8,0:0:0:0:
264,192,130170,2,0,L|324:192,1,46.875,2|2,0:0|0:0,0:0:0:0:
124,192,130320,2,0,L|28:192,1,93.75,2|0,0:0|0:0,0:0:0:0:
360,192,130620,2,0,L|460:192,1,93.75,8|0,0:0|0:0,0:0:0:0:
156,192,130920,6,0,P|112:232|160:268,1,131.250001251698,8|0,0:0|0:0,0:0:0:0:
304,268,131220,1,8,0:0:0:0:
155,268,131370,2,0,L|211:268,1,37.5,2|2,0:0|0:0,0:0:0:0:
332,268,131520,2,0,B|412:268,1,75,4|0,0:0|0:0,0:0:0:0:
256,268,131820,1,8,0:0:0:0:
120,268,131970,2,0,L|76:268,1,37.5,2|2,0:0|0:0,0:0:0:0:
216,192,132120,6,0,L|300:192,1,75,2|0,0:0|0:0,0:0:0:0:
140,192,132420,1,8,0:0:0:0:
276,192,132570,2,0,L|316:192,1,37.5,2|2,0:0|0:0,0:0:0:0:
164,124,132720,2,0,B|84:124,1,75,4|0,0:0|0:0,0:0:0:0:
308,192,133020,1,8,0:0:0:0:
380,172,133095,1,2,0:0:0:0:
427,115,133170,1,2,0:0:0:0:
435,42,133245,1,2,0:0:0:0:
248,40,133320,6,0,L|164:40,1,75,4|0,0:0|0:0,0:0:0:0:
324,40,133620,1,8,0:0:0:0:
96,40,133770,1,0,0:0:0:0:
356,116,133920,2,0,L|272:116,1,75,4|0,0:0|0:0,0:0:0:0:
64,124,134220,2,0,L|136:168,1,75,8|0,0:0|0:0,0:0:0:0:
392,192,134520,5,4,0:0:0:0:
148,192,134670,1,2,0:0:0:0:
448,192,134820,1,8,0:0:0:0:
120,192,134970,1,2,0:0:0:0:
400,108,135120,2,0,L|500:108,1,93.75,8|2,0:0|0:0,0:0:0:0:
156,104,135420,2,0,L|56:104,1,93.75,8|2,0:0|0:0,0:0:0:0:
324,192,135720,6,0,B|436:192,1,112.500004291535,4|0,0:0|0:0,0:0:0:0:
224,192,136020,1,8,0:0:0:0:
163,225,136095,1,2,0:0:0:0:
178,293,136170,1,2,0:0:0:0:
248,298,136245,1,2,0:0:0:0:
396,300,136320,2,0,L|484:300,1,75,4|0,0:0|0:0,0:0:0:0:
320,300,136620,1,8,0:0:0:0:
456,216,136770,2,0,L|496:216,1,37.5,2|2,0:0|0:0,0:0:0:0:
288,192,136920,6,0,L|208:192,1,75,2|0,0:0|0:0,0:0:0:0:
364,192,137220,1,8,0:0:0:0:
228,192,137370,1,0,0:0:0:0:
492,116,137520,2,0,L|412:116,1,75,4|0,0:0|0:0,0:0:0:0:
204,116,137820,1,8,0:0:0:0:
146,151,137895,1,2,0:0:0:0:
204,183,137970,1,2,0:0:0:0:
265,216,138045,1,2,0:0:0:0:
132,220,138120,6,0,L|52:220,1,75,4|0,0:0|0:0,0:0:0:0:
284,288,138420,1,8,0:0:0:0:
336,240,138495,1,2,0:0:0:0:
324,168,138570,1,2,0:0:0:0:
256,140,138645,1,2,0:0:0:0:
108,140,138720,1,2,0:0:0:0:
244,60,138870,2,0,L|324:60,2,75,2|8|0,0:0|0:0|0:0,0:0:0:0:
472,192,139320,6,0,L|496:100,1,93.75,4|0,0:0|0:0,0:0:0:0:
252,264,139620,1,8,0:0:0:0:
348,263,139770,2,0,L|408:263,1,46.875,2|2,0:0|0:0,0:0:0:0:
208,263,139920,2,0,L|112:263,1,93.75,2|0,0:0|0:0,0:0:0:0:
444,263,140220,1,8,0:0:0:0:
164,263,140370,1,2,0:0:0:0:
428,192,140520,6,0,P|472:152|424:116,1,131.250001251698,8|0,0:0|0:0,0:0:0:0:
216,116,140820,2,0,L|160:116,1,37.5,8|2,0:0|0:0,0:0:0:0:
240,52,140970,2,0,L|296:52,1,37.5,2|2,0:0|0:0,0:0:0:0:
108,52,141120,2,0,L|28:52,1,75,6|0,0:0|0:0,0:0:0:0:
184,116,141420,1,8,0:0:0:0:
49,156,141570,2,0,L|93:156,1,37.5,2|2,0:0|0:0,0:0:0:0:
256,192,141720,6,0,L|332:192,1,75,2|0,0:0|0:0,0:0:0:0:
120,248,142020,2,0,L|80:248,1,37.5,8|2,0:0|0:0,0:0:0:0:
144,312,142170,2,0,L|184:312,1,37.5,2|2,0:0|0:0,0:0:0:0:
372,308,142320,2,0,B|460:308,1,75,6|0,0:0|0:0,0:0:0:0:
182,312,142620,1,8,0:0:0:0:
110,292,142695,1,2,0:0:0:0:
63,235,142770,1,2,0:0:0:0:
55,162,142845,1,2,0:0:0:0:
242,160,142920,6,0,L|326:160,1,75,4|0,0:0|0:0,0:0:0:0:
104,44,143220,1,8,0:0:0:0:
332,44,143370,1,0,0:0:0:0:
72,120,143520,2,0,L|156:120,1,75,4|0,0:0|0:0,0:0:0:0:
372,192,143820,2,0,L|456:192,1,75,8|2,0:0|0:0,0:0:0:0:
200,248,144120,5,8,0:0:0:0:
424,248,144270,1,2,0:0:0:0:
180,248,144420,1,8,0:0:0:0:
444,248,144570,1,2,0:0:0:0:
128,248,144720,5,8,0:0:0:0:
400,248,144870,1,2,0:0:0:0:
40,248,145020,1,8,0:0:0:0:
444,248,145170,1,2,0:0:0:0:
124,336,145320,6,0,L|24:336,2,93.75,8|0|8,0:0|0:0|0:0,0:0:0:0:
368,336,145770,2,0,P|416:288|348:216,1,187.5,2|2,0:0|0:0,0:0:0:0:
104,216,146220,2,0,L|0:216,1,93.75,8|0,0:0|0:0,0:0:0:0:
168,216,146520,5,2,0:0:0:0:
32,216,146670,1,0,0:0:0:0:
276,216,146820,1,8,0:0:0:0:
340,196,146895,1,2,0:0:0:0:
328,132,146970,1,2,0:0:0:0:
264,124,147045,1,2,0:0:0:0:
204,148,147120,1,2,0:0:0:0:
148,116,147195,1,2,0:0:0:0:
168,56,147270,1,2,0:0:0:0:
412,56,147420,2,0,B|508:56,1,93.75,8|0,0:0|0:0,0:0:0:0:
224,192,147720,6,0,L|128:192,1,93.75,8|0,0:0|0:0,0:0:0:0:
376,280,148020,2,0,L|432:280,1,46.875,8|2,0:0|0:0,0:0:0:0:
236,280,148170,1,2,0:0:0:0:
174,265,148245,1,2,0:0:0:0:
137,213,148320,1,2,0:0:0:0:
145,149,148395,1,2,0:0:0:0:
194,108,148470,1,2,0:0:0:0:
258,110,148545,1,0,0:0:0:0:
448,192,148620,2,0,L|352:192,1,93.75,8|2,0:0|0:0,0:0:0:0:
196,192,148920,5,2,0:0:0:0:
336,192,149070,1,0,0:0:0:0:
92,192,149220,1,8,0:0:0:0:
336,292,149370,2,0,L|388:292,1,46.875,2|2,0:0|0:0,0:0:0:0:
336,292,149520,1,2,0:0:0:0:
268,260,149595,1,0,0:0:0:0:
260,188,149670,1,2,0:0:0:0:
304,124,149745,1,2,0:0:0:0:
100,124,149820,2,0,L|0:124,1,93.75,8|2,0:0|0:0,0:0:0:0:
288,336,150120,6,0,L|388:336,2,93.75,8|0|8,0:0|0:0|0:0,0:0:0:0:
44,336,150570,2,0,P|64:256|160:208,1,187.5,2|2,0:0|0:0,0:0:0:0:
400,204,151020,2,0,L|504:204,1,93.75,8|0,0:0|0:0,0:0:0:0:
336,204,151320,5,2,0:0:0:0:
472,204,151470,1,0,0:0:0:0:
228,204,151620,1,8,0:0:0:0:
172,148,151695,1,2,0:0:0:0:
228,92,151770,1,2,0:0:0:0:
304,92,151845,1,2,0:0:0:0:
380,148,151920,1,2,0:0:0:0:
432,92,151995,1,2,0:0:0:0:
380,32,152070,1,2,0:0:0:0:
128,36,152220,2,0,B|32:36,1,93.75,8|0,0:0|0:0,0:0:0:0:
300,192,152520,6,0,L|396:192,1,93.75,8|0,0:0|0:0,0:0:0:0:
148,280,152820,2,0,L|92:280,1,46.875,8|2,0:0|0:0,0:0:0:0:
312,276,152970,1,2,0:0:0:0:
359,232,153045,1,2,0:0:0:0:
365,168,153120,1,2,0:0:0:0:
326,117,153195,1,2,0:0:0:0:
263,106,153270,1,2,0:0:0:0:
208,139,153345,1,0,0:0:0:0:
394,192,153420,2,0,L|494:192,1,93.75,8|0,0:0|0:0,0:0:0:0:
160,192,153720,6,0,L|52:192,1,93.75,8|0,0:0|0:0,0:0:0:0:
328,192,154020,2,0,L|440:192,1,112.500004291535,8|0,0:0|0:0,0:0:0:0:
160,192,154320,2,0,L|20:192,1,131.250001251698,8|2,0:0|0:0,0:0:0:0:
328,192,154620,2,0,L|484:192,1,150,8|2,0:0|0:0,0:0:0:0:
176,260,154920,6,0,L|148:104,1,150,8|0,0:0|0:0,0:0:0:0:
376,192,155370,2,0,L|404:36,1,150,8|0,0:0|0:0,0:0:0:0:
192,112,155820,2,0,L|100:112,1,75,2|0,0:0|0:0,0:0:0:0:
416,128,156120,6,0,P|484:168|420:216,1,187.5,8|0,0:0|0:0,0:0:0:0:
196,196,156570,2,0,P|212:264|320:288,1,187.5,8|0,0:0|0:0,0:0:0:0:
108,288,157020,2,0,L|12:288,1,93.75,2|0,0:0|0:0,0:0:0:0:
368,192,157320,6,0,P|464:148|488:36,1,225.000008583069,8|0,0:0|0:0,0:0:0:0:
152,192,157770,2,0,P|56:148|32:36,1,225.000008583069,8|0,0:0|0:0,0:0:0:0:
480,192,158220,2,0,L|367:192,1,112.500004291535,2|0,0:0|0:0,0:0:0:0:
48,192,158520,1,4,0:0:0:0:
256,192,158670,12,0,161520,0:0:0:0:
