osu file format v14

[General]
AudioFilename: Airborne Robots.mp3
AudioLeadIn: 0
PreviewTime: 56649
Countdown: 0
SampleSet: Soft
StackLeniency: 0.7
Mode: 3
LetterboxInBreaks: 0
SpecialStyle: 0
WidescreenStoryboard: 0

[Editor]
Bookmarks: 9908,43508,48308,56708,87908,116708,155108,188708,193508,201908,233108
DistanceSpacing: 1.5
BeatDivisor: 4
GridSize: 16
TimelineZoom: 1.6

[Metadata]
Title:Airborne Robots
TitleUnicode:Airborne Robots
Artist:F-777
ArtistUnicode:F-777
Creator:Curiossity
Version:MX
Source:Geometry Dash Meltdown
Tags:electronic breakbeat Jesse Valentine fast ludicrous speed
BeatmapID:1012163
BeatmapSetID:473736

[Difficulty]
HPDrainRate:8
CircleSize:4
OverallDifficulty:8
ApproachRate:5
SliderMultiplier:1.4
SliderTickRate:1

[Events]
//Background and Video events
0,0,"jets_defeating_the_robot_dragon.jpg",0,0
//Break Periods
//Storyboard Layer 0 (Background)
//Storyboard Layer 1 (Fail)
//Storyboard Layer 2 (Pass)
//Storyboard Layer 3 (Foreground)
//Storyboard Sound Samples

[TimingPoints]
308,300,4,2,1,50,1,0
308,-133.333333333333,4,2,1,50,0,0
2708,-125,4,2,1,50,0,0
5108,-117.647058823529,4,2,1,50,0,0
7508,-111.111111111111,4,2,1,50,0,0
9908,-100,4,2,1,50,0,0
43508,-100,4,2,1,30,0,0
45908,-100,4,2,1,50,0,0
48308,-100,4,2,1,50,0,1
67508,-100,4,2,1,50,0,0
72008,-200,4,2,1,50,0,0
72158,-66.6666666666667,4,2,1,50,0,0
72308,-100,4,2,1,50,0,0
85508,-200,4,2,1,50,0,0
85658,-66.6666666666667,4,2,1,50,0,0
85808,-100,4,2,1,50,0,0
85958,-200,4,2,1,50,0,0
86108,-66.6666666666667,4,2,1,50,0,0
86258,-100,4,2,1,50,0,0
86408,-200,4,2,1,50,0,0
86558,-66.6666666666667,4,2,1,50,0,0
86708,-200,4,2,1,50,0,0
86858,-66.6666666666667,4,2,1,50,0,0
87008,-100,4,2,1,50,0,0
87158,-200,4,2,1,50,0,0
87308,-66.6666666666667,4,2,1,50,0,0
87458,-100,4,2,1,50,0,0
87608,-200,4,2,1,50,0,0
87758,-66.6666666666667,4,2,1,50,0,0
87908,-100,4,2,1,50,0,1
107108,-100,4,2,1,50,0,0
116708,-133.333333333333,4,2,1,50,0,0
119108,-125,4,2,1,50,0,0
121508,-117.647058823529,4,2,1,50,0,0
123908,-111.111111111111,4,2,1,50,0,0
125108,-100,4,2,1,50,0,0
188708,-100,4,2,1,30,0,0
191108,-100,4,2,1,50,0,0
193508,-100,4,2,1,50,0,1
212708,-100,4,2,1,50,0,0
217208,-200,4,2,1,50,0,0
217358,-66.6666666666667,4,2,1,50,0,0
217508,-100,4,2,1,50,0,0
230708,-200,4,2,1,50,0,0
230858,-66.6666666666667,4,2,1,50,0,0
231008,-100,4,2,1,50,0,0
231158,-200,4,2,1,50,0,0
231308,-66.6666666666667,4,2,1,50,0,0
231458,-100,4,2,1,50,0,0
231608,-200,4,2,1,50,0,0
231758,-66.6666666666667,4,2,1,50,0,0
231908,-200,4,2,1,50,0,0
232058,-66.6666666666667,4,2,1,50,0,0
232208,-100,4,2,1,50,0,0
232358,-200,4,2,1,50,0,0
232508,-66.6666666666667,4,2,1,50,0,0
232658,-100,4,2,1,50,0,0
232808,-200,4,2,1,50,0,0
232958,-66.6666666666667,4,2,1,50,0,0
233108,-100,4,2,1,50,0,1
252308,-100,4,2,1,50,0,0
261908,-200,4,2,1,50,0,0
262058,-66.6666666666667,4,2,1,50,0,0
262208,-100,4,2,1,50,0,0
262358,-200,4,2,1,50,0,0
262508,-66.6666666666667,4,2,1,50,0,0
262658,-100,4,2,1,50,0,0
262808,-200,4,2,1,50,0,0
262958,-66.6666666666667,4,2,1,50,0,0
263108,-200,4,2,1,50,0,0
263258,-66.6666666666667,4,2,1,50,0,0
263408,-100,4,2,1,50,0,0
263558,-200,4,2,1,50,0,0
263708,-66.6666666666667,4,2,1,50,0,0
263858,-100,4,2,1,50,0,0
264008,-200,4,2,1,50,0,0
264158,-66.6666666666667,4,2,1,50,0,0
264308,-200,4,2,1,50,0,0
264458,-66.6666666666667,4,2,1,50,0,0
264608,-100,4,2,1,50,0,0
264758,-200,4,2,1,50,0,0
264908,-66.6666666666667,4,2,1,50,0,0
265058,-100,4,2,1,50,0,0
265208,-200,4,2,1,50,0,0
265358,-66.6666666666667,4,2,1,50,0,0
265508,-100,4,2,1,50,0,0

[HitObjects]
448,192,308,5,2,0:0:0:0:
320,192,308,1,4,2:0:0:0:
64,192,458,1,0,0:0:0:0:
448,192,608,1,0,0:0:0:0:
64,192,758,1,0,0:0:0:0:
448,192,908,1,0,0:0:0:0:
64,192,1058,1,0,0:0:0:0:
448,192,1208,1,0,0:0:0:0:
64,192,1358,1,0,0:0:0:0:
448,192,1508,1,0,0:0:0:0:
64,192,1658,1,0,0:0:0:0:
448,192,1808,1,0,0:0:0:0:
64,192,1958,1,0,0:0:0:0:
448,192,2108,1,0,0:0:0:0:
64,192,2258,1,0,0:0:0:0:
192,192,2408,1,0,0:0:0:0:
192,192,2558,1,0,0:0:0:0:
320,192,2708,1,0,0:0:0:0:
192,192,2858,1,0,0:0:0:0:
320,192,3008,1,0,0:0:0:0:
192,192,3158,1,0,0:0:0:0:
320,192,3308,1,0,0:0:0:0:
192,192,3458,1,0,0:0:0:0:
320,192,3608,1,0,0:0:0:0:
192,192,3758,1,0,0:0:0:0:
320,192,3908,1,0,0:0:0:0:
192,192,4058,1,0,0:0:0:0:
320,192,4208,1,0,0:0:0:0:
192,192,4358,1,0,0:0:0:0:
320,192,4508,1,0,0:0:0:0:
192,192,4658,1,0,0:0:0:0:
448,192,4808,1,0,0:0:0:0:
448,192,4958,1,0,0:0:0:0:
64,192,5108,1,0,0:0:0:0:
320,192,5258,1,0,0:0:0:0:
64,192,5408,1,0,0:0:0:0:
320,192,5558,1,0,0:0:0:0:
64,192,5708,1,0,0:0:0:0:
320,192,5858,1,0,0:0:0:0:
64,192,6008,1,0,0:0:0:0:
320,192,6158,1,0,0:0:0:0:
64,192,6308,1,0,0:0:0:0:
320,192,6458,1,0,0:0:0:0:
64,192,6608,1,0,0:0:0:0:
320,192,6758,1,0,0:0:0:0:
64,192,6908,1,0,0:0:0:0:
320,192,7058,1,0,0:0:0:0:
64,192,7208,1,0,0:0:0:0:
64,192,7358,1,0,0:0:0:0:
448,192,7508,1,0,0:0:0:0:
192,192,7658,1,0,0:0:0:0:
448,192,7808,1,0,0:0:0:0:
192,192,7958,1,0,0:0:0:0:
448,192,8108,1,0,0:0:0:0:
192,192,8258,1,0,0:0:0:0:
448,192,8408,1,0,0:0:0:0:
192,192,8558,1,0,0:0:0:0:
448,192,8708,1,0,0:0:0:0:
192,192,8858,1,0,0:0:0:0:
448,192,9008,1,0,0:0:0:0:
192,192,9158,1,0,0:0:0:0:
448,192,9308,1,0,0:0:0:0:
192,192,9458,1,0,0:0:0:0:
320,192,9608,1,0,0:0:0:0:
320,192,9758,1,0,0:0:0:0:
192,192,9908,128,4,10058:2:0:0:0:
64,192,9908,1,2,0:0:0:0:
320,192,10058,128,0,10208:0:0:0:0:
448,192,10208,128,0,10358:0:0:0:0:
192,192,10358,128,0,10508:0:0:0:0:
320,192,10508,128,0,10658:0:0:0:0:
448,192,10658,128,0,10808:0:0:0:0:
192,192,10808,128,0,10958:0:0:0:0:
448,192,10958,128,0,11108:0:0:0:0:
64,192,11108,128,0,11258:0:0:0:0:
192,192,11258,128,0,11408:0:0:0:0:
448,192,11408,128,0,11558:0:0:0:0:
64,192,11558,128,0,11708:0:0:0:0:
320,192,11708,128,0,11858:0:0:0:0:
448,192,11858,128,0,12008:0:0:0:0:
64,192,12008,128,0,12158:0:0:0:0:
448,192,12158,128,0,12308:0:0:0:0:
64,192,12308,128,0,12458:0:0:0:0:
192,192,12458,128,0,12608:0:0:0:0:
320,192,12608,128,0,12758:0:0:0:0:
64,192,12758,128,0,12908:0:0:0:0:
192,192,12908,128,0,13058:0:0:0:0:
320,192,13058,128,0,13208:0:0:0:0:
64,192,13208,128,0,13358:0:0:0:0:
320,192,13358,128,0,13508:0:0:0:0:
64,192,13508,128,0,13658:0:0:0:0:
320,192,13658,128,0,13808:0:0:0:0:
448,192,13808,128,0,13958:0:0:0:0:
64,192,13958,128,0,14108:0:0:0:0:
192,192,14108,128,0,14258:0:0:0:0:
448,192,14258,128,0,14408:0:0:0:0:
64,192,14408,128,0,14558:0:0:0:0:
448,192,14558,128,0,14708:0:0:0:0:
320,192,14708,128,0,14858:0:0:0:0:
192,192,14858,128,0,15008:0:0:0:0:
64,192,15008,128,0,15158:0:0:0:0:
320,192,15158,128,0,15308:0:0:0:0:
192,192,15308,128,0,15458:0:0:0:0:
64,192,15458,128,0,15608:0:0:0:0:
320,192,15608,128,0,15758:0:0:0:0:
64,192,15758,128,0,15908:0:0:0:0:
448,192,15908,128,0,16058:0:0:0:0:
320,192,16058,128,0,16208:0:0:0:0:
64,192,16208,128,0,16358:0:0:0:0:
448,192,16358,128,0,16508:0:0:0:0:
192,192,16508,128,0,16658:0:0:0:0:
64,192,16658,128,0,16808:0:0:0:0:
448,192,16808,128,0,16958:0:0:0:0:
64,192,16958,128,0,17108:0:0:0:0:
448,192,17108,128,0,17258:0:0:0:0:
320,192,17258,128,0,17408:0:0:0:0:
192,192,17408,128,0,17558:0:0:0:0:
448,192,17558,128,0,17708:0:0:0:0:
320,192,17708,128,0,17858:0:0:0:0:
192,192,17858,128,0,18008:0:0:0:0:
448,192,18008,128,0,18158:0:0:0:0:
192,192,18158,128,0,18308:0:0:0:0:
448,192,18308,128,0,18458:0:0:0:0:
192,192,18458,128,0,18608:0:0:0:0:
64,192,18608,128,0,18758:0:0:0:0:
448,192,18758,128,0,18908:0:0:0:0:
320,192,18908,128,0,19058:0:0:0:0:
64,192,19058,128,0,19208:0:0:0:0:
448,192,19208,128,0,19358:0:0:0:0:
64,192,19358,128,0,19508:0:0:0:0:
448,192,19508,128,2,19808:0:0:0:0:
192,192,19508,1,4,2:0:0:0:
320,192,19808,128,0,19958:0:0:0:0:
192,192,19958,128,0,20258:0:0:0:0:
64,192,20258,128,0,20408:0:0:0:0:
192,192,20408,128,0,20558:0:0:0:0:
320,192,20558,128,0,20858:0:0:0:0:
64,192,20858,128,0,21008:0:0:0:0:
448,192,21008,128,0,21158:0:0:0:0:
320,192,21158,128,0,21308:0:0:0:0:
192,192,21308,128,0,21458:0:0:0:0:
64,192,21458,128,0,21608:0:0:0:0:
192,192,21608,128,0,21758:0:0:0:0:
320,192,21758,128,0,22808:0:0:0:0:
192,192,22808,128,0,22958:0:0:0:0:
448,192,22958,128,0,24008:0:0:0:0:
64,192,24008,128,0,24308:0:0:0:0:
448,192,24308,128,0,24608:0:0:0:0:
320,192,24608,128,0,24758:0:0:0:0:
192,192,24758,128,0,25058:0:0:0:0:
64,192,25058,128,0,25208:0:0:0:0:
192,192,25208,128,0,25358:0:0:0:0:
320,192,25358,128,0,25658:0:0:0:0:
64,192,25658,128,0,25808:0:0:0:0:
448,192,25808,128,0,25958:0:0:0:0:
320,192,25958,128,0,26108:0:0:0:0:
192,192,26108,128,0,26258:0:0:0:0:
64,192,26258,128,0,26408:0:0:0:0:
192,192,26408,128,0,26558:0:0:0:0:
320,192,26558,128,0,27458:0:0:0:0:
192,192,27458,128,0,27608:0:0:0:0:
320,192,27608,128,0,27758:0:0:0:0:
448,192,27758,128,0,28808:0:0:0:0:
192,192,28808,128,0,29108:0:0:0:0:
64,192,29108,128,4,29408:0:0:0:0:
448,192,29108,1,2,0:0:0:0:
320,192,29258,1,0,0:0:0:0:
192,192,29408,128,0,29558:0:0:0:0:
448,192,29408,1,0,0:0:0:0:
320,192,29558,128,0,29858:0:0:0:0:
64,192,29558,1,0,0:0:0:0:
448,192,29858,128,0,30008:0:0:0:0:
192,192,29858,1,0,0:0:0:0:
320,192,30008,128,0,30158:0:0:0:0:
64,192,30008,1,0,0:0:0:0:
192,192,30158,128,0,30458:0:0:0:0:
448,192,30158,1,0,0:0:0:0:
448,192,30458,128,0,30608:0:0:0:0:
64,192,30458,1,0,0:0:0:0:
64,192,30608,128,0,30758:0:0:0:0:
320,192,30608,1,0,0:0:0:0:
192,192,30758,128,0,30908:0:0:0:0:
448,192,30758,1,0,0:0:0:0:
320,192,30908,128,0,31058:0:0:0:0:
448,192,31058,128,0,31208:0:0:0:0:
192,192,31058,1,0,0:0:0:0:
320,192,31208,128,0,31358:0:0:0:0:
64,192,31208,1,0,0:0:0:0:
192,192,31358,128,0,32408:0:0:0:0:
448,192,31358,1,0,0:0:0:0:
64,192,31508,1,0,0:0:0:0:
448,192,31658,1,0,0:0:0:0:
320,192,31808,1,0,0:0:0:0:
64,192,31958,1,0,0:0:0:0:
320,192,32258,1,0,0:0:0:0:
448,192,32408,128,0,32558:0:0:0:0:
64,192,32408,1,0,0:0:0:0:
320,192,32558,128,0,33608:0:0:0:0:
192,192,32558,1,0,0:0:0:0:
64,192,32708,1,0,0:0:0:0:
448,192,32858,1,0,0:0:0:0:
192,192,33008,1,0,0:0:0:0:
64,192,33158,1,0,0:0:0:0:
64,192,33458,1,0,0:0:0:0:
192,192,33608,128,0,33908:0:0:0:0:
448,192,33608,1,0,0:0:0:0:
320,192,33758,1,0,0:0:0:0:
64,192,33908,128,0,34208:0:0:0:0:
448,192,33908,1,0,0:0:0:0:
320,192,34058,1,0,0:0:0:0:
192,192,34208,128,0,34358:0:0:0:0:
448,192,34208,1,0,0:0:0:0:
320,192,34358,128,0,34658:0:0:0:0:
64,192,34358,1,0,0:0:0:0:
448,192,34658,128,0,34808:0:0:0:0:
192,192,34658,1,0,0:0:0:0:
320,192,34808,128,0,34958:0:0:0:0:
64,192,34808,1,0,0:0:0:0:
192,192,34958,128,0,35258:0:0:0:0:
448,192,34958,1,0,0:0:0:0:
320,192,35108,1,0,0:0:0:0:
448,192,35258,128,0,35408:0:0:0:0:
64,192,35258,1,0,0:0:0:0:
64,192,35408,128,0,35558:0:0:0:0:
320,192,35408,1,0,0:0:0:0:
192,192,35558,128,0,35708:0:0:0:0:
448,192,35558,1,0,0:0:0:0:
320,192,35708,128,0,35858:0:0:0:0:
448,192,35858,128,0,36008:0:0:0:0:
192,192,35858,1,0,0:0:0:0:
320,192,36008,128,0,36158:0:0:0:0:
64,192,36008,1,0,0:0:0:0:
192,192,36158,128,0,37058:0:0:0:0:
448,192,36158,1,0,0:0:0:0:
64,192,36308,1,0,0:0:0:0:
320,192,36458,1,0,0:0:0:0:
448,192,36608,1,0,0:0:0:0:
64,192,36758,1,0,0:0:0:0:
64,192,37058,128,0,37208:0:0:0:0:
320,192,37058,1,0,0:0:0:0:
448,192,37208,128,0,37358:0:0:0:0:
192,192,37208,1,0,0:0:0:0:
320,192,37358,128,0,38408:0:0:0:0:
64,192,37358,1,0,0:0:0:0:
192,192,37508,1,0,0:0:0:0:
64,192,37658,1,0,0:0:0:0:
192,192,37808,1,0,0:0:0:0:
448,192,37958,1,0,0:0:0:0:
448,192,38258,1,0,0:0:0:0:
192,192,38408,128,0,38708:0:0:0:0:
64,192,38408,1,0,0:0:0:0:
320,192,38558,1,0,0:0:0:0:
64,192,38708,1,2,0:0:0:0:
448,192,38708,1,4,2:0:0:0:
192,192,38858,1,0,0:0:0:0:
320,192,39008,1,0,0:0:0:0:
448,192,39008,1,0,3:0:0:0:
64,192,39158,1,0,0:0:0:0:
320,192,39308,1,0,0:0:0:0:
192,192,39308,1,0,3:0:0:0:
448,192,39458,1,0,0:0:0:0:
64,192,39608,1,0,3:0:0:0:
320,192,39608,1,0,0:0:0:0:
192,192,39758,1,0,0:0:0:0:
64,192,39908,1,0,0:0:0:0:
448,192,39908,1,0,3:0:0:0:
320,192,40058,1,0,0:0:0:0:
192,192,40208,1,0,3:0:0:0:
64,192,40208,1,0,0:0:0:0:
448,192,40358,1,0,0:0:0:0:
192,192,40508,1,0,0:0:0:0:
320,192,40508,1,0,3:0:0:0:
64,192,40658,1,0,0:0:0:0:
192,192,40808,1,0,0:0:0:0:
448,192,40808,1,0,3:0:0:0:
320,192,40958,1,0,0:0:0:0:
64,192,41108,1,0,3:0:0:0:
192,192,41108,1,0,0:0:0:0:
448,192,41258,1,0,0:0:0:0:
64,192,41408,1,0,3:0:0:0:
320,192,41408,1,0,0:0:0:0:
192,192,41558,1,0,0:0:0:0:
320,192,41708,1,0,0:0:0:0:
448,192,41708,1,0,3:0:0:0:
64,192,41858,1,0,0:0:0:0:
192,192,42008,1,0,0:0:0:0:
448,192,42008,1,0,3:0:0:0:
320,192,42158,1,0,0:0:0:0:
64,192,42308,1,0,0:0:0:0:
448,192,42308,1,0,3:0:0:0:
192,192,42458,1,0,0:0:0:0:
448,192,42608,1,0,3:0:0:0:
320,192,42608,1,0,0:0:0:0:
64,192,42758,1,0,0:0:0:0:
192,192,42908,1,0,3:0:0:0:
448,192,42908,1,0,0:0:0:0:
320,192,43058,1,0,0:0:0:0:
448,192,43208,1,0,3:0:0:0:
64,192,43208,1,0,0:0:0:0:
192,192,43358,1,0,0:0:0:0:
448,192,43508,1,0,3:0:0:0:
320,192,43508,1,0,3:0:0:0:
320,192,43658,1,0,3:0:0:0:
448,192,43658,1,0,3:0:0:0:
192,192,43808,1,0,3:0:0:0:
64,192,43808,1,0,3:0:0:0:
64,192,43958,1,0,3:0:0:0:
192,192,43958,1,0,3:0:0:0:
320,192,44108,1,0,3:0:0:0:
448,192,44108,1,0,3:0:0:0:
448,192,44258,1,0,3:0:0:0:
320,192,44258,1,0,3:0:0:0:
192,192,44408,1,0,3:0:0:0:
64,192,44408,1,0,3:0:0:0:
192,192,44558,1,0,3:0:0:0:
64,192,44558,1,0,3:0:0:0:
320,192,44708,1,0,3:0:0:0:
448,192,44708,1,0,3:0:0:0:
192,192,44858,1,0,3:0:0:0:
64,192,44858,1,0,3:0:0:0:
320,192,45008,1,0,3:0:0:0:
448,192,45008,1,0,3:0:0:0:
192,192,45158,1,0,3:0:0:0:
64,192,45158,1,0,3:0:0:0:
320,192,45308,1,0,3:0:0:0:
448,192,45308,1,0,3:0:0:0:
192,192,45458,1,0,3:0:0:0:
64,192,45458,1,0,3:0:0:0:
320,192,45608,1,0,3:0:0:0:
448,192,45608,1,0,3:0:0:0:
192,192,45758,1,0,3:0:0:0:
64,192,45758,1,0,3:0:0:0:
448,192,45908,1,0,3:0:0:0:
320,192,45983,1,0,3:0:0:0:
192,192,46058,1,0,3:0:0:0:
64,192,46133,1,0,3:0:0:0:
448,192,46208,1,0,3:0:0:0:
320,192,46283,1,0,3:0:0:0:
192,192,46358,1,0,3:0:0:0:
64,192,46433,1,0,3:0:0:0:
448,192,46508,1,0,3:0:0:0:
320,192,46583,1,0,3:0:0:0:
192,192,46658,1,0,3:0:0:0:
64,192,46733,1,0,3:0:0:0:
448,192,46808,1,0,3:0:0:0:
320,192,46883,1,0,3:0:0:0:
192,192,46958,1,0,3:0:0:0:
64,192,47033,1,0,3:0:0:0:
448,192,47108,1,0,3:0:0:0:
320,192,47183,1,0,3:0:0:0:
64,192,47258,1,0,3:0:0:0:
192,192,47333,1,0,3:0:0:0:
448,192,47408,1,0,3:0:0:0:
320,192,47483,1,0,3:0:0:0:
64,192,47558,1,0,3:0:0:0:
192,192,47633,1,0,3:0:0:0:
448,192,47708,1,0,3:0:0:0:
320,192,47783,1,0,3:0:0:0:
64,192,47858,1,0,3:0:0:0:
192,192,47933,1,0,3:0:0:0:
448,192,48008,1,0,3:0:0:0:
320,192,48083,1,0,3:0:0:0:
64,192,48158,1,0,3:0:0:0:
192,192,48233,1,0,3:0:0:0:
320,192,48308,1,4,2:0:0:0:
448,192,48308,128,2,48533:0:0:0:0:
192,192,48458,1,0,0:0:0:0:
320,192,48533,1,0,0:0:0:0:
448,192,48608,1,8,0:0:0:0:
64,192,48608,1,0,0:0:0:0:
192,192,48683,1,0,0:0:0:0:
320,192,48758,1,0,0:0:0:0:
448,192,48908,1,0,0:0:0:0:
320,192,48983,1,0,0:0:0:0:
64,192,49058,1,2,0:0:0:0:
192,192,49208,1,0,0:0:0:0:
448,192,49208,1,8,0:0:0:0:
320,192,49358,1,0,0:0:0:0:
192,192,49433,1,0,0:0:0:0:
448,192,49508,1,2,0:0:0:0:
192,192,49658,1,0,0:0:0:0:
320,192,49733,1,0,0:0:0:0:
448,192,49808,1,8,0:0:0:0:
64,192,49808,1,0,0:0:0:0:
192,192,49883,1,0,0:0:0:0:
320,192,49958,1,0,0:0:0:0:
192,192,50108,1,0,0:0:0:0:
64,192,50183,1,0,0:0:0:0:
448,192,50258,1,2,0:0:0:0:
320,192,50408,1,0,0:0:0:0:
64,192,50408,1,8,0:0:0:0:
192,192,50558,1,0,0:0:0:0:
320,192,50633,1,0,0:0:0:0:
448,192,50708,128,0,50933:0:0:0:0:
64,192,50708,1,2,0:0:0:0:
192,192,50858,1,0,0:0:0:0:
320,192,50933,1,0,0:0:0:0:
64,192,51008,1,8,0:0:0:0:
192,192,51008,1,0,0:0:0:0:
320,192,51083,1,0,0:0:0:0:
448,192,51158,1,0,0:0:0:0:
192,192,51308,1,0,0:0:0:0:
320,192,51383,1,0,0:0:0:0:
192,192,51458,1,2,0:0:0:0:
64,192,51608,1,8,0:0:0:0:
448,192,51608,1,0,0:0:0:0:
192,192,51758,1,0,0:0:0:0:
320,192,51833,1,0,0:0:0:0:
64,192,51908,1,2,0:0:0:0:
320,192,52058,1,0,0:0:0:0:
192,192,52133,1,0,0:0:0:0:
448,192,52208,1,0,0:0:0:0:
64,192,52208,1,8,0:0:0:0:
320,192,52283,1,0,0:0:0:0:
192,192,52358,1,0,0:0:0:0:
448,192,52433,1,0,3:0:0:0:
64,192,52508,1,0,0:0:0:0:
448,192,52583,1,0,3:0:0:0:
192,192,52658,1,2,0:0:0:0:
64,192,52808,1,0,0:0:0:0:
448,192,52808,1,8,0:0:0:0:
320,192,52958,1,0,0:0:0:0:
192,192,53033,1,0,0:0:0:0:
64,192,53108,128,2,53333:0:0:0:0:
320,192,53108,1,0,0:0:0:0:
192,192,53258,1,0,0:0:0:0:
320,192,53333,1,0,0:0:0:0:
64,192,53408,1,8,0:0:0:0:
448,192,53408,1,0,0:0:0:0:
192,192,53483,1,0,0:0:0:0:
320,192,53558,1,0,0:0:0:0:
448,192,53708,1,0,0:0:0:0:
320,192,53783,1,0,0:0:0:0:
64,192,53858,1,2,0:0:0:0:
320,192,54008,1,8,0:0:0:0:
448,192,54008,1,0,0:0:0:0:
64,192,54158,1,0,0:0:0:0:
192,192,54233,1,0,0:0:0:0:
320,192,54308,1,2,0:0:0:0:
448,192,54458,1,0,0:0:0:0:
320,192,54533,1,0,0:0:0:0:
64,192,54608,1,8,0:0:0:0:
192,192,54608,1,0,0:0:0:0:
448,192,54683,1,0,0:0:0:0:
320,192,54758,1,0,0:0:0:0:
64,192,54908,1,0,0:0:0:0:
192,192,54983,1,0,0:0:0:0:
320,192,55058,1,2,0:0:0:0:
64,192,55208,1,0,0:0:0:0:
192,192,55208,1,8,0:0:0:0:
448,192,55358,1,0,0:0:0:0:
192,192,55433,1,0,0:0:0:0:
448,192,55508,128,0,55733:0:0:0:0:
64,192,55508,1,2,0:0:0:0:
320,192,55658,5,0,0:0:0:0:
192,192,55733,1,0,0:0:0:0:
64,192,55808,1,0,0:0:0:0:
448,192,55808,1,8,0:0:0:0:
320,192,55883,1,0,0:0:0:0:
192,192,55958,1,0,0:0:0:0:
64,192,56108,1,0,0:0:0:0:
192,192,56183,1,0,0:0:0:0:
320,192,56258,1,2,0:0:0:0:
448,192,56408,1,8,0:0:0:0:
192,192,56408,1,0,0:0:0:0:
64,192,56558,1,0,0:0:0:0:
192,192,56633,1,0,0:0:0:0:
320,192,56708,128,2,56783:0:0:0:0:
448,192,56708,1,0,0:0:0:0:
64,192,56858,1,0,3:0:0:0:
192,192,56933,1,0,3:0:0:0:
320,192,57008,1,0,3:0:0:0:
448,192,57083,1,0,3:0:0:0:
320,192,57158,128,0,57308:0:0:0:0:
64,192,57308,1,0,3:0:0:0:
192,192,57383,1,0,3:0:0:0:
320,192,57458,1,0,3:0:0:0:
448,192,57495,128,0,57608:0:0:0:0:
320,192,57608,128,0,57758:0:0:0:0:
192,192,57758,128,0,57908:0:0:0:0:
448,192,57908,128,4,58133:0:0:0:0:
320,192,57908,1,2,0:0:0:0:
64,192,58058,1,0,0:0:0:0:
192,192,58133,1,0,0:0:0:0:
320,192,58208,1,0,0:0:0:0:
448,192,58208,1,8,0:0:0:0:
192,192,58283,1,0,0:0:0:0:
64,192,58358,1,0,0:0:0:0:
448,192,58508,1,0,0:0:0:0:
320,192,58583,1,0,0:0:0:0:
192,192,58658,1,2,0:0:0:0:
64,192,58808,1,8,0:0:0:0:
448,192,58808,1,0,0:0:0:0:
320,192,58958,1,0,0:0:0:0:
192,192,59033,1,0,0:0:0:0:
64,192,59108,1,2,0:0:0:0:
320,192,59258,1,0,0:0:0:0:
448,192,59333,1,0,0:0:0:0:
64,192,59408,1,0,0:0:0:0:
192,192,59408,1,8,0:0:0:0:
320,192,59483,1,0,0:0:0:0:
448,192,59558,1,0,0:0:0:0:
192,192,59708,1,0,0:0:0:0:
64,192,59783,1,0,0:0:0:0:
320,192,59858,1,2,0:0:0:0:
192,192,60008,1,8,0:0:0:0:
448,192,60008,1,0,0:0:0:0:
320,192,60158,1,0,0:0:0:0:
192,192,60233,1,0,0:0:0:0:
64,192,60308,128,0,60533:0:0:0:0:
448,192,60308,1,2,0:0:0:0:
320,192,60458,1,0,0:0:0:0:
192,192,60533,1,0,0:0:0:0:
64,192,60608,1,0,0:0:0:0:
448,192,60608,1,8,0:0:0:0:
320,192,60683,1,0,0:0:0:0:
192,192,60758,1,0,0:0:0:0:
64,192,60908,1,0,0:0:0:0:
192,192,60983,1,0,0:0:0:0:
320,192,61058,1,2,0:0:0:0:
64,192,61208,1,0,0:0:0:0:
448,192,61208,1,8,0:0:0:0:
192,192,61358,1,0,0:0:0:0:
320,192,61433,1,0,0:0:0:0:
448,192,61508,1,2,0:0:0:0:
64,192,61658,1,0,0:0:0:0:
192,192,61733,1,0,0:0:0:0:
448,192,61808,1,0,0:0:0:0:
320,192,61808,1,8,0:0:0:0:
64,192,61883,1,0,0:0:0:0:
192,192,61958,1,0,0:0:0:0:
448,192,62033,1,0,3:0:0:0:
64,192,62108,1,0,0:0:0:0:
448,192,62183,1,0,3:0:0:0:
192,192,62258,1,2,0:0:0:0:
448,192,62408,1,8,0:0:0:0:
64,192,62408,1,0,0:0:0:0:
192,192,62558,1,0,0:0:0:0:
64,192,62633,1,0,0:0:0:0:
448,192,62708,1,2,0:0:0:0:
320,192,62708,128,0,62933:0:0:0:0:
192,192,62858,1,0,0:0:0:0:
64,192,62933,1,0,0:0:0:0:
448,192,63008,1,8,0:0:0:0:
320,192,63008,1,0,0:0:0:0:
192,192,63083,1,0,0:0:0:0:
64,192,63158,1,0,0:0:0:0:
320,192,63308,1,0,0:0:0:0:
192,192,63383,1,0,0:0:0:0:
320,192,63458,1,2,0:0:0:0:
192,192,63608,1,8,0:0:0:0:
64,192,63608,1,0,0:0:0:0:
320,192,63758,1,0,0:0:0:0:
448,192,63833,1,0,0:0:0:0:
192,192,63908,1,2,0:0:0:0:
64,192,64058,1,0,0:0:0:0:
192,192,64133,1,0,0:0:0:0:
448,192,64208,1,0,0:0:0:0:
320,192,64208,1,8,0:0:0:0:
192,192,64283,1,0,0:0:0:0:
64,192,64358,1,0,0:0:0:0:
192,192,64508,1,0,0:0:0:0:
320,192,64583,1,0,0:0:0:0:
192,192,64658,1,2,0:0:0:0:
320,192,64808,1,8,0:0:0:0:
448,192,64808,1,0,0:0:0:0:
192,192,64958,1,0,0:0:0:0:
320,192,65033,1,0,0:0:0:0:
448,192,65108,1,2,0:0:0:0:
64,192,65108,128,0,65333:0:0:0:0:
192,192,65258,1,0,0:0:0:0:
320,192,65333,1,0,0:0:0:0:
64,192,65408,1,0,0:0:0:0:
448,192,65408,1,8,0:0:0:0:
192,192,65483,1,0,0:0:0:0:
320,192,65558,1,0,0:0:0:0:
192,192,65708,1,0,0:0:0:0:
448,192,65783,1,0,0:0:0:0:
320,192,65858,1,2,0:0:0:0:
192,192,66008,1,8,0:0:0:0:
64,192,66008,1,0,0:0:0:0:
320,192,66158,1,0,0:0:0:0:
192,192,66233,1,0,0:0:0:0:
448,192,66308,128,0,66383:0:0:0:0:
64,192,66308,1,2,0:0:0:0:
192,192,66458,1,0,0:0:0:0:
320,192,66533,1,0,0:0:0:0:
64,192,66608,1,8,0:0:0:0:
448,192,66608,1,0,0:0:0:0:
192,192,66683,1,0,0:0:0:0:
320,192,66758,128,0,66908:0:0:0:0:
64,192,66833,1,0,3:0:0:0:
448,192,66908,1,0,0:0:0:0:
64,192,66983,1,0,3:0:0:0:
320,192,67058,1,2,0:0:0:0:
192,192,67058,128,0,67208:0:0:0:0:
320,192,67208,128,0,67358:0:0:0:0:
448,192,67208,1,8,0:0:0:0:
192,192,67358,128,0,67508:0:0:0:0:
448,192,67508,128,4,67733:0:0:0:0:
64,192,67508,1,2,0:0:0:0:
192,192,67658,1,0,0:0:0:0:
64,192,67808,1,0,0:0:0:0:
320,192,67808,1,8,0:0:0:0:
192,192,67958,1,0,0:0:0:0:
320,192,68033,1,0,0:0:0:0:
192,192,68108,1,0,0:0:0:0:
320,192,68183,1,0,0:0:0:0:
448,192,68258,1,0,0:0:0:0:
192,192,68258,1,2,0:0:0:0:
64,192,68408,1,0,0:0:0:0:
320,192,68408,1,8,0:0:0:0:
448,192,68558,128,0,68633:0:0:0:0:
64,192,68708,128,0,68933:0:0:0:0:
320,192,68708,1,2,0:0:0:0:
448,192,68858,1,0,0:0:0:0:
448,192,69008,1,0,0:0:0:0:
192,192,69008,1,8,0:0:0:0:
320,192,69158,1,0,0:0:0:0:
192,192,69233,1,0,0:0:0:0:
320,192,69308,1,0,0:0:0:0:
192,192,69383,1,0,0:0:0:0:
64,192,69458,1,0,0:0:0:0:
320,192,69458,1,2,0:0:0:0:
448,192,69608,1,0,0:0:0:0:
192,192,69608,1,8,0:0:0:0:
64,192,69758,128,0,69833:0:0:0:0:
448,192,69908,128,0,70133:0:0:0:0:
192,192,69908,1,2,0:0:0:0:
64,192,70058,1,0,0:0:0:0:
64,192,70208,1,0,0:0:0:0:
320,192,70208,1,8,0:0:0:0:
192,192,70358,1,0,0:0:0:0:
320,192,70433,1,0,0:0:0:0:
192,192,70508,1,0,0:0:0:0:
320,192,70583,1,0,0:0:0:0:
448,192,70658,1,0,0:0:0:0:
192,192,70658,1,2,0:0:0:0:
64,192,70808,1,0,0:0:0:0:
320,192,70808,1,8,0:0:0:0:
448,192,70958,128,0,71033:0:0:0:0:
64,192,71108,128,0,71333:0:0:0:0:
320,192,71108,1,2,0:0:0:0:
448,192,71258,1,0,0:0:0:0:
320,192,71408,1,0,0:0:0:0:
192,192,71408,1,8,0:0:0:0:
448,192,71558,1,0,0:0:0:0:
320,192,71633,128,0,71708:0:0:0:0:
192,192,71708,128,0,72008:0:0:0:0:
320,192,71858,1,2,0:0:0:0:
448,192,71858,1,0,0:0:0:0:
320,192,72008,128,8,72308:0:0:0:0:
64,192,72008,128,0,72308:0:0:0:0:
192,192,72308,1,2,0:0:0:0:
448,192,72308,128,0,72533:0:0:0:0:
64,192,72458,1,0,0:0:0:0:
320,192,72608,1,0,0:0:0:0:
64,192,72608,1,8,0:0:0:0:
192,192,72758,1,0,0:0:0:0:
448,192,72833,1,0,0:0:0:0:
192,192,72908,1,0,0:0:0:0:
448,192,72983,1,0,0:0:0:0:
320,192,73058,1,0,0:0:0:0:
192,192,73058,1,2,0:0:0:0:
64,192,73208,1,0,0:0:0:0:
448,192,73208,1,8,0:0:0:0:
320,192,73358,128,0,73433:0:0:0:0:
192,192,73508,1,2,0:0:0:0:
64,192,73508,128,0,73733:0:0:0:0:
448,192,73658,1,0,0:0:0:0:
448,192,73808,1,0,0:0:0:0:
192,192,73808,1,8,0:0:0:0:
320,192,73958,1,0,0:0:0:0:
64,192,74033,1,0,0:0:0:0:
320,192,74108,1,0,0:0:0:0:
64,192,74183,1,0,0:0:0:0:
192,192,74258,1,2,0:0:0:0:
320,192,74258,1,0,0:0:0:0:
448,192,74408,1,0,0:0:0:0:
64,192,74408,1,8,0:0:0:0:
192,192,74558,128,0,74633:0:0:0:0:
320,192,74708,1,2,0:0:0:0:
448,192,74708,128,0,74933:0:0:0:0:
64,192,74858,1,0,0:0:0:0:
320,192,75008,1,8,0:0:0:0:
64,192,75008,1,0,0:0:0:0:
192,192,75158,1,0,0:0:0:0:
320,192,75233,1,0,0:0:0:0:
192,192,75308,1,0,0:0:0:0:
320,192,75383,1,0,0:0:0:0:
448,192,75458,1,2,0:0:0:0:
192,192,75458,1,0,0:0:0:0:
64,192,75608,1,0,0:0:0:0:
320,192,75608,1,8,0:0:0:0:
448,192,75758,128,0,75833:0:0:0:0:
320,192,75908,128,0,75983:0:0:0:0:
192,192,75908,1,8,0:0:0:0:
64,192,76058,1,2,0:0:0:0:
448,192,76133,1,0,0:0:0:0:
192,192,76208,1,8,0:0:0:0:
448,192,76283,1,0,0:0:0:0:
192,192,76358,128,0,76508:0:0:0:0:
64,192,76358,1,2,0:0:0:0:
448,192,76508,1,8,0:0:0:0:
320,192,76508,128,0,76658:0:0:0:0:
64,192,76658,1,2,0:0:0:0:
448,192,76658,128,0,76808:0:0:0:0:
320,192,76808,128,0,76958:0:0:0:0:
192,192,76808,1,8,0:0:0:0:
192,192,76958,128,0,77108:0:0:0:0:
64,192,76958,1,2,0:0:0:0:
320,192,77108,1,2,0:0:0:0:
448,192,77108,1,4,2:0:0:0:
64,192,77258,1,0,0:0:0:0:
192,192,77333,1,0,0:0:0:0:
448,192,77408,1,0,0:0:0:0:
320,192,77408,1,8,0:0:0:0:
64,192,77483,1,0,0:0:0:0:
192,192,77558,1,0,0:0:0:0:
448,192,77708,1,0,0:0:0:0:
320,192,77783,1,0,0:0:0:0:
192,192,77858,1,2,0:0:0:0:
320,192,78008,1,8,0:0:0:0:
64,192,78008,1,0,0:0:0:0:
448,192,78158,1,0,0:0:0:0:
192,192,78233,1,0,0:0:0:0:
64,192,78308,1,2,0:0:0:0:
320,192,78458,1,0,0:0:0:0:
448,192,78533,1,0,0:0:0:0:
192,192,78608,1,8,0:0:0:0:
64,192,78608,1,0,0:0:0:0:
320,192,78683,1,0,0:0:0:0:
448,192,78758,1,0,0:0:0:0:
192,192,78908,1,0,0:0:0:0:
64,192,78983,1,0,0:0:0:0:
320,192,79058,1,2,0:0:0:0:
192,192,79208,1,8,0:0:0:0:
448,192,79208,1,0,0:0:0:0:
320,192,79358,1,0,0:0:0:0:
64,192,79433,1,0,0:0:0:0:
192,192,79508,1,2,0:0:0:0:
448,192,79658,1,0,0:0:0:0:
320,192,79733,1,0,0:0:0:0:
64,192,79808,1,8,0:0:0:0:
192,192,79808,1,0,0:0:0:0:
448,192,79883,1,0,0:0:0:0:
320,192,79958,1,0,0:0:0:0:
192,192,80108,1,0,0:0:0:0:
448,192,80183,1,0,0:0:0:0:
320,192,80258,1,2,0:0:0:0:
448,192,80408,1,8,0:0:0:0:
192,192,80408,1,0,0:0:0:0:
64,192,80558,1,0,0:0:0:0:
192,192,80633,1,0,0:0:0:0:
320,192,80708,1,2,0:0:0:0:
448,192,80858,1,0,0:0:0:0:
320,192,80933,1,0,0:0:0:0:
192,192,81008,1,0,0:0:0:0:
64,192,81008,1,8,0:0:0:0:
448,192,81083,1,0,0:0:0:0:
320,192,81158,1,0,0:0:0:0:
64,192,81233,1,0,3:0:0:0:
320,192,81308,128,0,81458:0:0:0:0:
448,192,81308,1,0,0:0:0:0:
192,192,81383,1,0,3:0:0:0:
64,192,81458,1,2,0:0:0:0:
448,192,81458,128,0,81608:0:0:0:0:
64,192,81608,128,0,81758:0:0:0:0:
320,192,81608,1,8,0:0:0:0:
192,192,81758,128,0,81908:0:0:0:0:
448,192,81758,1,0,0:0:0:0:
320,192,81833,1,0,0:0:0:0:
64,192,81908,1,2,0:0:0:0:
192,192,82058,1,0,0:0:0:0:
320,192,82133,1,0,0:0:0:0:
448,192,82208,1,8,0:0:0:0:
64,192,82208,1,0,0:0:0:0:
192,192,82283,1,0,0:0:0:0:
320,192,82358,1,0,0:0:0:0:
192,192,82508,1,0,0:0:0:0:
320,192,82583,1,0,0:0:0:0:
192,192,82658,1,2,0:0:0:0:
64,192,82808,1,0,0:0:0:0:
448,192,82808,1,8,0:0:0:0:
320,192,82958,1,0,0:0:0:0:
192,192,83033,1,0,0:0:0:0:
320,192,83108,1,2,0:0:0:0:
64,192,83258,1,0,0:0:0:0:
192,192,83333,1,0,0:0:0:0:
320,192,83408,1,8,0:0:0:0:
448,192,83408,1,0,0:0:0:0:
64,192,83483,1,0,0:0:0:0:
192,192,83558,1,0,0:0:0:0:
448,192,83708,1,0,0:0:0:0:
320,192,83783,1,0,0:0:0:0:
192,192,83858,1,2,0:0:0:0:
448,192,84008,1,8,0:0:0:0:
64,192,84008,1,0,0:0:0:0:
320,192,84158,1,0,0:0:0:0:
192,192,84233,1,0,0:0:0:0:
448,192,84308,1,2,0:0:0:0:
64,192,84458,5,0,0:0:0:0:
192,192,84533,1,0,0:0:0:0:
320,192,84608,1,0,0:0:0:0:
448,192,84608,1,8,0:0:0:0:
64,192,84683,1,0,0:0:0:0:
192,192,84758,1,0,0:0:0:0:
448,192,84908,1,0,0:0:0:0:
64,192,84983,1,0,0:0:0:0:
192,192,85058,1,2,0:0:0:0:
320,192,85208,1,8,0:0:0:0:
64,192,85208,1,0,0:0:0:0:
448,192,85358,1,0,0:0:0:0:
320,192,85433,1,0,0:0:0:0:
192,192,85508,128,0,85733:0:0:0:0:
64,192,85508,128,2,85733:0:0:0:0:
320,192,85808,1,0,0:0:0:0:
448,192,85808,1,8,0:0:0:0:
320,192,85958,128,0,86183:0:0:0:0:
448,192,85958,128,2,86183:0:0:0:0:
192,192,86258,1,8,0:0:0:0:
320,192,86258,1,0,0:0:0:0:
192,192,86408,128,2,86633:0:0:0:0:
320,192,86408,128,0,86633:0:0:0:0:
64,192,86708,128,2,86933:0:0:0:0:
448,192,86708,128,0,86933:0:0:0:0:
64,192,87008,1,0,0:0:0:0:
320,192,87008,1,8,0:0:0:0:
64,192,87158,128,0,87383:0:0:0:0:
320,192,87158,128,2,87383:0:0:0:0:
192,192,87458,1,8,0:0:0:0:
448,192,87458,1,0,0:0:0:0:
192,192,87608,128,2,87833:0:0:0:0:
448,192,87608,128,0,87833:0:0:0:0:
448,192,87908,1,2,0:0:0:0:
320,192,87908,1,4,2:0:0:0:
192,192,88058,1,0,0:0:0:0:
320,192,88208,1,8,0:0:0:0:
448,192,88208,1,0,0:0:0:0:
64,192,88208,1,0,0:0:0:0:
448,192,88358,1,0,0:0:0:0:
320,192,88508,1,0,0:0:0:0:
192,192,88658,1,2,0:0:0:0:
64,192,88658,1,0,0:0:0:0:
64,192,88808,1,0,0:0:0:0:
192,192,88808,1,8,0:0:0:0:
448,192,88808,1,0,0:0:0:0:
320,192,88958,1,0,0:0:0:0:
64,192,89108,1,2,0:0:0:0:
448,192,89108,1,0,0:0:0:0:
192,192,89258,1,0,0:0:0:0:
64,192,89408,1,0,0:0:0:0:
320,192,89408,1,8,0:0:0:0:
448,192,89408,1,0,0:0:0:0:
192,192,89558,1,0,0:0:0:0:
320,192,89708,1,0,0:0:0:0:
192,192,89858,1,2,0:0:0:0:
448,192,89858,1,0,0:0:0:0:
192,192,90008,1,0,0:0:0:0:
448,192,90008,1,0,0:0:0:0:
64,192,90008,1,8,0:0:0:0:
320,192,90158,1,0,0:0:0:0:
192,192,90308,1,2,0:0:0:0:
64,192,90308,1,0,0:0:0:0:
320,192,90458,1,0,0:0:0:0:
192,192,90608,1,8,0:0:0:0:
64,192,90608,1,0,0:0:0:0:
448,192,90608,1,0,0:0:0:0:
64,192,90758,1,0,0:0:0:0:
192,192,90908,1,0,0:0:0:0:
320,192,91058,1,2,0:0:0:0:
448,192,91058,1,0,0:0:0:0:
448,192,91208,1,0,0:0:0:0:
320,192,91208,1,8,0:0:0:0:
64,192,91208,1,0,0:0:0:0:
192,192,91358,1,0,0:0:0:0:
64,192,91508,1,0,0:0:0:0:
448,192,91508,1,2,0:0:0:0:
320,192,91658,1,0,0:0:0:0:
192,192,91808,1,8,0:0:0:0:
448,192,91808,1,0,0:0:0:0:
320,192,91958,1,0,0:0:0:0:
192,192,92033,1,0,3:0:0:0:
320,192,92108,1,0,0:0:0:0:
192,192,92183,1,0,3:0:0:0:
448,192,92258,1,2,0:0:0:0:
320,192,92258,1,0,0:0:0:0:
64,192,92408,1,0,0:0:0:0:
320,192,92408,1,8,0:0:0:0:
448,192,92408,1,0,0:0:0:0:
192,192,92558,1,0,0:0:0:0:
320,192,92708,1,2,0:0:0:0:
448,192,92708,1,0,0:0:0:0:
192,192,92858,1,0,0:0:0:0:
64,192,93008,1,0,0:0:0:0:
320,192,93008,1,8,0:0:0:0:
448,192,93008,1,0,0:0:0:0:
192,192,93158,1,0,0:0:0:0:
64,192,93308,1,0,0:0:0:0:
192,192,93458,1,0,0:0:0:0:
320,192,93458,1,2,0:0:0:0:
64,192,93608,1,0,0:0:0:0:
320,192,93608,1,0,0:0:0:0:
448,192,93608,1,8,0:0:0:0:
192,192,93758,1,0,0:0:0:0:
64,192,93908,1,0,0:0:0:0:
320,192,93908,1,2,0:0:0:0:
448,192,94058,1,0,0:0:0:0:
320,192,94208,1,0,0:0:0:0:
64,192,94208,1,0,0:0:0:0:
192,192,94208,1,8,0:0:0:0:
448,192,94358,1,0,0:0:0:0:
320,192,94508,1,0,0:0:0:0:
64,192,94658,1,0,0:0:0:0:
192,192,94658,1,2,0:0:0:0:
64,192,94808,1,0,0:0:0:0:
192,192,94808,1,0,0:0:0:0:
448,192,94808,1,8,0:0:0:0:
320,192,94958,1,0,0:0:0:0:
448,192,95108,1,0,0:0:0:0:
192,192,95108,1,2,0:0:0:0:
320,192,95258,1,0,0:0:0:0:
192,192,95408,1,8,0:0:0:0:
448,192,95408,1,0,0:0:0:0:
64,192,95408,1,0,0:0:0:0:
64,192,95558,1,0,0:0:0:0:
192,192,95708,1,0,0:0:0:0:
320,192,95858,1,2,0:0:0:0:
448,192,95858,1,0,0:0:0:0:
320,192,96008,1,8,0:0:0:0:
448,192,96008,1,0,0:0:0:0:
64,192,96008,1,0,0:0:0:0:
192,192,96158,1,0,0:0:0:0:
448,192,96308,1,0,0:0:0:0:
320,192,96308,1,8,0:0:0:0:
192,192,96458,1,2,0:0:0:0:
64,192,96458,1,0,0:0:0:0:
320,192,96608,1,8,0:0:0:0:
448,192,96608,1,0,0:0:0:0:
192,192,96758,1,2,0:0:0:0:
64,192,96758,1,0,0:0:0:0:
448,192,96908,1,8,0:0:0:0:
320,192,96908,1,0,0:0:0:0:
192,192,97058,1,0,0:0:0:0:
64,192,97058,1,2,0:0:0:0:
320,192,97208,1,0,0:0:0:0:
448,192,97208,1,8,0:0:0:0:
192,192,97358,1,0,0:0:0:0:
64,192,97358,1,2,0:0:0:0:
320,192,97508,1,2,0:0:0:0:
448,192,97508,1,4,2:0:0:0:
64,192,97508,1,0,0:0:0:0:
320,192,97658,1,0,0:0:0:0:
192,192,97808,1,8,0:0:0:0:
64,192,97808,1,0,0:0:0:0:
448,192,97808,1,0,0:0:0:0:
320,192,97958,1,0,0:0:0:0:
192,192,98108,1,0,0:0:0:0:
320,192,98258,1,2,0:0:0:0:
448,192,98258,1,0,0:0:0:0:
448,192,98408,1,8,0:0:0:0:
320,192,98408,1,0,0:0:0:0:
64,192,98408,1,0,0:0:0:0:
192,192,98558,1,0,0:0:0:0:
448,192,98708,1,0,0:0:0:0:
64,192,98708,1,2,0:0:0:0:
320,192,98858,1,0,0:0:0:0:
448,192,99008,1,0,0:0:0:0:
192,192,99008,1,8,0:0:0:0:
64,192,99008,1,0,0:0:0:0:
320,192,99158,1,0,0:0:0:0:
192,192,99308,1,0,0:0:0:0:
320,192,99458,1,2,0:0:0:0:
64,192,99458,1,0,0:0:0:0:
320,192,99608,1,0,0:0:0:0:
64,192,99608,1,0,0:0:0:0:
448,192,99608,1,8,0:0:0:0:
192,192,99758,1,0,0:0:0:0:
320,192,99908,1,2,0:0:0:0:
448,192,99908,1,0,0:0:0:0:
192,192,100058,1,0,0:0:0:0:
320,192,100208,1,8,0:0:0:0:
448,192,100208,1,0,0:0:0:0:
64,192,100208,1,0,0:0:0:0:
192,192,100358,1,0,0:0:0:0:
320,192,100508,1,0,0:0:0:0:
192,192,100658,1,2,0:0:0:0:
64,192,100658,1,0,0:0:0:0:
64,192,100808,1,8,0:0:0:0:
192,192,100808,1,0,0:0:0:0:
448,192,100808,1,0,0:0:0:0:
320,192,100958,1,0,0:0:0:0:
448,192,101108,1,0,0:0:0:0:
64,192,101108,1,2,0:0:0:0:
192,192,101258,1,0,0:0:0:0:
320,192,101408,1,8,0:0:0:0:
64,192,101408,1,0,0:0:0:0:
192,192,101558,1,0,0:0:0:0:
320,192,101633,1,0,3:0:0:0:
192,192,101708,1,0,0:0:0:0:
320,192,101783,1,0,3:0:0:0:
64,192,101858,1,2,0:0:0:0:
192,192,101858,1,0,0:0:0:0:
448,192,102008,1,0,0:0:0:0:
192,192,102008,1,8,0:0:0:0:
64,192,102008,1,0,0:0:0:0:
320,192,102158,1,0,0:0:0:0:
192,192,102308,1,2,0:0:0:0:
64,192,102308,1,0,0:0:0:0:
320,192,102458,1,0,0:0:0:0:
448,192,102608,1,0,0:0:0:0:
192,192,102608,1,8,0:0:0:0:
64,192,102608,1,0,0:0:0:0:
320,192,102758,1,0,0:0:0:0:
64,192,102908,1,0,0:0:0:0:
320,192,103058,1,0,0:0:0:0:
192,192,103058,1,2,0:0:0:0:
320,192,103208,1,8,0:0:0:0:
448,192,103208,1,0,0:0:0:0:
64,192,103208,1,0,0:0:0:0:
192,192,103358,1,0,0:0:0:0:
448,192,103508,1,2,0:0:0:0:
64,192,103508,1,0,0:0:0:0:
320,192,103658,1,0,0:0:0:0:
192,192,103808,1,8,0:0:0:0:
448,192,103808,1,0,0:0:0:0:
64,192,103808,1,0,0:0:0:0:
320,192,103958,1,0,0:0:0:0:
192,192,104108,1,0,0:0:0:0:
448,192,104258,1,0,0:0:0:0:
320,192,104258,1,2,0:0:0:0:
448,192,104408,1,8,0:0:0:0:
320,192,104408,1,0,0:0:0:0:
64,192,104408,1,0,0:0:0:0:
192,192,104558,1,0,0:0:0:0:
64,192,104708,1,0,0:0:0:0:
320,192,104708,1,2,0:0:0:0:
192,192,104858,1,0,0:0:0:0:
320,192,105008,1,8,0:0:0:0:
64,192,105008,1,0,0:0:0:0:
448,192,105008,1,0,0:0:0:0:
448,192,105158,1,0,0:0:0:0:
320,192,105308,1,0,0:0:0:0:
192,192,105458,1,2,0:0:0:0:
64,192,105458,1,0,0:0:0:0:
192,192,105608,1,0,0:0:0:0:
64,192,105608,1,8,0:0:0:0:
448,192,105608,1,0,0:0:0:0:
320,192,105758,1,0,0:0:0:0:
448,192,105908,1,0,0:0:0:0:
64,192,105908,1,8,0:0:0:0:
320,192,106058,1,2,0:0:0:0:
192,192,106058,1,0,0:0:0:0:
448,192,106208,1,0,0:0:0:0:
64,192,106208,1,8,0:0:0:0:
320,192,106358,1,2,0:0:0:0:
192,192,106358,1,0,0:0:0:0:
64,192,106508,1,0,0:0:0:0:
448,192,106508,1,8,0:0:0:0:
192,192,106658,1,2,0:0:0:0:
320,192,106658,1,0,0:0:0:0:
64,192,106808,1,0,0:0:0:0:
448,192,106808,1,8,0:0:0:0:
192,192,106958,1,2,0:0:0:0:
320,192,106958,1,0,0:0:0:0:
448,192,107108,128,0,107408:0:0:0:0:
320,192,107408,128,0,107558:0:0:0:0:
192,192,107558,128,0,107858:0:0:0:0:
64,192,107858,128,0,108008:0:0:0:0:
192,192,108008,128,0,108158:0:0:0:0:
320,192,108158,128,0,108458:0:0:0:0:
192,192,108458,128,0,108608:0:0:0:0:
448,192,108608,128,0,108758:0:0:0:0:
320,192,108758,128,0,108908:0:0:0:0:
192,192,108908,128,0,109058:0:0:0:0:
64,192,109058,128,0,109208:0:0:0:0:
192,192,109208,128,0,109358:0:0:0:0:
320,192,109358,128,0,110408:0:0:0:0:
192,192,110408,128,0,110558:0:0:0:0:
448,192,110558,128,0,111608:0:0:0:0:
320,192,111608,128,0,111908:0:0:0:0:
448,192,111908,128,0,112208:0:0:0:0:
320,192,112208,128,0,112358:0:0:0:0:
192,192,112358,128,0,112658:0:0:0:0:
64,192,112658,128,0,112808:0:0:0:0:
192,192,112808,128,0,112958:0:0:0:0:
320,192,112958,128,0,113258:0:0:0:0:
192,192,113258,128,0,113408:0:0:0:0:
448,192,113408,128,0,113558:0:0:0:0:
320,192,113558,128,0,113708:0:0:0:0:
192,192,113708,128,0,113858:0:0:0:0:
64,192,113858,128,0,114008:0:0:0:0:
192,192,114008,128,0,114158:0:0:0:0:
320,192,114158,128,0,115058:0:0:0:0:
192,192,115058,128,0,115208:0:0:0:0:
320,192,115208,128,0,115358:0:0:0:0:
448,192,115358,128,0,116408:0:0:0:0:
320,192,116408,128,0,116708:0:0:0:0:
448,192,116708,128,2,116858:0:0:0:0:
192,192,116708,1,4,2:0:0:0:
64,192,116858,128,0,117008:0:0:0:0:
192,192,117008,128,0,117158:0:0:0:0:
320,192,117158,128,0,117308:0:0:0:0:
448,192,117308,128,0,117458:0:0:0:0:
192,192,117308,1,0,0:0:0:0:
64,192,117458,128,0,117608:0:0:0:0:
192,192,117608,128,0,117758:0:0:0:0:
320,192,117758,128,0,117908:0:0:0:0:
448,192,117908,128,0,118058:0:0:0:0:
192,192,117908,1,0,0:0:0:0:
64,192,118058,128,0,118208:0:0:0:0:
192,192,118208,128,0,118358:0:0:0:0:
320,192,118358,128,0,118508:0:0:0:0:
448,192,118508,128,0,118658:0:0:0:0:
192,192,118508,1,0,0:0:0:0:
64,192,118658,128,0,118808:0:0:0:0:
192,192,118808,128,0,118958:0:0:0:0:
320,192,118958,128,0,119108:0:0:0:0:
448,192,119108,128,0,119258:0:0:0:0:
192,192,119108,1,0,0:0:0:0:
64,192,119258,128,0,119408:0:0:0:0:
192,192,119408,128,0,119558:0:0:0:0:
320,192,119558,128,0,119708:0:0:0:0:
448,192,119708,128,0,119858:0:0:0:0:
192,192,119708,1,0,0:0:0:0:
64,192,119858,128,0,120008:0:0:0:0:
192,192,120008,128,0,120158:0:0:0:0:
320,192,120158,128,0,120308:0:0:0:0:
448,192,120308,128,0,120458:0:0:0:0:
192,192,120308,1,0,0:0:0:0:
64,192,120458,128,0,120608:0:0:0:0:
320,192,120608,128,0,120758:0:0:0:0:
192,192,120758,128,0,120908:0:0:0:0:
64,192,120908,128,0,121058:0:0:0:0:
192,192,121058,128,0,121133:0:0:0:0:
320,192,121133,128,0,121208:0:0:0:0:
448,192,121208,128,0,121358:0:0:0:0:
320,192,121358,128,0,121508:0:0:0:0:
448,192,121508,128,0,121658:0:0:0:0:
192,192,121508,1,0,0:0:0:0:
64,192,121658,128,0,121808:0:0:0:0:
192,192,121808,128,0,121958:0:0:0:0:
320,192,121958,128,0,122108:0:0:0:0:
448,192,122108,128,0,122258:0:0:0:0:
192,192,122108,1,0,0:0:0:0:
64,192,122258,128,0,122408:0:0:0:0:
192,192,122408,128,0,122558:0:0:0:0:
320,192,122558,128,0,122708:0:0:0:0:
448,192,122708,128,0,122858:0:0:0:0:
192,192,122708,1,0,0:0:0:0:
64,192,122858,128,0,123008:0:0:0:0:
192,192,123008,128,0,123158:0:0:0:0:
320,192,123158,128,0,123308:0:0:0:0:
448,192,123308,128,0,123458:0:0:0:0:
192,192,123308,1,0,0:0:0:0:
64,192,123458,128,0,123608:0:0:0:0:
192,192,123608,128,0,123758:0:0:0:0:
320,192,123758,128,0,123908:0:0:0:0:
448,192,123908,128,0,124058:0:0:0:0:
192,192,123908,128,0,124058:0:0:0:0:
320,192,124058,128,0,124208:0:0:0:0:
64,192,124058,128,0,124208:0:0:0:0:
448,192,124208,128,0,124358:0:0:0:0:
192,192,124358,128,0,124508:0:0:0:0:
320,192,124508,128,0,124658:0:0:0:0:
64,192,124508,128,0,124658:0:0:0:0:
192,192,124658,128,0,124808:0:0:0:0:
448,192,124808,128,0,124958:0:0:0:0:
320,192,124808,128,0,124958:0:0:0:0:
192,192,124958,128,0,125108:0:0:0:0:
64,192,124958,128,0,125108:0:0:0:0:
320,192,125108,128,8,125183:0:0:0:0:
448,192,125108,128,0,125258:0:0:0:0:
192,192,125258,128,2,125333:0:0:0:0:
64,192,125258,128,0,125408:0:0:0:0:
320,192,125408,128,8,125558:0:0:0:0:
448,192,125408,128,0,125483:0:0:0:0:
64,192,125558,128,0,125633:0:0:0:0:
192,192,125558,128,2,125708:0:0:0:0:
320,192,125708,128,0,125783:0:0:0:0:
448,192,125708,128,8,125858:0:0:0:0:
192,192,125858,128,0,125933:0:0:0:0:
64,192,125858,128,2,126008:0:0:0:0:
320,192,126008,128,8,126233:0:0:0:0:
448,192,126008,128,0,126233:0:0:0:0:
64,192,126158,1,2,0:0:0:0:
320,192,126308,1,2,0:0:0:0:
448,192,126308,128,4,126458:0:0:0:0:
192,192,126308,1,0,0:0:0:0:
320,192,126608,1,8,0:0:0:0:
64,192,126608,128,0,126758:0:0:0:0:
192,192,126758,128,0,126908:0:0:0:0:
448,192,126908,128,0,127058:0:0:0:0:
320,192,127058,1,2,0:0:0:0:
448,192,127208,1,8,0:0:0:0:
64,192,127208,128,0,127358:0:0:0:0:
192,192,127358,128,0,127508:0:0:0:0:
320,192,127508,128,2,127658:0:0:0:0:
64,192,127808,1,8,0:0:0:0:
448,192,127808,128,0,127958:0:0:0:0:
192,192,127958,128,0,128108:0:0:0:0:
64,192,128108,128,0,128258:0:0:0:0:
320,192,128258,1,2,0:0:0:0:
192,192,128408,1,8,0:0:0:0:
448,192,128408,128,0,128558:0:0:0:0:
320,192,128558,128,0,128708:0:0:0:0:
192,192,128708,128,2,128858:0:0:0:0:
64,192,129008,1,8,0:0:0:0:
448,192,129008,128,0,129158:0:0:0:0:
320,192,129158,128,0,129308:0:0:0:0:
64,192,129308,128,0,129458:0:0:0:0:
192,192,129458,1,2,0:0:0:0:
64,192,129608,1,8,0:0:0:0:
448,192,129608,128,0,129758:0:0:0:0:
320,192,129758,128,0,129908:0:0:0:0:
192,192,129908,128,2,130058:0:0:0:0:
64,192,130208,1,8,0:0:0:0:
448,192,130208,128,0,130358:0:0:0:0:
320,192,130358,128,0,130508:0:0:0:0:
64,192,130433,1,0,3:0:0:0:
192,192,130508,128,0,130658:0:0:0:0:
448,192,130583,1,0,3:0:0:0:
320,192,130658,128,2,130808:0:0:0:0:
64,192,130808,1,8,0:0:0:0:
448,192,130808,128,0,130958:0:0:0:0:
192,192,130958,128,0,131108:0:0:0:0:
64,192,131108,128,2,131258:0:0:0:0:
192,192,131408,1,8,0:0:0:0:
448,192,131408,128,0,131558:0:0:0:0:
320,192,131558,128,0,131708:0:0:0:0:
192,192,131708,128,0,131858:0:0:0:0:
64,192,131858,1,2,0:0:0:0:
448,192,132008,1,8,0:0:0:0:
320,192,132008,128,0,132158:0:0:0:0:
192,192,132158,128,0,132308:0:0:0:0:
64,192,132308,128,2,132458:0:0:0:0:
320,192,132608,1,8,0:0:0:0:
192,192,132608,128,0,132758:0:0:0:0:
64,192,132758,128,0,132908:0:0:0:0:
448,192,132908,128,0,133058:0:0:0:0:
192,192,133058,1,2,0:0:0:0:
320,192,133208,1,8,0:0:0:0:
64,192,133208,128,0,133358:0:0:0:0:
192,192,133358,128,0,133508:0:0:0:0:
320,192,133508,128,2,133658:0:0:0:0:
192,192,133808,1,8,0:0:0:0:
448,192,133808,128,0,133958:0:0:0:0:
64,192,133958,128,0,134108:0:0:0:0:
192,192,134108,128,0,134258:0:0:0:0:
448,192,134258,1,2,0:0:0:0:
64,192,134408,1,8,0:0:0:0:
320,192,134408,128,0,134558:0:0:0:0:
448,192,134558,128,0,134708:0:0:0:0:
192,192,134708,1,8,0:0:0:0:
64,192,134708,1,0,0:0:0:0:
448,192,134858,1,0,0:0:0:0:
320,192,134858,1,2,0:0:0:0:
192,192,135008,1,8,0:0:0:0:
64,192,135008,1,0,0:0:0:0:
320,192,135158,1,2,0:0:0:0:
448,192,135158,1,0,0:0:0:0:
192,192,135308,1,8,0:0:0:0:
64,192,135308,1,0,0:0:0:0:
448,192,135458,1,0,0:0:0:0:
320,192,135458,1,2,0:0:0:0:
192,192,135608,1,8,0:0:0:0:
64,192,135608,1,0,0:0:0:0:
320,192,135758,1,2,0:0:0:0:
448,192,135758,1,0,0:0:0:0:
192,192,135908,5,4,2:0:0:0:
320,192,135908,1,2,0:0:0:0:
448,192,135908,128,0,136058:0:0:0:0:
320,192,136208,1,8,0:0:0:0:
64,192,136208,128,0,136358:0:0:0:0:
192,192,136358,128,0,136508:0:0:0:0:
448,192,136508,128,0,136658:0:0:0:0:
320,192,136658,1,2,0:0:0:0:
448,192,136808,1,8,0:0:0:0:
64,192,136808,128,0,136958:0:0:0:0:
192,192,136958,128,0,137108:0:0:0:0:
320,192,137108,128,2,137258:0:0:0:0:
64,192,137408,1,8,0:0:0:0:
448,192,137408,128,0,137558:0:0:0:0:
192,192,137558,128,0,137708:0:0:0:0:
64,192,137708,128,0,137858:0:0:0:0:
320,192,137858,1,2,0:0:0:0:
192,192,138008,1,8,0:0:0:0:
448,192,138008,128,0,138158:0:0:0:0:
320,192,138158,128,0,138308:0:0:0:0:
192,192,138308,128,2,138458:0:0:0:0:
64,192,138608,1,8,0:0:0:0:
448,192,138608,128,0,138758:0:0:0:0:
192,192,138758,128,0,138908:0:0:0:0:
64,192,138908,128,0,139058:0:0:0:0:
320,192,139058,1,2,0:0:0:0:
192,192,139208,1,8,0:0:0:0:
448,192,139208,128,0,139358:0:0:0:0:
320,192,139358,128,0,139508:0:0:0:0:
192,192,139508,128,2,139658:0:0:0:0:
64,192,139808,1,8,0:0:0:0:
448,192,139808,128,0,139958:0:0:0:0:
320,192,139958,128,0,140108:0:0:0:0:
64,192,140033,1,0,3:0:0:0:
192,192,140108,128,0,140258:0:0:0:0:
448,192,140183,1,0,3:0:0:0:
320,192,140258,128,2,140408:0:0:0:0:
64,192,140408,1,8,0:0:0:0:
448,192,140408,128,0,140558:0:0:0:0:
192,192,140558,128,0,140708:0:0:0:0:
320,192,140708,128,2,140858:0:0:0:0:
192,192,141008,1,8,0:0:0:0:
448,192,141008,128,0,141158:0:0:0:0:
320,192,141158,128,0,141308:0:0:0:0:
64,192,141308,128,0,141458:0:0:0:0:
448,192,141458,1,2,0:0:0:0:
64,192,141608,1,8,0:0:0:0:
192,192,141608,128,0,141758:0:0:0:0:
320,192,141758,128,0,141908:0:0:0:0:
448,192,141908,128,2,142058:0:0:0:0:
64,192,142208,1,8,0:0:0:0:
320,192,142208,128,0,142358:0:0:0:0:
192,192,142358,128,0,142508:0:0:0:0:
448,192,142508,128,0,142658:0:0:0:0:
320,192,142658,1,2,0:0:0:0:
448,192,142808,1,8,0:0:0:0:
64,192,142808,128,0,142958:0:0:0:0:
192,192,142958,128,0,143108:0:0:0:0:
320,192,143108,128,2,143258:0:0:0:0:
192,192,143408,1,8,0:0:0:0:
448,192,143408,128,0,143558:0:0:0:0:
64,192,143558,128,0,143708:0:0:0:0:
192,192,143708,128,0,143858:0:0:0:0:
448,192,143858,1,2,0:0:0:0:
64,192,144008,1,8,0:0:0:0:
320,192,144008,128,0,144158:0:0:0:0:
448,192,144158,128,0,144308:0:0:0:0:
192,192,144308,1,8,0:0:0:0:
320,192,144308,1,0,0:0:0:0:
448,192,144458,1,0,0:0:0:0:
64,192,144458,1,2,0:0:0:0:
192,192,144608,1,0,0:0:0:0:
320,192,144608,1,8,0:0:0:0:
64,192,144758,1,0,0:0:0:0:
448,192,144758,1,2,0:0:0:0:
192,192,144908,1,8,0:0:0:0:
320,192,144908,1,0,0:0:0:0:
448,192,145058,1,0,0:0:0:0:
64,192,145058,1,2,0:0:0:0:
192,192,145208,1,0,0:0:0:0:
320,192,145208,1,8,0:0:0:0:
64,192,145358,1,0,0:0:0:0:
448,192,145358,1,2,0:0:0:0:
192,192,145508,5,4,2:0:0:0:
320,192,145508,1,2,0:0:0:0:
448,192,145508,128,0,145733:0:0:0:0:
64,192,145658,1,0,0:0:0:0:
64,192,145808,1,0,0:0:0:0:
320,192,145808,1,8,0:0:0:0:
192,192,145958,1,0,0:0:0:0:
320,192,146033,1,0,0:0:0:0:
64,192,146108,1,0,0:0:0:0:
320,192,146183,1,0,0:0:0:0:
192,192,146258,1,2,0:0:0:0:
64,192,146408,1,0,0:0:0:0:
320,192,146408,1,8,0:0:0:0:
448,192,146558,1,0,0:0:0:0:
320,192,146633,1,0,0:0:0:0:
192,192,146708,1,2,0:0:0:0:
64,192,146858,1,0,0:0:0:0:
448,192,147008,1,0,0:0:0:0:
192,192,147008,1,8,0:0:0:0:
320,192,147158,1,0,0:0:0:0:
192,192,147233,1,0,0:0:0:0:
448,192,147308,1,0,0:0:0:0:
64,192,147383,1,0,0:0:0:0:
320,192,147458,1,2,0:0:0:0:
64,192,147608,1,0,0:0:0:0:
448,192,147608,1,8,0:0:0:0:
192,192,147758,1,0,0:0:0:0:
320,192,147833,1,0,0:0:0:0:
64,192,147908,1,2,0:0:0:0:
448,192,147908,128,0,148133:0:0:0:0:
192,192,148058,1,0,0:0:0:0:
64,192,148208,1,0,0:0:0:0:
320,192,148208,1,8,0:0:0:0:
192,192,148358,1,0,0:0:0:0:
448,192,148433,1,0,0:0:0:0:
64,192,148508,1,0,0:0:0:0:
448,192,148583,1,0,0:0:0:0:
192,192,148658,1,2,0:0:0:0:
448,192,148808,1,0,0:0:0:0:
64,192,148808,1,8,0:0:0:0:
320,192,148958,1,0,0:0:0:0:
192,192,149033,1,0,0:0:0:0:
320,192,149108,1,2,0:0:0:0:
64,192,149258,1,0,0:0:0:0:
320,192,149408,1,8,0:0:0:0:
192,192,149408,1,0,0:0:0:0:
448,192,149558,1,0,0:0:0:0:
64,192,149633,1,0,3:0:0:0:
320,192,149708,1,0,0:0:0:0:
64,192,149783,1,0,3:0:0:0:
448,192,149858,1,2,0:0:0:0:
192,192,150008,1,8,0:0:0:0:
320,192,150008,1,0,0:0:0:0:
64,192,150158,1,0,0:0:0:0:
192,192,150233,1,0,0:0:0:0:
320,192,150308,1,2,0:0:0:0:
448,192,150308,128,0,150533:0:0:0:0:
192,192,150458,1,0,0:0:0:0:
320,192,150608,1,0,0:0:0:0:
64,192,150608,1,8,0:0:0:0:
192,192,150758,1,0,0:0:0:0:
448,192,150833,1,0,0:0:0:0:
64,192,150908,1,0,0:0:0:0:
320,192,150983,1,0,0:0:0:0:
192,192,151058,1,2,0:0:0:0:
64,192,151208,1,0,0:0:0:0:
320,192,151208,1,8,0:0:0:0:
448,192,151358,1,0,0:0:0:0:
320,192,151433,1,0,0:0:0:0:
192,192,151508,1,2,0:0:0:0:
320,192,151658,1,0,0:0:0:0:
448,192,151808,1,8,0:0:0:0:
192,192,151808,1,0,0:0:0:0:
64,192,151958,1,0,0:0:0:0:
320,192,152033,1,0,0:0:0:0:
192,192,152108,1,0,0:0:0:0:
320,192,152183,1,0,0:0:0:0:
64,192,152258,1,2,0:0:0:0:
192,192,152408,1,8,0:0:0:0:
448,192,152408,1,0,0:0:0:0:
320,192,152558,1,0,0:0:0:0:
192,192,152633,1,0,0:0:0:0:
448,192,152708,1,2,0:0:0:0:
64,192,152708,128,0,152933:0:0:0:0:
320,192,152858,5,0,0:0:0:0:
448,192,153008,1,0,0:0:0:0:
192,192,153008,1,8,0:0:0:0:
320,192,153158,1,0,0:0:0:0:
64,192,153233,1,0,0:0:0:0:
320,192,153308,1,0,0:0:0:0:
192,192,153383,1,0,0:0:0:0:
448,192,153458,1,2,0:0:0:0:
320,192,153608,1,8,0:0:0:0:
64,192,153608,1,0,0:0:0:0:
192,192,153758,1,0,0:0:0:0:
320,192,153833,1,0,0:0:0:0:
64,192,153908,5,8,0:0:0:0:
448,192,153908,128,0,154133:0:0:0:0:
320,192,154058,1,2,0:0:0:0:
192,192,154058,1,0,0:0:0:0:
64,192,154208,1,8,0:0:0:0:
448,192,154208,1,0,0:0:0:0:
192,192,154358,1,0,0:0:0:0:
320,192,154358,1,2,0:0:0:0:
64,192,154508,1,0,0:0:0:0:
448,192,154508,1,8,0:0:0:0:
192,192,154658,1,2,0:0:0:0:
320,192,154658,1,0,0:0:0:0:
64,192,154808,1,0,0:0:0:0:
448,192,154808,1,8,0:0:0:0:
320,192,154958,1,0,0:0:0:0:
192,192,154958,1,2,0:0:0:0:
64,192,155108,128,4,155258:0:0:0:0:
448,192,155108,1,2,0:0:0:0:
192,192,155258,128,0,155408:0:0:0:0:
320,192,155408,128,0,155558:0:0:0:0:
64,192,155558,128,0,155708:0:0:0:0:
192,192,155708,128,0,155858:0:0:0:0:
320,192,155858,128,0,156008:0:0:0:0:
64,192,156008,128,0,156158:0:0:0:0:
320,192,156158,128,0,156308:0:0:0:0:
64,192,156308,128,0,156458:0:0:0:0:
192,192,156458,128,0,156608:0:0:0:0:
448,192,156608,128,0,156758:0:0:0:0:
64,192,156758,128,0,156908:0:0:0:0:
320,192,156908,128,0,157058:0:0:0:0:
448,192,157058,128,0,157208:0:0:0:0:
192,192,157208,128,0,157358:0:0:0:0:
448,192,157358,128,0,157508:0:0:0:0:
192,192,157508,128,0,157658:0:0:0:0:
320,192,157658,128,0,157808:0:0:0:0:
448,192,157808,128,0,157958:0:0:0:0:
192,192,157958,128,0,158108:0:0:0:0:
320,192,158108,128,0,158258:0:0:0:0:
448,192,158258,128,0,158408:0:0:0:0:
192,192,158408,128,0,158558:0:0:0:0:
448,192,158558,128,0,158708:0:0:0:0:
64,192,158708,128,0,158858:0:0:0:0:
320,192,158858,128,0,159008:0:0:0:0:
448,192,159008,128,0,159158:0:0:0:0:
64,192,159158,128,0,159308:0:0:0:0:
192,192,159308,128,0,159458:0:0:0:0:
448,192,159458,128,0,159608:0:0:0:0:
64,192,159608,128,0,159758:0:0:0:0:
448,192,159758,128,0,159908:0:0:0:0:
320,192,159908,128,0,160058:0:0:0:0:
192,192,160058,128,0,160208:0:0:0:0:
64,192,160208,128,0,160358:0:0:0:0:
320,192,160358,128,0,160508:0:0:0:0:
192,192,160508,128,0,160658:0:0:0:0:
64,192,160658,128,0,160808:0:0:0:0:
320,192,160808,128,0,160958:0:0:0:0:
64,192,160958,128,0,161108:0:0:0:0:
448,192,161108,128,0,161258:0:0:0:0:
192,192,161258,128,0,161408:0:0:0:0:
64,192,161408,128,0,161558:0:0:0:0:
448,192,161558,128,0,161708:0:0:0:0:
320,192,161708,128,0,161858:0:0:0:0:
64,192,161858,128,0,162008:0:0:0:0:
448,192,162008,128,0,162158:0:0:0:0:
64,192,162158,128,0,162308:0:0:0:0:
448,192,162308,128,0,162458:0:0:0:0:
320,192,162458,128,0,162608:0:0:0:0:
192,192,162608,128,0,162758:0:0:0:0:
448,192,162758,128,0,162908:0:0:0:0:
320,192,162908,128,0,163058:0:0:0:0:
192,192,163058,128,0,163208:0:0:0:0:
448,192,163208,128,0,163358:0:0:0:0:
192,192,163358,128,0,163508:0:0:0:0:
448,192,163508,128,0,163658:0:0:0:0:
320,192,163658,128,0,163808:0:0:0:0:
64,192,163808,128,0,163958:0:0:0:0:
448,192,163958,128,0,164108:0:0:0:0:
192,192,164108,128,0,164258:0:0:0:0:
64,192,164258,128,0,164408:0:0:0:0:
448,192,164408,128,0,164558:0:0:0:0:
192,192,164558,128,0,164708:0:0:0:0:
320,192,164708,1,4,2:0:0:0:
64,192,164708,128,2,165008:0:0:0:0:
192,192,165008,128,0,165158:0:0:0:0:
320,192,165158,128,0,165458:0:0:0:0:
448,192,165458,128,0,165608:0:0:0:0:
320,192,165608,128,0,165758:0:0:0:0:
192,192,165758,128,0,166058:0:0:0:0:
448,192,166058,128,0,166208:0:0:0:0:
64,192,166208,128,0,166358:0:0:0:0:
192,192,166358,128,0,166508:0:0:0:0:
320,192,166508,128,0,166658:0:0:0:0:
448,192,166658,128,0,166808:0:0:0:0:
320,192,166808,128,0,166958:0:0:0:0:
192,192,166958,128,0,168008:0:0:0:0:
320,192,168008,128,0,168158:0:0:0:0:
64,192,168158,128,0,169208:0:0:0:0:
448,192,169208,128,0,169508:0:0:0:0:
64,192,169508,128,0,169808:0:0:0:0:
192,192,169808,128,0,169958:0:0:0:0:
320,192,169958,128,0,170258:0:0:0:0:
448,192,170258,128,0,170408:0:0:0:0:
320,192,170408,128,0,170558:0:0:0:0:
192,192,170558,128,0,170858:0:0:0:0:
448,192,170858,128,0,171008:0:0:0:0:
64,192,171008,128,0,171158:0:0:0:0:
192,192,171158,128,0,171308:0:0:0:0:
320,192,171308,128,0,171458:0:0:0:0:
448,192,171458,128,0,171608:0:0:0:0:
320,192,171608,128,0,171758:0:0:0:0:
192,192,171758,128,0,172658:0:0:0:0:
320,192,172658,128,0,172808:0:0:0:0:
192,192,172808,128,0,172958:0:0:0:0:
64,192,172958,128,0,174008:0:0:0:0:
320,192,174008,128,0,174308:0:0:0:0:
448,192,174308,128,2,174608:0:0:0:0:
64,192,174308,1,4,0:0:0:0:
192,192,174458,1,0,0:0:0:0:
320,192,174608,128,0,174758:0:0:0:0:
64,192,174608,1,0,0:0:0:0:
192,192,174758,128,0,175058:0:0:0:0:
448,192,174758,1,0,0:0:0:0:
64,192,175058,128,0,175208:0:0:0:0:
320,192,175058,1,0,0:0:0:0:
192,192,175208,128,0,175358:0:0:0:0:
448,192,175208,1,0,0:0:0:0:
320,192,175358,128,0,175658:0:0:0:0:
64,192,175358,1,0,0:0:0:0:
64,192,175658,128,0,175808:0:0:0:0:
448,192,175658,1,0,0:0:0:0:
448,192,175808,128,0,175958:0:0:0:0:
192,192,175808,1,0,0:0:0:0:
320,192,175958,128,0,176108:0:0:0:0:
64,192,175958,1,0,0:0:0:0:
192,192,176108,128,0,176258:0:0:0:0:
64,192,176258,128,0,176408:0:0:0:0:
320,192,176258,1,0,0:0:0:0:
192,192,176408,128,0,176558:0:0:0:0:
448,192,176408,1,0,0:0:0:0:
320,192,176558,128,0,177608:0:0:0:0:
64,192,176558,1,0,0:0:0:0:
448,192,176708,1,0,0:0:0:0:
64,192,176858,1,0,0:0:0:0:
192,192,177008,1,0,0:0:0:0:
448,192,177158,1,0,0:0:0:0:
192,192,177458,1,0,0:0:0:0:
64,192,177608,128,0,177758:0:0:0:0:
448,192,177608,1,0,0:0:0:0:
192,192,177758,128,0,178808:0:0:0:0:
320,192,177758,1,0,0:0:0:0:
448,192,177908,1,0,0:0:0:0:
64,192,178058,1,0,0:0:0:0:
320,192,178208,1,0,0:0:0:0:
448,192,178358,1,0,0:0:0:0:
448,192,178658,1,0,0:0:0:0:
320,192,178808,128,0,179108:0:0:0:0:
64,192,178808,1,0,0:0:0:0:
192,192,178958,1,0,0:0:0:0:
448,192,179108,128,0,179408:0:0:0:0:
64,192,179108,1,0,0:0:0:0:
192,192,179258,1,0,0:0:0:0:
320,192,179408,128,0,179558:0:0:0:0:
64,192,179408,1,0,0:0:0:0:
192,192,179558,128,0,179858:0:0:0:0:
448,192,179558,1,0,0:0:0:0:
64,192,179858,128,0,180008:0:0:0:0:
320,192,179858,1,0,0:0:0:0:
192,192,180008,128,0,180158:0:0:0:0:
448,192,180008,1,0,0:0:0:0:
320,192,180158,128,0,180458:0:0:0:0:
64,192,180158,1,0,0:0:0:0:
192,192,180308,1,0,0:0:0:0:
64,192,180458,128,0,180608:0:0:0:0:
448,192,180458,1,0,0:0:0:0:
448,192,180608,128,0,180758:0:0:0:0:
192,192,180608,1,0,0:0:0:0:
320,192,180758,128,0,180908:0:0:0:0:
64,192,180758,1,0,0:0:0:0:
192,192,180908,128,0,181058:0:0:0:0:
64,192,181058,128,0,181208:0:0:0:0:
320,192,181058,1,0,0:0:0:0:
192,192,181208,128,0,181358:0:0:0:0:
448,192,181208,1,0,0:0:0:0:
320,192,181358,128,0,182258:0:0:0:0:
64,192,181358,1,0,0:0:0:0:
448,192,181508,1,0,0:0:0:0:
192,192,181658,1,0,0:0:0:0:
64,192,181808,1,0,0:0:0:0:
192,192,181958,1,0,0:0:0:0:
448,192,182258,128,0,182408:0:0:0:0:
192,192,182258,1,0,0:0:0:0:
64,192,182408,128,0,182558:0:0:0:0:
320,192,182408,1,0,0:0:0:0:
192,192,182558,128,0,183608:0:0:0:0:
448,192,182558,1,0,0:0:0:0:
320,192,182708,1,0,0:0:0:0:
448,192,182858,1,0,0:0:0:0:
320,192,183008,1,0,0:0:0:0:
64,192,183158,1,0,0:0:0:0:
64,192,183458,1,0,0:0:0:0:
320,192,183608,128,0,183908:0:0:0:0:
448,192,183608,1,0,0:0:0:0:
192,192,183758,1,0,0:0:0:0:
448,192,183908,1,2,0:0:0:0:
64,192,183908,1,4,2:0:0:0:
320,192,184058,1,0,0:0:0:0:
192,192,184208,1,0,0:0:0:0:
64,192,184208,1,0,3:0:0:0:
448,192,184358,1,0,0:0:0:0:
192,192,184508,1,0,0:0:0:0:
320,192,184508,1,0,3:0:0:0:
64,192,184658,1,0,0:0:0:0:
192,192,184808,1,0,0:0:0:0:
448,192,184808,1,0,3:0:0:0:
320,192,184958,1,0,0:0:0:0:
448,192,185108,1,0,3:0:0:0:
64,192,185108,1,0,0:0:0:0:
192,192,185258,1,0,0:0:0:0:
320,192,185408,1,0,3:0:0:0:
64,192,185408,1,0,0:0:0:0:
448,192,185558,1,0,0:0:0:0:
320,192,185708,1,0,0:0:0:0:
192,192,185708,1,0,3:0:0:0:
64,192,185858,1,0,0:0:0:0:
448,192,186008,1,0,3:0:0:0:
320,192,186008,1,0,0:0:0:0:
192,192,186158,1,0,0:0:0:0:
64,192,186308,1,0,0:0:0:0:
320,192,186308,1,0,3:0:0:0:
448,192,186458,1,0,0:0:0:0:
320,192,186608,1,0,3:0:0:0:
192,192,186608,1,0,0:0:0:0:
64,192,186758,1,0,0:0:0:0:
192,192,186908,1,0,0:0:0:0:
448,192,186908,1,0,3:0:0:0:
320,192,187058,1,0,0:0:0:0:
64,192,187208,1,0,3:0:0:0:
448,192,187208,1,0,0:0:0:0:
192,192,187358,1,0,0:0:0:0:
320,192,187508,1,0,0:0:0:0:
448,192,187508,1,0,3:0:0:0:
64,192,187658,1,0,0:0:0:0:
448,192,187808,1,0,3:0:0:0:
192,192,187808,1,0,0:0:0:0:
320,192,187958,1,0,0:0:0:0:
192,192,188108,1,0,0:0:0:0:
64,192,188108,1,0,3:0:0:0:
448,192,188258,1,0,0:0:0:0:
320,192,188408,1,0,3:0:0:0:
64,192,188408,1,0,0:0:0:0:
192,192,188558,1,0,0:0:0:0:
448,192,188708,1,0,3:0:0:0:
64,192,188708,1,0,3:0:0:0:
64,192,188858,1,0,3:0:0:0:
448,192,188858,1,0,3:0:0:0:
320,192,189008,1,0,3:0:0:0:
192,192,189008,1,0,3:0:0:0:
320,192,189158,1,0,3:0:0:0:
192,192,189158,1,0,3:0:0:0:
64,192,189308,1,0,3:0:0:0:
448,192,189308,1,0,3:0:0:0:
448,192,189458,1,0,3:0:0:0:
64,192,189458,1,0,3:0:0:0:
192,192,189608,1,0,3:0:0:0:
320,192,189608,1,0,3:0:0:0:
192,192,189758,1,0,3:0:0:0:
320,192,189758,1,0,3:0:0:0:
64,192,189908,1,0,3:0:0:0:
448,192,189908,1,0,3:0:0:0:
192,192,190058,1,0,3:0:0:0:
320,192,190058,1,0,3:0:0:0:
64,192,190208,1,0,3:0:0:0:
448,192,190208,1,0,3:0:0:0:
192,192,190358,1,0,3:0:0:0:
320,192,190358,1,0,3:0:0:0:
64,192,190508,1,0,3:0:0:0:
448,192,190508,1,0,3:0:0:0:
192,192,190658,1,0,3:0:0:0:
320,192,190658,1,0,3:0:0:0:
64,192,190808,1,0,3:0:0:0:
448,192,190808,1,0,3:0:0:0:
192,192,190958,1,0,3:0:0:0:
320,192,190958,1,0,3:0:0:0:
64,192,191108,1,0,3:0:0:0:
192,192,191183,1,0,3:0:0:0:
320,192,191258,1,0,3:0:0:0:
448,192,191333,1,0,3:0:0:0:
64,192,191408,1,0,3:0:0:0:
192,192,191483,1,0,3:0:0:0:
320,192,191558,1,0,3:0:0:0:
448,192,191633,1,0,3:0:0:0:
192,192,191708,1,0,3:0:0:0:
64,192,191783,1,0,3:0:0:0:
448,192,191858,1,0,3:0:0:0:
320,192,191933,1,0,3:0:0:0:
192,192,192008,1,0,3:0:0:0:
64,192,192083,1,0,3:0:0:0:
448,192,192158,1,0,3:0:0:0:
320,192,192233,1,0,3:0:0:0:
64,192,192308,1,0,3:0:0:0:
192,192,192383,1,0,3:0:0:0:
448,192,192458,1,0,3:0:0:0:
320,192,192533,1,0,3:0:0:0:
64,192,192608,1,0,3:0:0:0:
192,192,192683,1,0,3:0:0:0:
448,192,192758,1,0,3:0:0:0:
320,192,192833,1,0,3:0:0:0:
64,192,192908,1,0,3:0:0:0:
192,192,192983,1,0,3:0:0:0:
448,192,193058,1,0,3:0:0:0:
320,192,193133,1,0,3:0:0:0:
64,192,193208,1,0,3:0:0:0:
192,192,193283,1,0,3:0:0:0:
448,192,193358,1,0,3:0:0:0:
320,192,193433,1,0,3:0:0:0:
192,192,193508,1,4,2:0:0:0:
64,192,193508,128,2,193733:0:0:0:0:
320,192,193658,1,0,0:0:0:0:
192,192,193733,1,0,0:0:0:0:
448,192,193808,1,0,0:0:0:0:
64,192,193808,1,8,0:0:0:0:
320,192,193883,1,0,0:0:0:0:
192,192,193958,1,0,0:0:0:0:
64,192,194108,1,0,0:0:0:0:
192,192,194183,1,0,0:0:0:0:
448,192,194258,1,2,0:0:0:0:
320,192,194408,1,0,0:0:0:0:
64,192,194408,1,8,0:0:0:0:
192,192,194558,1,0,0:0:0:0:
320,192,194633,1,0,0:0:0:0:
448,192,194708,1,2,0:0:0:0:
64,192,194858,1,0,0:0:0:0:
192,192,194933,1,0,0:0:0:0:
320,192,195008,1,8,0:0:0:0:
448,192,195008,1,0,0:0:0:0:
64,192,195083,1,0,0:0:0:0:
192,192,195158,1,0,0:0:0:0:
448,192,195308,1,0,0:0:0:0:
320,192,195383,1,0,0:0:0:0:
192,192,195458,1,2,0:0:0:0:
320,192,195608,1,8,0:0:0:0:
64,192,195608,1,0,0:0:0:0:
448,192,195758,1,0,0:0:0:0:
320,192,195833,1,0,0:0:0:0:
64,192,195908,128,0,196133:0:0:0:0:
192,192,195908,1,2,0:0:0:0:
448,192,196058,1,0,0:0:0:0:
320,192,196133,1,0,0:0:0:0:
192,192,196208,1,0,0:0:0:0:
64,192,196208,1,8,0:0:0:0:
320,192,196283,1,0,0:0:0:0:
448,192,196358,1,0,0:0:0:0:
192,192,196508,1,0,0:0:0:0:
320,192,196583,1,0,0:0:0:0:
64,192,196658,1,2,0:0:0:0:
448,192,196808,1,8,0:0:0:0:
192,192,196808,1,0,0:0:0:0:
320,192,196958,1,0,0:0:0:0:
192,192,197033,1,0,0:0:0:0:
448,192,197108,1,2,0:0:0:0:
192,192,197258,1,0,0:0:0:0:
320,192,197333,1,0,0:0:0:0:
64,192,197408,1,8,0:0:0:0:
448,192,197408,1,0,0:0:0:0:
192,192,197483,1,0,0:0:0:0:
320,192,197558,1,0,0:0:0:0:
64,192,197633,1,0,3:0:0:0:
448,192,197708,1,0,0:0:0:0:
64,192,197783,1,0,3:0:0:0:
320,192,197858,1,2,0:0:0:0:
448,192,198008,1,8,0:0:0:0:
192,192,198008,1,0,0:0:0:0:
320,192,198158,1,0,0:0:0:0:
192,192,198233,1,0,0:0:0:0:
448,192,198308,128,2,198533:0:0:0:0:
64,192,198308,1,0,0:0:0:0:
192,192,198458,1,0,0:0:0:0:
64,192,198533,1,0,0:0:0:0:
448,192,198608,1,8,0:0:0:0:
320,192,198608,1,0,0:0:0:0:
192,192,198683,1,0,0:0:0:0:
64,192,198758,1,0,0:0:0:0:
448,192,198908,1,0,0:0:0:0:
192,192,198983,1,0,0:0:0:0:
320,192,199058,1,2,0:0:0:0:
448,192,199208,1,0,0:0:0:0:
192,192,199208,1,8,0:0:0:0:
64,192,199358,1,0,0:0:0:0:
320,192,199433,1,0,0:0:0:0:
192,192,199508,1,2,0:0:0:0:
64,192,199658,1,0,0:0:0:0:
192,192,199733,1,0,0:0:0:0:
320,192,199808,1,8,0:0:0:0:
448,192,199808,1,0,0:0:0:0:
192,192,199883,1,0,0:0:0:0:
320,192,199958,1,0,0:0:0:0:
64,192,200108,1,0,0:0:0:0:
448,192,200183,1,0,0:0:0:0:
320,192,200258,1,2,0:0:0:0:
192,192,200408,1,8,0:0:0:0:
64,192,200408,1,0,0:0:0:0:
448,192,200558,1,0,0:0:0:0:
320,192,200633,1,0,0:0:0:0:
64,192,200708,128,0,200933:0:0:0:0:
192,192,200708,1,2,0:0:0:0:
448,192,200858,5,0,0:0:0:0:
320,192,200933,1,0,0:0:0:0:
192,192,201008,1,8,0:0:0:0:
64,192,201008,1,0,0:0:0:0:
320,192,201083,1,0,0:0:0:0:
192,192,201158,1,0,0:0:0:0:
448,192,201308,1,0,0:0:0:0:
64,192,201383,1,0,0:0:0:0:
320,192,201458,1,2,0:0:0:0:
192,192,201608,1,8,0:0:0:0:
64,192,201608,1,0,0:0:0:0:
448,192,201758,1,0,0:0:0:0:
320,192,201833,1,0,0:0:0:0:
192,192,201908,128,0,201983:0:0:0:0:
64,192,201908,1,2,0:0:0:0:
448,192,202058,1,0,3:0:0:0:
320,192,202133,1,0,3:0:0:0:
192,192,202208,1,0,3:0:0:0:
64,192,202283,1,0,3:0:0:0:
320,192,202358,128,0,202508:0:0:0:0:
64,192,202508,1,0,3:0:0:0:
192,192,202583,1,0,3:0:0:0:
320,192,202658,1,0,3:0:0:0:
64,192,202658,128,0,202808:0:0:0:0:
192,192,202808,128,0,202958:0:0:0:0:
320,192,202958,128,0,203108:0:0:0:0:
64,192,203108,128,2,203333:0:0:0:0:
448,192,203108,1,4,2:0:0:0:
192,192,203258,1,0,0:0:0:0:
320,192,203333,1,0,0:0:0:0:
192,192,203408,1,8,0:0:0:0:
64,192,203408,1,0,0:0:0:0:
320,192,203483,1,0,0:0:0:0:
448,192,203558,1,0,0:0:0:0:
192,192,203708,1,0,0:0:0:0:
64,192,203783,1,0,0:0:0:0:
320,192,203858,1,2,0:0:0:0:
448,192,204008,1,8,0:0:0:0:
64,192,204008,1,0,0:0:0:0:
192,192,204158,1,0,0:0:0:0:
320,192,204233,1,0,0:0:0:0:
192,192,204308,1,2,0:0:0:0:
448,192,204458,1,0,0:0:0:0:
320,192,204533,1,0,0:0:0:0:
192,192,204608,1,0,0:0:0:0:
64,192,204608,1,8,0:0:0:0:
320,192,204683,1,0,0:0:0:0:
192,192,204758,1,0,0:0:0:0:
64,192,204908,1,0,0:0:0:0:
192,192,204983,1,0,0:0:0:0:
448,192,205058,1,2,0:0:0:0:
320,192,205208,1,8,0:0:0:0:
64,192,205208,1,0,0:0:0:0:
192,192,205358,1,0,0:0:0:0:
64,192,205433,1,0,0:0:0:0:
448,192,205508,128,0,205733:0:0:0:0:
320,192,205508,1,2,0:0:0:0:
192,192,205658,1,0,0:0:0:0:
320,192,205733,1,0,0:0:0:0:
448,192,205808,1,0,0:0:0:0:
64,192,205808,1,8,0:0:0:0:
192,192,205883,1,0,0:0:0:0:
320,192,205958,1,0,0:0:0:0:
448,192,206108,1,0,0:0:0:0:
320,192,206183,1,0,0:0:0:0:
192,192,206258,1,2,0:0:0:0:
448,192,206408,1,8,0:0:0:0:
64,192,206408,1,0,0:0:0:0:
320,192,206558,1,0,0:0:0:0:
192,192,206633,1,0,0:0:0:0:
448,192,206708,1,2,0:0:0:0:
192,192,206858,1,0,0:0:0:0:
320,192,206933,1,0,0:0:0:0:
64,192,207008,1,0,0:0:0:0:
448,192,207008,1,8,0:0:0:0:
192,192,207083,1,0,0:0:0:0:
320,192,207158,1,0,0:0:0:0:
64,192,207233,1,0,3:0:0:0:
448,192,207308,1,0,0:0:0:0:
64,192,207383,1,0,3:0:0:0:
320,192,207458,1,2,0:0:0:0:
64,192,207608,1,0,0:0:0:0:
448,192,207608,1,8,0:0:0:0:
320,192,207758,1,0,0:0:0:0:
448,192,207833,1,0,0:0:0:0:
64,192,207908,1,2,0:0:0:0:
192,192,207908,128,0,208133:0:0:0:0:
448,192,208058,1,0,0:0:0:0:
320,192,208133,1,0,0:0:0:0:
64,192,208208,1,8,0:0:0:0:
192,192,208208,1,0,0:0:0:0:
320,192,208283,1,0,0:0:0:0:
192,192,208358,1,0,0:0:0:0:
64,192,208508,1,0,0:0:0:0:
320,192,208583,1,0,0:0:0:0:
192,192,208658,1,2,0:0:0:0:
64,192,208808,1,0,0:0:0:0:
448,192,208808,1,8,0:0:0:0:
192,192,208958,1,0,0:0:0:0:
320,192,209033,1,0,0:0:0:0:
192,192,209108,1,2,0:0:0:0:
64,192,209258,1,0,0:0:0:0:
192,192,209333,1,0,0:0:0:0:
448,192,209408,1,0,0:0:0:0:
320,192,209408,1,8,0:0:0:0:
192,192,209483,1,0,0:0:0:0:
320,192,209558,1,0,0:0:0:0:
448,192,209708,1,0,0:0:0:0:
64,192,209783,1,0,0:0:0:0:
320,192,209858,1,2,0:0:0:0:
64,192,210008,1,0,0:0:0:0:
448,192,210008,1,8,0:0:0:0:
192,192,210158,1,0,0:0:0:0:
64,192,210233,1,0,0:0:0:0:
320,192,210308,1,2,0:0:0:0:
448,192,210308,128,0,210533:0:0:0:0:
64,192,210458,1,0,0:0:0:0:
192,192,210533,1,0,0:0:0:0:
320,192,210608,1,0,0:0:0:0:
448,192,210608,1,8,0:0:0:0:
192,192,210683,1,0,0:0:0:0:
320,192,210758,1,0,0:0:0:0:
448,192,210908,1,0,0:0:0:0:
64,192,210983,1,0,0:0:0:0:
320,192,211058,1,2,0:0:0:0:
192,192,211208,1,0,0:0:0:0:
448,192,211208,1,8,0:0:0:0:
64,192,211358,1,0,0:0:0:0:
192,192,211433,1,0,0:0:0:0:
320,192,211508,128,0,211583:0:0:0:0:
448,192,211508,1,2,0:0:0:0:
64,192,211658,1,0,0:0:0:0:
192,192,211733,1,0,0:0:0:0:
448,192,211808,1,0,0:0:0:0:
320,192,211808,1,8,0:0:0:0:
64,192,211883,1,0,0:0:0:0:
192,192,211958,128,0,212108:0:0:0:0:
448,192,212033,1,0,3:0:0:0:
320,192,212108,1,0,0:0:0:0:
64,192,212183,1,0,3:0:0:0:
192,192,212258,1,2,0:0:0:0:
448,192,212258,128,0,212408:0:0:0:0:
192,192,212408,128,0,212558:0:0:0:0:
64,192,212408,1,8,0:0:0:0:
320,192,212558,128,0,212708:0:0:0:0:
192,192,212708,1,2,0:0:0:0:
64,192,212708,128,4,212933:0:0:0:0:
448,192,212858,1,0,0:0:0:0:
448,192,213008,1,8,0:0:0:0:
192,192,213008,1,0,0:0:0:0:
320,192,213158,1,0,0:0:0:0:
192,192,213233,1,0,0:0:0:0:
320,192,213308,1,0,0:0:0:0:
192,192,213383,1,0,0:0:0:0:
64,192,213458,1,0,0:0:0:0:
320,192,213458,1,2,0:0:0:0:
448,192,213608,1,0,0:0:0:0:
192,192,213608,1,8,0:0:0:0:
64,192,213758,128,0,213833:0:0:0:0:
448,192,213908,128,0,214133:0:0:0:0:
192,192,213908,1,2,0:0:0:0:
64,192,214058,1,0,0:0:0:0:
64,192,214208,1,0,0:0:0:0:
320,192,214208,1,8,0:0:0:0:
192,192,214358,1,0,0:0:0:0:
320,192,214433,1,0,0:0:0:0:
192,192,214508,1,0,0:0:0:0:
320,192,214583,1,0,0:0:0:0:
448,192,214658,1,0,0:0:0:0:
192,192,214658,1,2,0:0:0:0:
64,192,214808,1,0,0:0:0:0:
320,192,214808,1,8,0:0:0:0:
448,192,214958,128,0,215033:0:0:0:0:
64,192,215108,128,0,215333:0:0:0:0:
320,192,215108,1,2,0:0:0:0:
448,192,215258,1,0,0:0:0:0:
448,192,215408,1,0,0:0:0:0:
192,192,215408,1,8,0:0:0:0:
320,192,215558,1,0,0:0:0:0:
192,192,215633,1,0,0:0:0:0:
320,192,215708,1,0,0:0:0:0:
192,192,215783,1,0,0:0:0:0:
64,192,215858,1,0,0:0:0:0:
320,192,215858,1,2,0:0:0:0:
448,192,216008,1,8,0:0:0:0:
192,192,216008,1,0,0:0:0:0:
64,192,216158,128,0,216233:0:0:0:0:
448,192,216308,128,0,216533:0:0:0:0:
192,192,216308,1,2,0:0:0:0:
64,192,216458,1,0,0:0:0:0:
192,192,216608,1,0,0:0:0:0:
320,192,216608,1,8,0:0:0:0:
64,192,216758,1,0,0:0:0:0:
192,192,216833,128,0,216908:0:0:0:0:
320,192,216908,128,0,217208:0:0:0:0:
192,192,217058,1,2,0:0:0:0:
64,192,217058,1,0,0:0:0:0:
192,192,217208,128,0,217508:0:0:0:0:
448,192,217208,128,8,217508:0:0:0:0:
320,192,217508,1,2,0:0:0:0:
64,192,217508,128,0,217733:0:0:0:0:
448,192,217658,1,0,0:0:0:0:
192,192,217808,1,8,0:0:0:0:
448,192,217808,1,0,0:0:0:0:
320,192,217958,1,0,0:0:0:0:
64,192,218033,1,0,0:0:0:0:
320,192,218108,1,0,0:0:0:0:
64,192,218183,1,0,0:0:0:0:
192,192,218258,1,2,0:0:0:0:
320,192,218258,1,0,0:0:0:0:
448,192,218408,1,8,0:0:0:0:
64,192,218408,1,0,0:0:0:0:
192,192,218558,128,0,218633:0:0:0:0:
320,192,218708,1,2,0:0:0:0:
448,192,218708,128,0,218933:0:0:0:0:
64,192,218858,1,0,0:0:0:0:
64,192,219008,1,0,0:0:0:0:
320,192,219008,1,8,0:0:0:0:
192,192,219158,1,0,0:0:0:0:
448,192,219233,1,0,0:0:0:0:
192,192,219308,1,0,0:0:0:0:
448,192,219383,1,0,0:0:0:0:
320,192,219458,1,2,0:0:0:0:
192,192,219458,1,0,0:0:0:0:
448,192,219608,1,0,0:0:0:0:
64,192,219608,1,8,0:0:0:0:
320,192,219758,128,0,219833:0:0:0:0:
192,192,219908,1,2,0:0:0:0:
64,192,219908,128,0,220133:0:0:0:0:
448,192,220058,1,0,0:0:0:0:
192,192,220208,1,8,0:0:0:0:
448,192,220208,1,0,0:0:0:0:
320,192,220358,1,0,0:0:0:0:
64,192,220433,1,0,0:0:0:0:
320,192,220508,1,0,0:0:0:0:
64,192,220583,1,0,0:0:0:0:
192,192,220658,1,2,0:0:0:0:
448,192,220658,1,0,0:0:0:0:
64,192,220808,1,0,0:0:0:0:
320,192,220808,1,8,0:0:0:0:
448,192,220958,128,0,221033:0:0:0:0:
192,192,221108,128,0,221183:0:0:0:0:
320,192,221108,1,8,0:0:0:0:
448,192,221258,1,2,0:0:0:0:
64,192,221333,1,0,0:0:0:0:
320,192,221408,1,8,0:0:0:0:
64,192,221483,1,0,0:0:0:0:
320,192,221558,128,0,221708:0:0:0:0:
448,192,221558,1,2,0:0:0:0:
64,192,221708,1,8,0:0:0:0:
192,192,221708,128,0,221858:0:0:0:0:
448,192,221858,1,2,0:0:0:0:
64,192,221858,128,0,222008:0:0:0:0:
192,192,222008,128,0,222158:0:0:0:0:
320,192,222008,1,8,0:0:0:0:
320,192,222158,128,0,222308:0:0:0:0:
448,192,222158,1,2,0:0:0:0:
192,192,222308,1,2,0:0:0:0:
64,192,222308,1,4,2:0:0:0:
448,192,222458,1,0,0:0:0:0:
320,192,222533,1,0,0:0:0:0:
64,192,222608,1,0,0:0:0:0:
192,192,222608,1,8,0:0:0:0:
320,192,222683,1,0,0:0:0:0:
192,192,222758,1,0,0:0:0:0:
448,192,222908,1,0,0:0:0:0:
64,192,222983,1,0,0:0:0:0:
320,192,223058,1,2,0:0:0:0:
192,192,223208,1,8,0:0:0:0:
448,192,223208,1,0,0:0:0:0:
64,192,223358,1,0,0:0:0:0:
320,192,223433,1,0,0:0:0:0:
448,192,223508,1,2,0:0:0:0:
192,192,223658,1,0,0:0:0:0:
320,192,223733,1,0,0:0:0:0:
64,192,223808,1,8,0:0:0:0:
192,192,223808,1,0,0:0:0:0:
320,192,223883,1,0,0:0:0:0:
448,192,223958,1,0,0:0:0:0:
192,192,224108,1,0,0:0:0:0:
64,192,224183,1,0,0:0:0:0:
320,192,224258,1,2,0:0:0:0:
448,192,224408,1,8,0:0:0:0:
192,192,224408,1,0,0:0:0:0:
64,192,224558,1,0,0:0:0:0:
192,192,224633,1,0,0:0:0:0:
448,192,224708,1,2,0:0:0:0:
320,192,224858,1,0,0:0:0:0:
192,192,224933,1,0,0:0:0:0:
448,192,225008,1,0,0:0:0:0:
320,192,225008,1,8,0:0:0:0:
192,192,225083,1,0,0:0:0:0:
64,192,225158,1,0,0:0:0:0:
448,192,225308,1,0,0:0:0:0:
320,192,225383,1,0,0:0:0:0:
192,192,225458,1,2,0:0:0:0:
64,192,225608,1,0,0:0:0:0:
448,192,225608,1,8,0:0:0:0:
320,192,225758,1,0,0:0:0:0:
192,192,225833,1,0,0:0:0:0:
448,192,225908,1,2,0:0:0:0:
64,192,226058,1,0,0:0:0:0:
192,192,226133,1,0,0:0:0:0:
448,192,226208,1,0,0:0:0:0:
320,192,226208,1,8,0:0:0:0:
64,192,226283,1,0,0:0:0:0:
192,192,226358,1,0,0:0:0:0:
320,192,226433,1,0,3:0:0:0:
192,192,226508,128,0,226658:0:0:0:0:
64,192,226508,1,0,0:0:0:0:
448,192,226583,1,0,3:0:0:0:
64,192,226658,128,0,226808:0:0:0:0:
320,192,226658,1,2,0:0:0:0:
448,192,226808,128,0,226958:0:0:0:0:
192,192,226808,1,8,0:0:0:0:
320,192,226958,128,0,227108:0:0:0:0:
64,192,226958,1,0,0:0:0:0:
192,192,227033,1,0,0:0:0:0:
448,192,227108,1,2,0:0:0:0:
192,192,227258,1,0,0:0:0:0:
64,192,227333,1,0,0:0:0:0:
320,192,227408,1,0,0:0:0:0:
448,192,227408,1,8,0:0:0:0:
192,192,227483,1,0,0:0:0:0:
64,192,227558,1,0,0:0:0:0:
320,192,227708,1,0,0:0:0:0:
448,192,227783,1,0,0:0:0:0:
192,192,227858,1,2,0:0:0:0:
320,192,228008,1,0,0:0:0:0:
64,192,228008,1,8,0:0:0:0:
448,192,228158,1,0,0:0:0:0:
320,192,228233,1,0,0:0:0:0:
64,192,228308,1,2,0:0:0:0:
192,192,228458,1,0,0:0:0:0:
320,192,228533,1,0,0:0:0:0:
448,192,228608,1,8,0:0:0:0:
64,192,228608,1,0,0:0:0:0:
192,192,228683,1,0,0:0:0:0:
320,192,228758,1,0,0:0:0:0:
64,192,228908,1,0,0:0:0:0:
320,192,228983,1,0,0:0:0:0:
192,192,229058,1,2,0:0:0:0:
64,192,229208,1,0,0:0:0:0:
448,192,229208,1,8,0:0:0:0:
192,192,229358,1,0,0:0:0:0:
320,192,229433,1,0,0:0:0:0:
64,192,229508,1,2,0:0:0:0:
448,192,229658,5,0,0:0:0:0:
320,192,229733,1,0,0:0:0:0:
64,192,229808,1,8,0:0:0:0:
192,192,229808,1,0,0:0:0:0:
320,192,229883,1,0,0:0:0:0:
192,192,229958,1,0,0:0:0:0:
448,192,230108,1,0,0:0:0:0:
64,192,230183,1,0,0:0:0:0:
320,192,230258,1,2,0:0:0:0:
192,192,230408,1,0,0:0:0:0:
448,192,230408,1,8,0:0:0:0:
64,192,230558,1,0,0:0:0:0:
192,192,230633,1,0,0:0:0:0:
320,192,230708,128,2,230933:0:0:0:0:
448,192,230708,128,0,230933:0:0:0:0:
192,192,231008,1,8,0:0:0:0:
64,192,231008,1,0,0:0:0:0:
192,192,231158,128,2,231383:0:0:0:0:
64,192,231158,128,0,231383:0:0:0:0:
320,192,231458,1,8,0:0:0:0:
192,192,231458,1,0,0:0:0:0:
320,192,231608,128,2,231833:0:0:0:0:
192,192,231608,128,0,231833:0:0:0:0:
448,192,231908,128,0,232133:0:0:0:0:
64,192,231908,128,2,232133:0:0:0:0:
448,192,232208,1,0,0:0:0:0:
192,192,232208,1,8,0:0:0:0:
448,192,232358,128,0,232583:0:0:0:0:
192,192,232358,128,2,232583:0:0:0:0:
320,192,232658,1,8,0:0:0:0:
64,192,232658,1,0,0:0:0:0:
320,192,232808,128,2,233033:0:0:0:0:
64,192,232808,128,0,233033:0:0:0:0:
64,192,233108,1,2,0:0:0:0:
192,192,233108,1,4,2:0:0:0:
320,192,233258,1,0,0:0:0:0:
192,192,233408,1,8,0:0:0:0:
64,192,233408,1,0,0:0:0:0:
448,192,233408,1,0,0:0:0:0:
64,192,233558,1,0,0:0:0:0:
192,192,233708,1,0,0:0:0:0:
320,192,233858,1,2,0:0:0:0:
448,192,233858,1,0,0:0:0:0:
448,192,234008,1,8,0:0:0:0:
320,192,234008,1,0,0:0:0:0:
64,192,234008,1,0,0:0:0:0:
192,192,234158,1,0,0:0:0:0:
448,192,234308,1,2,0:0:0:0:
64,192,234308,1,0,0:0:0:0:
320,192,234458,1,0,0:0:0:0:
448,192,234608,1,0,0:0:0:0:
192,192,234608,1,8,0:0:0:0:
64,192,234608,1,0,0:0:0:0:
320,192,234758,1,0,0:0:0:0:
192,192,234908,1,0,0:0:0:0:
320,192,235058,1,2,0:0:0:0:
64,192,235058,1,0,0:0:0:0:
320,192,235208,1,0,0:0:0:0:
64,192,235208,1,0,0:0:0:0:
448,192,235208,1,8,0:0:0:0:
192,192,235358,1,0,0:0:0:0:
320,192,235508,1,2,0:0:0:0:
448,192,235508,1,0,0:0:0:0:
192,192,235658,1,0,0:0:0:0:
320,192,235808,1,8,0:0:0:0:
448,192,235808,1,0,0:0:0:0:
64,192,235808,1,0,0:0:0:0:
448,192,235958,1,0,0:0:0:0:
320,192,236108,1,0,0:0:0:0:
192,192,236258,1,2,0:0:0:0:
64,192,236258,1,0,0:0:0:0:
64,192,236408,1,0,0:0:0:0:
192,192,236408,1,8,0:0:0:0:
448,192,236408,1,0,0:0:0:0:
320,192,236558,1,0,0:0:0:0:
448,192,236708,1,0,0:0:0:0:
64,192,236708,1,2,0:0:0:0:
192,192,236858,1,0,0:0:0:0:
320,192,237008,1,8,0:0:0:0:
64,192,237008,1,0,0:0:0:0:
192,192,237158,1,0,0:0:0:0:
448,192,237233,1,0,3:0:0:0:
192,192,237308,1,0,0:0:0:0:
448,192,237383,1,0,3:0:0:0:
64,192,237458,1,0,0:0:0:0:
192,192,237458,1,2,0:0:0:0:
448,192,237608,1,0,0:0:0:0:
192,192,237608,1,8,0:0:0:0:
64,192,237608,1,0,0:0:0:0:
320,192,237758,1,0,0:0:0:0:
192,192,237908,1,2,0:0:0:0:
64,192,237908,1,0,0:0:0:0:
320,192,238058,1,0,0:0:0:0:
448,192,238208,1,8,0:0:0:0:
192,192,238208,1,0,0:0:0:0:
64,192,238208,1,0,0:0:0:0:
320,192,238358,1,0,0:0:0:0:
448,192,238508,1,0,0:0:0:0:
320,192,238658,1,2,0:0:0:0:
192,192,238658,1,0,0:0:0:0:
448,192,238808,1,0,0:0:0:0:
192,192,238808,1,8,0:0:0:0:
64,192,238808,1,0,0:0:0:0:
320,192,238958,1,0,0:0:0:0:
448,192,239108,1,0,0:0:0:0:
192,192,239108,1,2,0:0:0:0:
64,192,239258,1,0,0:0:0:0:
192,192,239408,1,0,0:0:0:0:
448,192,239408,1,0,0:0:0:0:
320,192,239408,1,8,0:0:0:0:
64,192,239558,1,0,0:0:0:0:
192,192,239708,1,0,0:0:0:0:
448,192,239858,1,0,0:0:0:0:
320,192,239858,1,2,0:0:0:0:
448,192,240008,1,0,0:0:0:0:
320,192,240008,1,8,0:0:0:0:
64,192,240008,1,0,0:0:0:0:
192,192,240158,1,0,0:0:0:0:
64,192,240308,1,0,0:0:0:0:
320,192,240308,1,2,0:0:0:0:
192,192,240458,1,0,0:0:0:0:
320,192,240608,1,8,0:0:0:0:
64,192,240608,1,0,0:0:0:0:
448,192,240608,1,0,0:0:0:0:
448,192,240758,1,0,0:0:0:0:
320,192,240908,1,0,0:0:0:0:
192,192,241058,1,2,0:0:0:0:
64,192,241058,1,0,0:0:0:0:
192,192,241208,1,0,0:0:0:0:
64,192,241208,1,0,0:0:0:0:
448,192,241208,1,8,0:0:0:0:
320,192,241358,1,0,0:0:0:0:
448,192,241508,1,0,0:0:0:0:
192,192,241508,1,8,0:0:0:0:
320,192,241658,1,2,0:0:0:0:
64,192,241658,1,0,0:0:0:0:
192,192,241808,1,8,0:0:0:0:
448,192,241808,1,0,0:0:0:0:
320,192,241958,1,2,0:0:0:0:
64,192,241958,1,0,0:0:0:0:
448,192,242108,1,8,0:0:0:0:
192,192,242108,1,0,0:0:0:0:
320,192,242258,1,0,0:0:0:0:
64,192,242258,1,2,0:0:0:0:
192,192,242408,1,0,0:0:0:0:
448,192,242408,1,8,0:0:0:0:
320,192,242558,1,0,0:0:0:0:
64,192,242558,1,2,0:0:0:0:
192,192,242708,1,2,0:0:0:0:
448,192,242708,1,4,0:0:0:0:
320,192,242708,1,0,0:0:0:0:
192,192,242858,1,0,0:0:0:0:
320,192,243008,1,8,0:0:0:0:
448,192,243008,1,0,0:0:0:0:
64,192,243008,1,0,0:0:0:0:
192,192,243158,1,0,0:0:0:0:
320,192,243308,1,0,0:0:0:0:
192,192,243458,1,2,0:0:0:0:
64,192,243458,1,0,0:0:0:0:
64,192,243608,1,0,0:0:0:0:
192,192,243608,1,0,0:0:0:0:
448,192,243608,1,8,0:0:0:0:
320,192,243758,1,0,0:0:0:0:
64,192,243908,1,2,0:0:0:0:
448,192,243908,1,0,0:0:0:0:
192,192,244058,1,0,0:0:0:0:
64,192,244208,1,0,0:0:0:0:
320,192,244208,1,8,0:0:0:0:
448,192,244208,1,0,0:0:0:0:
192,192,244358,1,0,0:0:0:0:
320,192,244508,1,0,0:0:0:0:
192,192,244658,1,2,0:0:0:0:
448,192,244658,1,0,0:0:0:0:
192,192,244808,1,0,0:0:0:0:
448,192,244808,1,0,0:0:0:0:
64,192,244808,1,8,0:0:0:0:
320,192,244958,1,0,0:0:0:0:
192,192,245108,1,2,0:0:0:0:
64,192,245108,1,0,0:0:0:0:
320,192,245258,1,0,0:0:0:0:
192,192,245408,1,8,0:0:0:0:
64,192,245408,1,0,0:0:0:0:
448,192,245408,1,0,0:0:0:0:
320,192,245558,1,0,0:0:0:0:
192,192,245708,1,0,0:0:0:0:
320,192,245858,1,2,0:0:0:0:
448,192,245858,1,0,0:0:0:0:
448,192,246008,1,8,0:0:0:0:
320,192,246008,1,0,0:0:0:0:
64,192,246008,1,0,0:0:0:0:
192,192,246158,1,0,0:0:0:0:
64,192,246308,1,2,0:0:0:0:
448,192,246308,1,0,0:0:0:0:
320,192,246458,1,0,0:0:0:0:
192,192,246608,1,8,0:0:0:0:
448,192,246608,1,0,0:0:0:0:
320,192,246758,1,0,0:0:0:0:
64,192,246833,1,0,3:0:0:0:
320,192,246908,1,0,0:0:0:0:
64,192,246983,1,0,3:0:0:0:
448,192,247058,1,0,0:0:0:0:
320,192,247058,1,2,0:0:0:0:
64,192,247208,1,0,0:0:0:0:
448,192,247208,1,0,0:0:0:0:
192,192,247208,1,8,0:0:0:0:
320,192,247358,1,0,0:0:0:0:
320,192,247508,1,2,0:0:0:0:
448,192,247508,1,0,0:0:0:0:
192,192,247658,1,0,0:0:0:0:
64,192,247808,1,0,0:0:0:0:
320,192,247808,1,8,0:0:0:0:
448,192,247808,1,0,0:0:0:0:
192,192,247958,1,0,0:0:0:0:
448,192,248108,1,0,0:0:0:0:
192,192,248258,1,2,0:0:0:0:
320,192,248258,1,0,0:0:0:0:
192,192,248408,1,8,0:0:0:0:
64,192,248408,1,0,0:0:0:0:
448,192,248408,1,0,0:0:0:0:
320,192,248558,1,0,0:0:0:0:
64,192,248708,1,0,0:0:0:0:
448,192,248708,1,2,0:0:0:0:
192,192,248858,1,0,0:0:0:0:
320,192,249008,1,8,0:0:0:0:
64,192,249008,1,0,0:0:0:0:
448,192,249008,1,0,0:0:0:0:
192,192,249158,1,0,0:0:0:0:
320,192,249308,1,0,0:0:0:0:
64,192,249458,1,0,0:0:0:0:
192,192,249458,1,2,0:0:0:0:
64,192,249608,1,8,0:0:0:0:
192,192,249608,1,0,0:0:0:0:
448,192,249608,1,0,0:0:0:0:
320,192,249758,1,0,0:0:0:0:
448,192,249908,1,0,0:0:0:0:
192,192,249908,1,2,0:0:0:0:
320,192,250058,1,0,0:0:0:0:
192,192,250208,1,0,0:0:0:0:
448,192,250208,1,8,0:0:0:0:
64,192,250208,1,0,0:0:0:0:
64,192,250358,1,0,0:0:0:0:
192,192,250508,1,0,0:0:0:0:
320,192,250658,1,2,0:0:0:0:
448,192,250658,1,0,0:0:0:0:
320,192,250808,1,0,0:0:0:0:
448,192,250808,1,8,0:0:0:0:
64,192,250808,1,0,0:0:0:0:
192,192,250958,1,0,0:0:0:0:
448,192,251108,1,0,0:0:0:0:
64,192,251108,1,8,0:0:0:0:
320,192,251258,1,0,0:0:0:0:
192,192,251258,1,2,0:0:0:0:
64,192,251408,1,8,0:0:0:0:
448,192,251408,1,0,0:0:0:0:
320,192,251558,1,0,0:0:0:0:
192,192,251558,1,2,0:0:0:0:
448,192,251708,1,8,0:0:0:0:
64,192,251708,1,0,0:0:0:0:
320,192,251858,1,2,0:0:0:0:
192,192,251858,1,0,0:0:0:0:
64,192,252008,1,0,0:0:0:0:
448,192,252008,1,8,0:0:0:0:
320,192,252158,1,2,0:0:0:0:
192,192,252158,1,0,0:0:0:0:
64,192,252308,128,0,252608:0:0:0:0:
192,192,252608,128,0,252758:0:0:0:0:
320,192,252758,128,0,253058:0:0:0:0:
448,192,253058,128,0,253208:0:0:0:0:
320,192,253208,128,0,253358:0:0:0:0:
192,192,253358,128,0,253658:0:0:0:0:
320,192,253658,128,0,253808:0:0:0:0:
64,192,253808,128,0,253958:0:0:0:0:
192,192,253958,128,0,254108:0:0:0:0:
320,192,254108,128,0,254258:0:0:0:0:
448,192,254258,128,0,254408:0:0:0:0:
320,192,254408,128,0,254558:0:0:0:0:
192,192,254558,128,0,255608:0:0:0:0:
320,192,255608,128,0,255758:0:0:0:0:
64,192,255758,128,0,256808:0:0:0:0:
192,192,256808,128,0,257108:0:0:0:0:
448,192,257108,128,0,257408:0:0:0:0:
320,192,257408,128,0,257558:0:0:0:0:
192,192,257558,128,0,257858:0:0:0:0:
64,192,257858,128,0,258008:0:0:0:0:
192,192,258008,128,0,258158:0:0:0:0:
320,192,258158,128,0,258458:0:0:0:0:
192,192,258458,128,0,258608:0:0:0:0:
448,192,258608,128,0,258758:0:0:0:0:
320,192,258758,128,0,258908:0:0:0:0:
192,192,258908,128,0,259058:0:0:0:0:
64,192,259058,128,0,259208:0:0:0:0:
192,192,259208,128,0,259358:0:0:0:0:
320,192,259358,128,0,260258:0:0:0:0:
192,192,260258,128,0,260408:0:0:0:0:
320,192,260408,128,0,260558:0:0:0:0:
448,192,260558,128,0,261608:0:0:0:0:
192,192,261608,128,0,261908:0:0:0:0:
448,192,261908,128,0,262133:0:0:0:0:
320,192,261908,128,2,262133:0:0:0:0:
192,192,262208,1,8,0:0:0:0:
64,192,262208,1,0,0:0:0:0:
192,192,262358,128,2,262583:0:0:0:0:
64,192,262358,128,0,262583:0:0:0:0:
192,192,262658,1,0,0:0:0:0:
320,192,262658,1,8,0:0:0:0:
320,192,262808,128,2,263033:0:0:0:0:
192,192,262808,128,0,263033:0:0:0:0:
448,192,263108,128,2,263333:0:0:0:0:
64,192,263108,128,0,263333:0:0:0:0:
64,192,263408,1,8,0:0:0:0:
320,192,263408,1,0,0:0:0:0:
320,192,263558,128,0,263783:0:0:0:0:
64,192,263558,128,2,263783:0:0:0:0:
192,192,263858,1,0,0:0:0:0:
448,192,263858,1,8,0:0:0:0:
448,192,264008,128,2,264233:0:0:0:0:
192,192,264008,128,0,264233:0:0:0:0:
192,192,264308,128,0,264533:0:0:0:0:
320,192,264308,128,2,264533:0:0:0:0:
448,192,264608,5,8,0:0:0:0:
320,192,264608,1,0,0:0:0:0:
448,192,264758,128,2,264983:0:0:0:0:
320,192,264758,128,0,264983:0:0:0:0:
192,192,265058,1,0,0:0:0:0:
64,192,265058,1,8,0:0:0:0:
192,192,265208,128,0,265433:0:0:0:0:
64,192,265208,128,2,265433:0:0:0:0:
448,192,265508,5,4,0:0:0:0:
64,192,265508,1,2,0:0:0:0:
320,192,265508,1,0,0:0:0:0:
192,192,265508,1,0,0:0:0:0:
