osu file format v14

[General]
AudioFilename: Airborne Robots.mp3
AudioLeadIn: 0
PreviewTime: 56649
Countdown: 0
SampleSet: Soft
StackLeniency: 0.7
Mode: 3
LetterboxInBreaks: 0
SpecialStyle: 0
WidescreenStoryboard: 0

[Editor]
Bookmarks: 9908,43508,48308,56708,87908,116708,155108,188708,193508,201908,233108
DistanceSpacing: 1.5
BeatDivisor: 1
GridSize: 16
TimelineZoom: 1.9

[Metadata]
Title:Airborne Robots
TitleUnicode:Airborne Robots
Artist:F-777
ArtistUnicode:F-777
Creator:Curiossity
Version:NM
Source:Geometry Dash Meltdown
Tags:electronic breakbeat Jesse Valentine fast ludicrous speed
BeatmapID:1012164
BeatmapSetID:473736

[Difficulty]
HPDrainRate:7
CircleSize:4
OverallDifficulty:7
ApproachRate:5
SliderMultiplier:1.4
SliderTickRate:1

[Events]
//Background and Video events
0,0,"jets_defeating_the_robot_dragon.jpg",0,0
//Break Periods
//Storyboard Layer 0 (Background)
//Storyboard Layer 1 (Fail)
//Storyboard Layer 2 (Pass)
//Storyboard Layer 3 (Foreground)
//Storyboard Sound Samples

[TimingPoints]
308,300,4,2,1,50,1,0
48308,-100,4,2,1,50,0,1
67508,-100,4,2,1,50,0,0
87908,-100,4,2,1,50,0,1
107108,-100,4,2,1,50,0,0
193508,-100,4,2,1,50,0,1
212708,-100,4,2,1,50,0,0
233108,-100,4,2,1,50,0,1
252308,-100,4,2,1,50,0,0

[HitObjects]
64,192,308,5,6,0:0:0:0:
64,192,608,1,0,0:0:0:0:
64,192,908,1,0,0:0:0:0:
64,192,1208,1,0,0:0:0:0:
64,192,1508,1,0,0:0:0:0:
64,192,1808,1,0,0:0:0:0:
64,192,2108,1,0,0:0:0:0:
192,192,2408,1,0,0:0:0:0:
448,192,2708,1,0,0:0:0:0:
448,192,3008,1,0,0:0:0:0:
448,192,3308,1,0,0:0:0:0:
448,192,3608,1,0,0:0:0:0:
448,192,3908,1,0,0:0:0:0:
448,192,4208,1,0,0:0:0:0:
448,192,4508,1,0,0:0:0:0:
320,192,4808,1,0,0:0:0:0:
192,192,5108,1,0,0:0:0:0:
192,192,5408,1,0,0:0:0:0:
192,192,5708,1,0,0:0:0:0:
192,192,6008,1,0,0:0:0:0:
192,192,6308,1,0,0:0:0:0:
192,192,6608,1,0,0:0:0:0:
192,192,6908,1,0,0:0:0:0:
64,192,7208,1,0,0:0:0:0:
320,192,7508,1,0,0:0:0:0:
320,192,7808,1,0,0:0:0:0:
320,192,8108,1,0,0:0:0:0:
320,192,8408,1,0,0:0:0:0:
320,192,8708,1,0,0:0:0:0:
320,192,9008,1,0,0:0:0:0:
320,192,9308,1,0,0:0:0:0:
448,192,9608,1,0,0:0:0:0:
64,192,9908,5,6,0:0:0:0:
192,192,10208,1,0,0:0:0:0:
320,192,10508,1,0,0:0:0:0:
448,192,10808,1,0,0:0:0:0:
64,192,11108,1,0,0:0:0:0:
192,192,11408,1,0,0:0:0:0:
320,192,11708,1,0,0:0:0:0:
448,192,12008,1,0,0:0:0:0:
64,192,12308,1,0,0:0:0:0:
192,192,12608,1,0,0:0:0:0:
320,192,12908,1,0,0:0:0:0:
448,192,13208,1,0,0:0:0:0:
192,192,13508,1,0,0:0:0:0:
320,192,13808,1,0,0:0:0:0:
448,192,14108,1,0,0:0:0:0:
64,192,14408,1,0,0:0:0:0:
448,192,14708,1,0,0:0:0:0:
320,192,15008,1,0,0:0:0:0:
192,192,15308,1,0,0:0:0:0:
64,192,15608,1,0,0:0:0:0:
448,192,15908,1,0,0:0:0:0:
320,192,16208,1,0,0:0:0:0:
192,192,16508,1,0,0:0:0:0:
64,192,16808,1,0,0:0:0:0:
448,192,17108,1,0,0:0:0:0:
320,192,17408,1,0,0:0:0:0:
192,192,17708,1,0,0:0:0:0:
64,192,18008,1,0,0:0:0:0:
320,192,18308,1,0,0:0:0:0:
192,192,18608,1,0,0:0:0:0:
64,192,18908,1,0,0:0:0:0:
192,192,19208,1,0,0:0:0:0:
448,192,19508,128,6,19808:0:0:0:0:
320,192,19808,1,0,0:0:0:0:
192,192,19958,128,0,20258:0:0:0:0:
448,192,20258,1,0,0:0:0:0:
320,192,20408,1,0,0:0:0:0:
64,192,20558,128,0,20858:0:0:0:0:
192,192,20858,1,0,0:0:0:0:
448,192,21008,1,0,0:0:0:0:
320,192,21158,1,0,0:0:0:0:
192,192,21308,1,0,0:0:0:0:
64,192,21458,1,0,0:0:0:0:
192,192,21608,1,0,0:0:0:0:
320,192,21758,128,0,22808:0:0:0:0:
192,192,22808,1,0,0:0:0:0:
448,192,22958,128,0,24008:0:0:0:0:
64,192,24008,1,0,0:0:0:0:
448,192,24308,128,0,24608:0:0:0:0:
320,192,24608,1,0,0:0:0:0:
192,192,24758,128,0,25058:0:0:0:0:
448,192,25058,1,0,0:0:0:0:
320,192,25208,1,0,0:0:0:0:
64,192,25358,128,0,25658:0:0:0:0:
192,192,25658,1,0,0:0:0:0:
320,192,25808,1,0,0:0:0:0:
448,192,25958,1,0,0:0:0:0:
64,192,26108,1,0,0:0:0:0:
192,192,26258,1,0,0:0:0:0:
448,192,26408,1,0,0:0:0:0:
320,192,26558,128,0,27458:0:0:0:0:
192,192,27458,1,0,0:0:0:0:
320,192,27608,1,0,0:0:0:0:
448,192,27758,128,0,28808:0:0:0:0:
192,192,28808,1,0,0:0:0:0:
64,192,29108,128,4,29408:0:0:0:0:
320,192,29108,1,2,0:0:0:0:
192,192,29408,1,0,0:0:0:0:
320,192,29558,128,0,29858:0:0:0:0:
64,192,29858,1,0,0:0:0:0:
192,192,30008,1,0,0:0:0:0:
448,192,30158,128,0,30458:0:0:0:0:
320,192,30458,1,0,0:0:0:0:
64,192,30608,1,0,0:0:0:0:
192,192,30758,1,0,0:0:0:0:
320,192,30908,1,0,0:0:0:0:
448,192,31058,1,0,0:0:0:0:
320,192,31208,1,0,0:0:0:0:
192,192,31358,128,0,32408:0:0:0:0:
448,192,32408,1,0,0:0:0:0:
320,192,32558,128,0,33608:0:0:0:0:
192,192,33608,1,0,0:0:0:0:
64,192,33908,128,0,34208:0:0:0:0:
192,192,34208,1,0,0:0:0:0:
320,192,34358,128,0,34658:0:0:0:0:
64,192,34658,1,0,0:0:0:0:
192,192,34808,1,0,0:0:0:0:
448,192,34958,128,0,35258:0:0:0:0:
320,192,35258,1,0,0:0:0:0:
192,192,35408,1,0,0:0:0:0:
64,192,35558,1,0,0:0:0:0:
448,192,35708,1,0,0:0:0:0:
320,192,35858,1,0,0:0:0:0:
64,192,36008,1,0,0:0:0:0:
192,192,36158,128,0,37058:0:0:0:0:
64,192,37058,1,0,0:0:0:0:
448,192,37208,1,0,0:0:0:0:
320,192,37358,128,0,38408:0:0:0:0:
448,192,38408,1,0,0:0:0:0:
64,192,38708,1,4,0:0:0:0:
192,192,38708,1,2,0:0:0:0:
448,192,39008,1,0,3:0:0:0:
64,192,39308,1,0,3:0:0:0:
448,192,39608,1,0,3:0:0:0:
192,192,39908,1,0,3:0:0:0:
320,192,40208,1,0,3:0:0:0:
192,192,40508,1,0,3:0:0:0:
320,192,40808,1,0,3:0:0:0:
448,192,41108,1,0,3:0:0:0:
64,192,41408,1,0,3:0:0:0:
448,192,41708,1,0,3:0:0:0:
64,192,42008,1,0,3:0:0:0:
320,192,42308,1,0,3:0:0:0:
192,192,42608,1,0,3:0:0:0:
320,192,42908,1,0,3:0:0:0:
192,192,43208,1,0,3:0:0:0:
64,192,43508,1,0,3:0:0:0:
192,192,43658,1,0,3:0:0:0:
320,192,43808,1,0,3:0:0:0:
448,192,43958,1,0,3:0:0:0:
64,192,44108,1,0,3:0:0:0:
192,192,44258,1,0,3:0:0:0:
448,192,44408,1,0,3:0:0:0:
320,192,44558,1,0,3:0:0:0:
192,192,44708,1,0,3:0:0:0:
64,192,44858,1,0,3:0:0:0:
448,192,45008,1,0,3:0:0:0:
320,192,45158,1,0,3:0:0:0:
64,192,45308,1,0,3:0:0:0:
192,192,45458,1,0,3:0:0:0:
320,192,45608,1,0,3:0:0:0:
448,192,45758,1,0,3:0:0:0:
192,192,45908,128,0,48308:3:0:0:0:
320,192,47108,128,0,48308:3:0:0:0:
448,192,48308,1,4,0:0:0:0:
64,192,48308,128,2,48608:0:0:0:0:
448,192,48608,1,8,0:0:0:0:
64,192,49058,1,2,0:0:0:0:
448,192,49208,1,8,0:0:0:0:
64,192,49508,1,2,0:0:0:0:
448,192,49808,1,8,0:0:0:0:
64,192,50258,1,2,0:0:0:0:
448,192,50408,1,8,0:0:0:0:
192,192,50708,128,2,51008:0:0:0:0:
320,192,51008,1,8,0:0:0:0:
192,192,51458,1,2,0:0:0:0:
320,192,51608,1,8,0:0:0:0:
192,192,51908,1,2,0:0:0:0:
320,192,52208,1,8,0:0:0:0:
192,192,52658,1,2,0:0:0:0:
320,192,52808,1,8,0:0:0:0:
448,192,53108,128,2,53408:0:0:0:0:
64,192,53408,1,8,0:0:0:0:
448,192,53858,1,2,0:0:0:0:
64,192,54008,1,8,0:0:0:0:
448,192,54308,1,2,0:0:0:0:
64,192,54608,1,8,0:0:0:0:
448,192,55058,1,2,0:0:0:0:
64,192,55208,1,8,0:0:0:0:
320,192,55508,128,2,55808:0:0:0:0:
192,192,55808,1,8,0:0:0:0:
320,192,56258,1,2,0:0:0:0:
192,192,56408,1,8,0:0:0:0:
64,192,56708,128,2,57158:0:0:0:0:
320,192,57158,1,0,0:0:0:0:
192,192,57308,1,0,0:0:0:0:
448,192,57458,1,0,0:0:0:0:
320,192,57608,1,0,0:0:0:0:
192,192,57758,1,0,0:0:0:0:
320,192,57908,128,4,58208:0:0:0:0:
448,192,57908,1,2,0:0:0:0:
64,192,58208,1,8,0:0:0:0:
320,192,58658,1,2,0:0:0:0:
64,192,58808,1,8,0:0:0:0:
320,192,59108,1,2,0:0:0:0:
64,192,59408,1,8,0:0:0:0:
320,192,59858,1,2,0:0:0:0:
64,192,60008,1,8,0:0:0:0:
192,192,60308,128,2,60608:0:0:0:0:
448,192,60608,1,8,0:0:0:0:
192,192,61058,1,2,0:0:0:0:
448,192,61208,1,8,0:0:0:0:
192,192,61508,1,2,0:0:0:0:
448,192,61808,1,8,0:0:0:0:
192,192,62258,1,2,0:0:0:0:
448,192,62408,1,8,0:0:0:0:
64,192,62708,128,2,63008:0:0:0:0:
320,192,63008,1,8,0:0:0:0:
64,192,63458,1,2,0:0:0:0:
320,192,63608,1,8,0:0:0:0:
64,192,63908,1,2,0:0:0:0:
320,192,64208,1,8,0:0:0:0:
64,192,64658,1,2,0:0:0:0:
320,192,64808,1,8,0:0:0:0:
448,192,65108,128,2,65408:0:0:0:0:
64,192,65408,1,8,0:0:0:0:
448,192,65858,1,2,0:0:0:0:
64,192,66008,1,8,0:0:0:0:
320,192,66308,128,2,66758:0:0:0:0:
448,192,66758,1,0,0:0:0:0:
64,192,66908,1,0,0:0:0:0:
192,192,67058,1,2,0:0:0:0:
448,192,67208,1,8,0:0:0:0:
320,192,67358,1,0,0:0:0:0:
64,192,67508,1,4,0:0:0:0:
192,192,67508,1,2,0:0:0:0:
320,192,67808,1,8,0:0:0:0:
64,192,68258,1,2,0:0:0:0:
320,192,68408,1,8,0:0:0:0:
192,192,68558,1,0,0:0:0:0:
64,192,68708,1,2,0:0:0:0:
320,192,69008,1,8,0:0:0:0:
64,192,69458,1,2,0:0:0:0:
320,192,69608,1,8,0:0:0:0:
192,192,69758,1,0,0:0:0:0:
448,192,69908,1,2,0:0:0:0:
192,192,70208,1,8,0:0:0:0:
448,192,70658,1,2,0:0:0:0:
192,192,70808,1,8,0:0:0:0:
320,192,70958,1,0,0:0:0:0:
448,192,71108,1,2,0:0:0:0:
192,192,71408,1,8,0:0:0:0:
320,192,71633,128,0,72008:0:0:0:0:
64,192,72008,128,8,72308:0:0:0:0:
448,192,72308,1,2,0:0:0:0:
64,192,72608,1,8,0:0:0:0:
448,192,73058,1,2,0:0:0:0:
64,192,73208,1,8,0:0:0:0:
192,192,73358,1,0,0:0:0:0:
448,192,73508,1,2,0:0:0:0:
64,192,73808,1,8,0:0:0:0:
448,192,74258,1,2,0:0:0:0:
192,192,74408,1,8,0:0:0:0:
64,192,74558,1,0,0:0:0:0:
320,192,74708,1,2,0:0:0:0:
192,192,75008,1,8,0:0:0:0:
320,192,75458,1,2,0:0:0:0:
192,192,75608,1,8,0:0:0:0:
320,192,75758,1,0,0:0:0:0:
448,192,75908,1,8,0:0:0:0:
64,192,76058,1,2,0:0:0:0:
448,192,76208,1,8,0:0:0:0:
64,192,76358,1,2,0:0:0:0:
320,192,76508,1,8,0:0:0:0:
192,192,76658,1,2,0:0:0:0:
320,192,76808,1,8,0:0:0:0:
192,192,76958,1,2,0:0:0:0:
448,192,77108,1,4,0:0:0:0:
320,192,77108,1,2,0:0:0:0:
192,192,77408,1,8,0:0:0:0:
448,192,77858,1,2,0:0:0:0:
192,192,78008,1,8,0:0:0:0:
64,192,78308,1,2,0:0:0:0:
320,192,78608,1,8,0:0:0:0:
192,192,79058,1,2,0:0:0:0:
320,192,79208,1,8,0:0:0:0:
448,192,79508,1,2,0:0:0:0:
64,192,79808,1,8,0:0:0:0:
448,192,80258,1,2,0:0:0:0:
192,192,80408,1,8,0:0:0:0:
320,192,80708,1,2,0:0:0:0:
192,192,81008,1,8,0:0:0:0:
320,192,81308,1,0,0:0:0:0:
448,192,81458,1,2,0:0:0:0:
64,192,81608,1,8,0:0:0:0:
192,192,81758,1,0,0:0:0:0:
320,192,81908,1,2,0:0:0:0:
192,192,82208,1,8,0:0:0:0:
448,192,82658,1,2,0:0:0:0:
192,192,82808,1,8,0:0:0:0:
64,192,83108,1,2,0:0:0:0:
448,192,83408,1,8,0:0:0:0:
64,192,83858,1,2,0:0:0:0:
320,192,84008,1,8,0:0:0:0:
192,192,84308,1,2,0:0:0:0:
448,192,84608,1,8,0:0:0:0:
192,192,85058,1,2,0:0:0:0:
320,192,85208,1,8,0:0:0:0:
64,192,85508,1,2,0:0:0:0:
448,192,85808,1,8,0:0:0:0:
320,192,85958,1,2,0:0:0:0:
64,192,86258,1,8,0:0:0:0:
192,192,86408,1,2,0:0:0:0:
320,192,86708,1,2,0:0:0:0:
448,192,87008,1,8,0:0:0:0:
320,192,87158,1,2,0:0:0:0:
64,192,87458,1,8,0:0:0:0:
192,192,87608,1,2,0:0:0:0:
448,192,87908,128,2,88208:0:0:0:0:
64,192,87908,1,4,0:0:0:0:
320,192,88208,1,8,0:0:0:0:
192,192,88358,128,0,88658:0:0:0:0:
448,192,88658,1,2,0:0:0:0:
320,192,88808,1,8,0:0:0:0:
64,192,88958,128,0,89258:0:0:0:0:
192,192,89258,1,0,0:0:0:0:
448,192,89408,1,8,0:0:0:0:
320,192,89558,1,0,0:0:0:0:
192,192,89708,1,0,0:0:0:0:
64,192,89858,1,2,0:0:0:0:
192,192,90008,1,8,0:0:0:0:
320,192,90158,128,0,91208:0:0:0:0:
192,192,91208,1,8,0:0:0:0:
448,192,91358,128,0,92408:0:0:0:0:
64,192,92408,1,8,0:0:0:0:
448,192,92708,128,2,93008:0:0:0:0:
320,192,93008,1,8,0:0:0:0:
192,192,93158,128,0,93458:0:0:0:0:
448,192,93458,1,2,0:0:0:0:
320,192,93608,1,8,0:0:0:0:
64,192,93758,128,0,94058:0:0:0:0:
192,192,94058,1,0,0:0:0:0:
320,192,94208,1,8,0:0:0:0:
448,192,94358,1,0,0:0:0:0:
64,192,94508,1,0,0:0:0:0:
192,192,94658,1,2,0:0:0:0:
448,192,94808,1,8,0:0:0:0:
320,192,94958,128,0,96008:0:0:0:0:
448,192,96008,1,8,0:0:0:0:
64,192,96308,1,8,0:0:0:0:
448,192,96458,1,2,0:0:0:0:
64,192,96608,1,8,0:0:0:0:
448,192,96758,1,2,0:0:0:0:
192,192,96908,1,8,0:0:0:0:
320,192,97058,1,2,0:0:0:0:
192,192,97208,1,8,0:0:0:0:
320,192,97358,1,2,0:0:0:0:
64,192,97508,128,6,97808:0:0:0:0:
192,192,97808,1,8,0:0:0:0:
320,192,97958,128,0,98258:0:0:0:0:
64,192,98258,1,2,0:0:0:0:
192,192,98408,1,8,0:0:0:0:
448,192,98558,128,0,98858:0:0:0:0:
320,192,98858,1,0,0:0:0:0:
64,192,99008,1,8,0:0:0:0:
192,192,99158,1,0,0:0:0:0:
320,192,99308,1,0,0:0:0:0:
448,192,99458,1,2,0:0:0:0:
320,192,99608,1,8,0:0:0:0:
192,192,99758,128,0,100808:0:0:0:0:
320,192,100808,1,8,0:0:0:0:
64,192,100958,128,0,102008:0:0:0:0:
320,192,102008,1,8,0:0:0:0:
448,192,102308,128,2,102608:0:0:0:0:
320,192,102608,1,8,0:0:0:0:
192,192,102758,128,0,103058:0:0:0:0:
448,192,103058,1,2,0:0:0:0:
320,192,103208,1,8,0:0:0:0:
64,192,103358,128,0,103658:0:0:0:0:
192,192,103658,1,0,0:0:0:0:
320,192,103808,1,8,0:0:0:0:
448,192,103958,1,0,0:0:0:0:
64,192,104108,1,0,0:0:0:0:
192,192,104258,1,2,0:0:0:0:
448,192,104408,1,8,0:0:0:0:
320,192,104558,128,0,105608:0:0:0:0:
192,192,105608,1,8,0:0:0:0:
320,192,105908,1,8,0:0:0:0:
192,192,106058,1,2,0:0:0:0:
320,192,106208,1,8,0:0:0:0:
192,192,106358,1,2,0:0:0:0:
448,192,106508,1,8,0:0:0:0:
64,192,106658,1,2,0:0:0:0:
448,192,106808,1,8,0:0:0:0:
64,192,106958,1,2,0:0:0:0:
448,192,107108,128,0,107408:0:0:0:0:
320,192,107408,1,0,0:0:0:0:
192,192,107558,128,0,107858:0:0:0:0:
448,192,107858,1,0,0:0:0:0:
320,192,108008,1,0,0:0:0:0:
64,192,108158,128,0,108458:0:0:0:0:
320,192,108458,1,0,0:0:0:0:
192,192,108608,1,0,0:0:0:0:
448,192,108758,1,0,0:0:0:0:
64,192,108908,1,0,0:0:0:0:
192,192,109058,1,0,0:0:0:0:
448,192,109208,1,0,0:0:0:0:
320,192,109358,128,0,110408:0:0:0:0:
64,192,110408,1,0,0:0:0:0:
192,192,110558,128,0,111608:0:0:0:0:
320,192,111608,1,0,0:0:0:0:
448,192,111908,128,0,112208:0:0:0:0:
320,192,112208,1,0,0:0:0:0:
192,192,112358,128,0,112658:0:0:0:0:
448,192,112658,1,0,0:0:0:0:
320,192,112808,1,0,0:0:0:0:
64,192,112958,128,0,113258:0:0:0:0:
192,192,113258,1,0,0:0:0:0:
448,192,113408,1,0,0:0:0:0:
320,192,113558,1,0,0:0:0:0:
64,192,113708,1,0,0:0:0:0:
192,192,113858,1,0,0:0:0:0:
448,192,114008,1,0,0:0:0:0:
320,192,114158,128,0,115058:0:0:0:0:
448,192,115058,1,0,0:0:0:0:
320,192,115208,1,0,0:0:0:0:
192,192,115358,128,0,116408:0:0:0:0:
320,192,116408,1,0,0:0:0:0:
64,192,116708,128,4,117308:0:0:0:0:
448,192,116708,1,2,0:0:0:0:
192,192,117308,128,0,117908:0:0:0:0:
320,192,117908,128,0,118508:0:0:0:0:
448,192,118508,128,0,119108:0:0:0:0:
64,192,119108,128,0,119708:0:0:0:0:
192,192,119708,128,0,120308:0:0:0:0:
320,192,120308,128,0,120908:0:0:0:0:
192,192,120908,128,0,121508:0:0:0:0:
64,192,121508,128,0,122108:0:0:0:0:
192,192,122108,128,0,122708:0:0:0:0:
320,192,122708,128,0,123308:0:0:0:0:
448,192,123308,128,0,123908:0:0:0:0:
64,192,123908,128,0,124508:0:0:0:0:
192,192,124508,128,0,125108:0:0:0:0:
320,192,125108,1,8,0:0:0:0:
64,192,125258,1,2,0:0:0:0:
320,192,125408,1,8,0:0:0:0:
64,192,125558,1,2,0:0:0:0:
448,192,125708,1,8,0:0:0:0:
192,192,125858,1,2,0:0:0:0:
448,192,126008,1,8,0:0:0:0:
192,192,126158,1,2,0:0:0:0:
64,192,126308,1,2,0:0:0:0:
448,192,126308,1,4,0:0:0:0:
320,192,126608,1,8,0:0:0:0:
192,192,126758,1,0,0:0:0:0:
64,192,126908,1,0,0:0:0:0:
192,192,127208,1,8,0:0:0:0:
320,192,127358,1,0,0:0:0:0:
448,192,127508,1,2,0:0:0:0:
320,192,127808,1,8,0:0:0:0:
192,192,127958,1,0,0:0:0:0:
64,192,128108,1,0,0:0:0:0:
192,192,128408,1,8,0:0:0:0:
320,192,128558,1,0,0:0:0:0:
64,192,128708,1,0,0:0:0:0:
448,192,128708,1,2,0:0:0:0:
192,192,129008,1,8,0:0:0:0:
320,192,129158,1,0,0:0:0:0:
448,192,129308,1,0,0:0:0:0:
320,192,129608,1,8,0:0:0:0:
192,192,129758,1,0,0:0:0:0:
64,192,129908,1,2,0:0:0:0:
192,192,130058,1,0,0:0:0:0:
448,192,130208,1,8,0:0:0:0:
320,192,130358,1,0,0:0:0:0:
64,192,130508,1,0,0:0:0:0:
192,192,130658,1,2,0:0:0:0:
448,192,130808,1,8,0:0:0:0:
320,192,130958,1,0,0:0:0:0:
448,192,131108,1,0,0:0:0:0:
64,192,131108,1,2,0:0:0:0:
192,192,131408,1,8,0:0:0:0:
320,192,131558,1,0,0:0:0:0:
448,192,131708,1,0,0:0:0:0:
320,192,132008,1,8,0:0:0:0:
192,192,132158,1,0,0:0:0:0:
64,192,132308,1,2,0:0:0:0:
192,192,132608,1,8,0:0:0:0:
320,192,132758,1,0,0:0:0:0:
448,192,132908,1,0,0:0:0:0:
320,192,133208,1,8,0:0:0:0:
192,192,133358,1,0,0:0:0:0:
448,192,133508,1,0,0:0:0:0:
64,192,133508,1,2,0:0:0:0:
320,192,133808,1,8,0:0:0:0:
448,192,133958,1,0,0:0:0:0:
192,192,134108,1,0,0:0:0:0:
64,192,134258,1,2,0:0:0:0:
320,192,134408,1,8,0:0:0:0:
448,192,134558,1,0,0:0:0:0:
64,192,134708,1,8,0:0:0:0:
192,192,134858,1,2,0:0:0:0:
448,192,135008,1,8,0:0:0:0:
320,192,135158,1,2,0:0:0:0:
64,192,135308,1,8,0:0:0:0:
192,192,135458,1,2,0:0:0:0:
448,192,135608,1,8,0:0:0:0:
320,192,135758,1,2,0:0:0:0:
64,192,135908,1,4,0:0:0:0:
448,192,135908,1,2,0:0:0:0:
320,192,136208,1,8,0:0:0:0:
192,192,136358,1,0,0:0:0:0:
64,192,136508,1,0,0:0:0:0:
192,192,136808,1,8,0:0:0:0:
320,192,136958,1,0,0:0:0:0:
448,192,137108,1,2,0:0:0:0:
320,192,137408,1,8,0:0:0:0:
192,192,137558,1,0,0:0:0:0:
64,192,137708,1,0,0:0:0:0:
192,192,138008,1,8,0:0:0:0:
320,192,138158,1,0,0:0:0:0:
64,192,138308,1,2,0:0:0:0:
448,192,138308,1,0,0:0:0:0:
192,192,138608,1,8,0:0:0:0:
320,192,138758,1,0,0:0:0:0:
448,192,138908,1,0,0:0:0:0:
320,192,139208,1,8,0:0:0:0:
192,192,139358,1,0,0:0:0:0:
320,192,139508,1,2,0:0:0:0:
448,192,139658,1,0,0:0:0:0:
192,192,139808,1,8,0:0:0:0:
64,192,139958,1,0,0:0:0:0:
320,192,140108,1,0,0:0:0:0:
448,192,140258,1,2,0:0:0:0:
192,192,140408,1,8,0:0:0:0:
64,192,140558,1,0,0:0:0:0:
320,192,140708,1,2,0:0:0:0:
448,192,140708,1,0,0:0:0:0:
192,192,141008,1,8,0:0:0:0:
320,192,141158,1,0,0:0:0:0:
448,192,141308,1,0,0:0:0:0:
320,192,141608,1,8,0:0:0:0:
192,192,141758,1,0,0:0:0:0:
64,192,141908,1,2,0:0:0:0:
192,192,142208,1,8,0:0:0:0:
320,192,142358,1,0,0:0:0:0:
448,192,142508,1,0,0:0:0:0:
320,192,142808,1,8,0:0:0:0:
192,192,142958,1,0,0:0:0:0:
64,192,143108,1,2,0:0:0:0:
448,192,143108,1,0,0:0:0:0:
192,192,143408,1,8,0:0:0:0:
64,192,143558,1,0,0:0:0:0:
448,192,143708,1,0,0:0:0:0:
320,192,143858,1,2,0:0:0:0:
64,192,144008,1,8,0:0:0:0:
192,192,144158,1,0,0:0:0:0:
320,192,144308,1,8,0:0:0:0:
448,192,144458,1,0,0:0:0:0:
192,192,144608,1,8,0:0:0:0:
64,192,144758,1,2,0:0:0:0:
320,192,144908,1,8,0:0:0:0:
448,192,145058,1,2,0:0:0:0:
192,192,145208,1,8,0:0:0:0:
64,192,145358,1,2,0:0:0:0:
320,192,145508,1,2,0:0:0:0:
448,192,145508,128,4,145808:0:0:0:0:
64,192,145958,1,0,0:0:0:0:
192,192,146408,1,8,0:0:0:0:
320,192,146558,1,0,0:0:0:0:
64,192,146708,1,2,0:0:0:0:
448,192,147158,1,0,0:0:0:0:
320,192,147608,1,8,0:0:0:0:
64,192,147758,1,0,0:0:0:0:
192,192,147908,128,2,148208:0:0:0:0:
448,192,148358,1,0,0:0:0:0:
320,192,148808,1,8,0:0:0:0:
448,192,148958,1,0,0:0:0:0:
192,192,149108,1,2,0:0:0:0:
320,192,149558,1,0,0:0:0:0:
320,192,150008,1,8,0:0:0:0:
64,192,150158,1,0,0:0:0:0:
448,192,150308,128,2,150608:0:0:0:0:
64,192,150758,1,0,0:0:0:0:
320,192,151208,1,8,0:0:0:0:
192,192,151358,1,0,0:0:0:0:
448,192,151508,1,2,0:0:0:0:
64,192,151958,1,0,0:0:0:0:
192,192,152408,1,8,0:0:0:0:
448,192,152558,1,0,0:0:0:0:
320,192,152708,128,2,153008:0:0:0:0:
64,192,153158,1,0,0:0:0:0:
192,192,153608,1,8,0:0:0:0:
320,192,153758,1,0,0:0:0:0:
64,192,153908,1,8,0:0:0:0:
448,192,154058,1,2,0:0:0:0:
64,192,154208,1,8,0:0:0:0:
448,192,154358,1,2,0:0:0:0:
192,192,154508,1,8,0:0:0:0:
320,192,154658,1,2,0:0:0:0:
192,192,154808,1,8,0:0:0:0:
320,192,154958,1,2,0:0:0:0:
64,192,155108,5,6,0:0:0:0:
192,192,155408,1,0,0:0:0:0:
320,192,155708,1,0,0:0:0:0:
448,192,156008,1,0,0:0:0:0:
64,192,156308,1,0,0:0:0:0:
192,192,156608,1,0,0:0:0:0:
320,192,156908,1,0,0:0:0:0:
448,192,157208,1,0,0:0:0:0:
64,192,157508,1,0,0:0:0:0:
192,192,157808,1,0,0:0:0:0:
320,192,158108,1,0,0:0:0:0:
448,192,158408,1,0,0:0:0:0:
192,192,158708,1,0,0:0:0:0:
320,192,159008,1,0,0:0:0:0:
448,192,159308,1,0,0:0:0:0:
64,192,159608,1,0,0:0:0:0:
448,192,159908,1,0,0:0:0:0:
320,192,160208,1,0,0:0:0:0:
192,192,160508,1,0,0:0:0:0:
64,192,160808,1,0,0:0:0:0:
448,192,161108,1,0,0:0:0:0:
320,192,161408,1,0,0:0:0:0:
192,192,161708,1,0,0:0:0:0:
64,192,162008,1,0,0:0:0:0:
448,192,162308,1,0,0:0:0:0:
320,192,162608,1,0,0:0:0:0:
192,192,162908,1,0,0:0:0:0:
64,192,163208,1,0,0:0:0:0:
320,192,163508,1,0,0:0:0:0:
192,192,163808,1,0,0:0:0:0:
64,192,164108,1,0,0:0:0:0:
192,192,164408,1,0,0:0:0:0:
448,192,164708,128,4,165008:0:0:0:0:
64,192,164708,1,2,0:0:0:0:
320,192,165008,1,0,0:0:0:0:
192,192,165158,128,0,165458:0:0:0:0:
448,192,165458,1,0,0:0:0:0:
320,192,165608,1,0,0:0:0:0:
64,192,165758,128,0,166058:0:0:0:0:
192,192,166058,1,0,0:0:0:0:
448,192,166208,1,0,0:0:0:0:
320,192,166358,1,0,0:0:0:0:
192,192,166508,1,0,0:0:0:0:
64,192,166658,1,0,0:0:0:0:
448,192,166808,1,0,0:0:0:0:
320,192,166958,128,0,168008:0:0:0:0:
192,192,168008,1,0,0:0:0:0:
448,192,168158,128,0,169208:0:0:0:0:
64,192,169208,1,0,0:0:0:0:
448,192,169508,128,0,169808:0:0:0:0:
320,192,169808,1,0,0:0:0:0:
192,192,169958,128,0,170258:0:0:0:0:
448,192,170258,1,0,0:0:0:0:
320,192,170408,1,0,0:0:0:0:
64,192,170558,128,0,170858:0:0:0:0:
192,192,170858,1,0,0:0:0:0:
320,192,171008,1,0,0:0:0:0:
448,192,171158,1,0,0:0:0:0:
192,192,171308,1,0,0:0:0:0:
64,192,171458,1,0,0:0:0:0:
448,192,171608,1,0,0:0:0:0:
320,192,171758,128,0,172658:0:0:0:0:
192,192,172658,1,0,0:0:0:0:
320,192,172808,1,0,0:0:0:0:
448,192,172958,128,0,174008:0:0:0:0:
192,192,174008,1,0,0:0:0:0:
64,192,174308,128,4,174608:0:0:0:0:
320,192,174308,1,2,0:0:0:0:
192,192,174608,1,0,0:0:0:0:
320,192,174758,128,0,175058:0:0:0:0:
64,192,175058,1,0,0:0:0:0:
192,192,175208,1,0,0:0:0:0:
448,192,175358,128,0,175658:0:0:0:0:
320,192,175658,1,0,0:0:0:0:
192,192,175808,1,0,0:0:0:0:
64,192,175958,1,0,0:0:0:0:
320,192,176108,1,0,0:0:0:0:
448,192,176258,1,0,0:0:0:0:
64,192,176408,1,0,0:0:0:0:
192,192,176558,128,0,177608:0:0:0:0:
448,192,177608,1,0,0:0:0:0:
320,192,177758,128,0,178808:0:0:0:0:
192,192,178808,1,0,0:0:0:0:
64,192,179108,128,0,179408:0:0:0:0:
192,192,179408,1,0,0:0:0:0:
320,192,179558,128,0,179858:0:0:0:0:
64,192,179858,1,0,0:0:0:0:
192,192,180008,1,0,0:0:0:0:
448,192,180158,128,0,180458:0:0:0:0:
320,192,180458,1,0,0:0:0:0:
64,192,180608,1,0,0:0:0:0:
192,192,180758,1,0,0:0:0:0:
448,192,180908,1,0,0:0:0:0:
320,192,181058,1,0,0:0:0:0:
192,192,181208,1,0,0:0:0:0:
64,192,181358,128,0,182258:0:0:0:0:
192,192,182258,1,0,0:0:0:0:
448,192,182408,1,0,0:0:0:0:
320,192,182558,128,0,183608:0:0:0:0:
448,192,183608,1,0,0:0:0:0:
64,192,183908,1,2,0:0:0:0:
192,192,183908,1,4,0:0:0:0:
448,192,184208,1,0,3:0:0:0:
64,192,184508,1,0,3:0:0:0:
448,192,184808,1,0,3:0:0:0:
192,192,185108,1,0,3:0:0:0:
320,192,185408,1,0,3:0:0:0:
192,192,185708,1,0,3:0:0:0:
320,192,186008,1,0,3:0:0:0:
448,192,186308,1,0,3:0:0:0:
64,192,186608,1,0,3:0:0:0:
448,192,186908,1,0,3:0:0:0:
64,192,187208,1,0,3:0:0:0:
320,192,187508,1,0,3:0:0:0:
192,192,187808,1,0,3:0:0:0:
320,192,188108,1,0,3:0:0:0:
192,192,188408,1,0,3:0:0:0:
64,192,188708,1,0,3:0:0:0:
192,192,188858,1,0,3:0:0:0:
448,192,189008,1,0,3:0:0:0:
320,192,189158,1,0,3:0:0:0:
64,192,189308,1,0,3:0:0:0:
192,192,189458,1,0,3:0:0:0:
320,192,189608,1,0,3:0:0:0:
448,192,189758,1,0,3:0:0:0:
192,192,189908,1,0,3:0:0:0:
64,192,190058,1,0,3:0:0:0:
448,192,190208,1,0,3:0:0:0:
320,192,190358,1,0,3:0:0:0:
192,192,190508,1,0,3:0:0:0:
64,192,190658,1,0,3:0:0:0:
320,192,190808,1,0,3:0:0:0:
448,192,190958,1,0,3:0:0:0:
192,192,191108,128,0,193508:3:0:0:0:
320,192,192308,128,0,193508:3:0:0:0:
448,192,193508,1,4,0:0:0:0:
64,192,193508,128,2,193808:0:0:0:0:
448,192,193808,1,8,0:0:0:0:
64,192,194258,1,2,0:0:0:0:
448,192,194408,1,8,0:0:0:0:
192,192,194708,1,2,0:0:0:0:
448,192,195008,1,8,0:0:0:0:
320,192,195458,1,2,0:0:0:0:
448,192,195608,1,8,0:0:0:0:
192,192,195908,128,2,196208:0:0:0:0:
320,192,196208,1,8,0:0:0:0:
192,192,196658,1,2,0:0:0:0:
320,192,196808,1,8,0:0:0:0:
64,192,197108,1,2,0:0:0:0:
320,192,197408,1,8,0:0:0:0:
448,192,197858,1,2,0:0:0:0:
320,192,198008,1,8,0:0:0:0:
448,192,198308,128,2,198608:0:0:0:0:
64,192,198608,1,8,0:0:0:0:
448,192,199058,1,2,0:0:0:0:
64,192,199208,1,8,0:0:0:0:
320,192,199508,1,2,0:0:0:0:
64,192,199808,1,8,0:0:0:0:
192,192,200258,1,2,0:0:0:0:
64,192,200408,1,8,0:0:0:0:
320,192,200708,128,2,201008:0:0:0:0:
192,192,201008,1,8,0:0:0:0:
320,192,201458,1,2,0:0:0:0:
192,192,201608,1,8,0:0:0:0:
64,192,201908,128,2,202358:0:0:0:0:
320,192,202358,1,0,0:0:0:0:
192,192,202508,1,0,0:0:0:0:
448,192,202658,1,0,0:0:0:0:
320,192,202808,1,0,0:0:0:0:
192,192,202958,1,0,0:0:0:0:
320,192,203108,128,4,203408:0:0:0:0:
64,192,203108,1,2,0:0:0:0:
192,192,203408,1,8,0:0:0:0:
320,192,203858,1,2,0:0:0:0:
192,192,204008,1,8,0:0:0:0:
448,192,204308,1,2,0:0:0:0:
192,192,204608,1,8,0:0:0:0:
64,192,205058,1,2,0:0:0:0:
192,192,205208,1,8,0:0:0:0:
320,192,205508,128,2,205808:0:0:0:0:
448,192,205808,1,8,0:0:0:0:
320,192,206258,1,2,0:0:0:0:
448,192,206408,1,8,0:0:0:0:
64,192,206708,1,2,0:0:0:0:
448,192,207008,1,8,0:0:0:0:
192,192,207458,1,2,0:0:0:0:
448,192,207608,1,8,0:0:0:0:
320,192,207908,128,2,208208:0:0:0:0:
64,192,208208,1,8,0:0:0:0:
320,192,208658,1,2,0:0:0:0:
64,192,208808,1,8,0:0:0:0:
448,192,209108,1,2,0:0:0:0:
64,192,209408,1,8,0:0:0:0:
192,192,209858,1,2,0:0:0:0:
64,192,210008,1,8,0:0:0:0:
192,192,210308,128,2,210608:0:0:0:0:
448,192,210608,1,8,0:0:0:0:
192,192,211058,1,2,0:0:0:0:
448,192,211208,1,8,0:0:0:0:
64,192,211508,128,2,211958:0:0:0:0:
448,192,211958,1,0,0:0:0:0:
192,192,212108,1,0,0:0:0:0:
320,192,212258,1,2,0:0:0:0:
448,192,212408,1,8,0:0:0:0:
320,192,212558,1,0,0:0:0:0:
64,192,212708,1,4,0:0:0:0:
192,192,212708,1,2,0:0:0:0:
320,192,213008,1,8,0:0:0:0:
64,192,213458,1,2,0:0:0:0:
320,192,213608,1,8,0:0:0:0:
192,192,213758,1,0,0:0:0:0:
64,192,213908,1,2,0:0:0:0:
320,192,214208,1,8,0:0:0:0:
64,192,214658,1,2,0:0:0:0:
320,192,214808,1,8,0:0:0:0:
192,192,214958,1,0,0:0:0:0:
448,192,215108,1,2,0:0:0:0:
192,192,215408,1,8,0:0:0:0:
448,192,215858,1,2,0:0:0:0:
192,192,216008,1,8,0:0:0:0:
320,192,216158,1,0,0:0:0:0:
448,192,216308,1,2,0:0:0:0:
192,192,216608,1,8,0:0:0:0:
320,192,216833,128,0,217208:0:0:0:0:
64,192,217208,128,8,217508:0:0:0:0:
448,192,217508,1,2,0:0:0:0:
64,192,217808,1,8,0:0:0:0:
448,192,218258,1,2,0:0:0:0:
64,192,218408,1,8,0:0:0:0:
192,192,218558,1,0,0:0:0:0:
448,192,218708,1,2,0:0:0:0:
64,192,219008,1,8,0:0:0:0:
448,192,219458,1,2,0:0:0:0:
64,192,219608,1,8,0:0:0:0:
192,192,219758,1,0,0:0:0:0:
320,192,219908,1,2,0:0:0:0:
192,192,220208,1,8,0:0:0:0:
320,192,220658,1,2,0:0:0:0:
192,192,220808,1,8,0:0:0:0:
320,192,220958,1,0,0:0:0:0:
448,192,221108,1,8,0:0:0:0:
64,192,221258,1,2,0:0:0:0:
448,192,221408,1,8,0:0:0:0:
64,192,221558,1,2,0:0:0:0:
320,192,221708,1,8,0:0:0:0:
192,192,221858,1,2,0:0:0:0:
320,192,222008,1,8,0:0:0:0:
192,192,222158,1,2,0:0:0:0:
448,192,222308,1,4,0:0:0:0:
320,192,222308,1,2,0:0:0:0:
192,192,222608,1,8,0:0:0:0:
320,192,223058,1,2,0:0:0:0:
64,192,223208,1,8,0:0:0:0:
192,192,223508,1,2,0:0:0:0:
448,192,223808,1,8,0:0:0:0:
64,192,224258,1,2,0:0:0:0:
320,192,224408,1,8,0:0:0:0:
192,192,224708,1,2,0:0:0:0:
320,192,225008,1,8,0:0:0:0:
64,192,225458,1,2,0:0:0:0:
448,192,225608,1,8,0:0:0:0:
320,192,225908,1,2,0:0:0:0:
192,192,226208,1,8,0:0:0:0:
320,192,226508,1,0,0:0:0:0:
448,192,226658,1,2,0:0:0:0:
64,192,226808,1,8,0:0:0:0:
192,192,226958,1,0,0:0:0:0:
320,192,227108,1,2,0:0:0:0:
192,192,227408,1,8,0:0:0:0:
448,192,227858,1,2,0:0:0:0:
64,192,228008,1,8,0:0:0:0:
192,192,228308,1,2,0:0:0:0:
320,192,228608,1,8,0:0:0:0:
64,192,229058,1,2,0:0:0:0:
448,192,229208,1,8,0:0:0:0:
192,192,229508,1,2,0:0:0:0:
448,192,229808,1,8,0:0:0:0:
64,192,230258,1,2,0:0:0:0:
320,192,230408,1,8,0:0:0:0:
64,192,230708,1,2,0:0:0:0:
320,192,231008,1,8,0:0:0:0:
448,192,231158,1,2,0:0:0:0:
64,192,231458,1,8,0:0:0:0:
192,192,231608,1,2,0:0:0:0:
320,192,231908,1,2,0:0:0:0:
448,192,232208,1,8,0:0:0:0:
320,192,232358,1,2,0:0:0:0:
64,192,232658,1,8,0:0:0:0:
192,192,232808,1,2,0:0:0:0:
448,192,233108,128,2,233408:0:0:0:0:
64,192,233108,1,4,0:0:0:0:
320,192,233408,1,8,0:0:0:0:
192,192,233558,128,0,233858:0:0:0:0:
448,192,233858,1,2,0:0:0:0:
320,192,234008,1,8,0:0:0:0:
64,192,234158,128,0,234458:0:0:0:0:
192,192,234458,1,0,0:0:0:0:
320,192,234608,1,8,0:0:0:0:
448,192,234758,1,0,0:0:0:0:
64,192,234908,1,0,0:0:0:0:
192,192,235058,1,2,0:0:0:0:
320,192,235208,1,8,0:0:0:0:
448,192,235358,128,0,236408:0:0:0:0:
192,192,236408,1,8,0:0:0:0:
320,192,236558,128,0,237608:0:0:0:0:
64,192,237608,1,8,0:0:0:0:
448,192,237908,128,2,238208:0:0:0:0:
320,192,238208,1,8,0:0:0:0:
192,192,238358,128,0,238658:0:0:0:0:
448,192,238658,1,2,0:0:0:0:
320,192,238808,1,8,0:0:0:0:
64,192,238958,128,0,239258:0:0:0:0:
192,192,239258,1,0,0:0:0:0:
448,192,239408,1,8,0:0:0:0:
320,192,239558,1,0,0:0:0:0:
64,192,239708,1,0,0:0:0:0:
448,192,239858,1,2,0:0:0:0:
192,192,240008,1,8,0:0:0:0:
64,192,240158,128,0,241208:0:0:0:0:
192,192,241208,1,8,0:0:0:0:
448,192,241508,1,8,0:0:0:0:
64,192,241658,1,2,0:0:0:0:
448,192,241808,1,8,0:0:0:0:
64,192,241958,1,2,0:0:0:0:
320,192,242108,1,8,0:0:0:0:
192,192,242258,1,2,0:0:0:0:
320,192,242408,1,8,0:0:0:0:
192,192,242558,1,2,0:0:0:0:
64,192,242708,128,4,243008:0:0:0:0:
448,192,242708,1,2,0:0:0:0:
192,192,243008,1,8,0:0:0:0:
320,192,243158,128,0,243458:0:0:0:0:
64,192,243458,1,2,0:0:0:0:
192,192,243608,1,8,0:0:0:0:
448,192,243758,128,0,244058:0:0:0:0:
320,192,244058,1,0,0:0:0:0:
64,192,244208,1,8,0:0:0:0:
192,192,244358,1,0,0:0:0:0:
448,192,244508,1,0,0:0:0:0:
64,192,244658,1,2,0:0:0:0:
320,192,244808,1,8,0:0:0:0:
192,192,244958,128,0,246008:0:0:0:0:
448,192,246008,1,8,0:0:0:0:
64,192,246158,128,0,247208:0:0:0:0:
320,192,247208,1,8,0:0:0:0:
448,192,247508,128,2,247808:0:0:0:0:
320,192,247808,1,8,0:0:0:0:
192,192,247958,128,0,248258:0:0:0:0:
448,192,248258,1,2,0:0:0:0:
320,192,248408,1,8,0:0:0:0:
64,192,248558,128,0,248858:0:0:0:0:
192,192,248858,1,0,0:0:0:0:
448,192,249008,1,8,0:0:0:0:
320,192,249158,1,0,0:0:0:0:
192,192,249308,1,0,0:0:0:0:
448,192,249458,1,2,0:0:0:0:
320,192,249608,1,8,0:0:0:0:
64,192,249758,128,0,250808:0:0:0:0:
192,192,250808,1,8,0:0:0:0:
448,192,251108,1,8,0:0:0:0:
192,192,251258,1,2,0:0:0:0:
448,192,251408,1,8,0:0:0:0:
192,192,251558,1,2,0:0:0:0:
320,192,251708,1,8,0:0:0:0:
64,192,251858,1,2,0:0:0:0:
320,192,252008,1,8,0:0:0:0:
64,192,252158,1,2,0:0:0:0:
448,192,252308,128,0,252608:0:0:0:0:
320,192,252608,1,0,0:0:0:0:
192,192,252758,128,0,253058:0:0:0:0:
448,192,253058,1,0,0:0:0:0:
320,192,253208,1,0,0:0:0:0:
64,192,253358,128,0,253658:0:0:0:0:
320,192,253658,1,0,0:0:0:0:
448,192,253808,1,0,0:0:0:0:
320,192,253958,1,0,0:0:0:0:
64,192,254108,1,0,0:0:0:0:
192,192,254258,1,0,0:0:0:0:
320,192,254408,1,0,0:0:0:0:
448,192,254558,128,0,255608:0:0:0:0:
64,192,255608,1,0,0:0:0:0:
320,192,255758,128,0,256808:0:0:0:0:
192,192,256808,1,0,0:0:0:0:
448,192,257108,128,0,257408:0:0:0:0:
320,192,257408,1,0,0:0:0:0:
192,192,257558,128,0,257858:0:0:0:0:
448,192,257858,1,0,0:0:0:0:
320,192,258008,1,0,0:0:0:0:
64,192,258158,128,0,258458:0:0:0:0:
320,192,258458,1,0,0:0:0:0:
448,192,258608,1,0,0:0:0:0:
320,192,258758,1,0,0:0:0:0:
64,192,258908,1,0,0:0:0:0:
192,192,259058,1,0,0:0:0:0:
320,192,259208,1,0,0:0:0:0:
192,192,259358,128,0,260258:0:0:0:0:
64,192,260258,1,0,0:0:0:0:
320,192,260408,1,0,0:0:0:0:
448,192,260558,128,0,261608:0:0:0:0:
192,192,261608,1,0,0:0:0:0:
448,192,261908,1,2,0:0:0:0:
64,192,262208,1,8,0:0:0:0:
192,192,262358,1,2,0:0:0:0:
448,192,262658,1,8,0:0:0:0:
320,192,262808,1,2,0:0:0:0:
192,192,263108,1,2,0:0:0:0:
64,192,263408,1,8,0:0:0:0:
192,192,263558,1,2,0:0:0:0:
448,192,263858,1,8,0:0:0:0:
320,192,264008,1,2,0:0:0:0:
192,192,264308,1,2,0:0:0:0:
448,192,264608,1,8,0:0:0:0:
320,192,264758,1,2,0:0:0:0:
64,192,265058,1,8,0:0:0:0:
192,192,265208,1,2,0:0:0:0:
448,192,265508,1,2,0:0:0:0:
64,192,265508,1,4,0:0:0:0:
