osu file format v14

[General]
AudioFilename: audio.mp3
AudioLeadIn: 0
PreviewTime: 58840
Countdown: 0
SampleSet: Soft
StackLeniency: 0.6
Mode: 0
LetterboxInBreaks: 0
WidescreenStoryboard: 0

[Editor]
Bookmarks: 3640,9624,14424,21940,28824,31540,38424,78024,82840,87640,92424
DistanceSpacing: 0.8
BeatDivisor: 4
GridSize: 8
TimelineZoom: 1.9

[Metadata]
Title:Airborne Robots
TitleUnicode:Airborne Robots
Artist:F-777
ArtistUnicode:F-777
Creator:CookieBite
Version:Hytex's Another
Source:Geometry Dash Meltdown
Tags:f777 jesse valentine ludicrous speed game edit Underforest gary00737 InternalLight Hytex LowComboFC [_Drop_]
BeatmapID:1344191
BeatmapSetID:632505

[Difficulty]
HPDrainRate:6
CircleSize:3.8
OverallDifficulty:7.8
ApproachRate:9.1
SliderMultiplier:1.6
SliderTickRate:1

[Events]
//Background and Video events
0,0,"bg.jpg",0,0
//Break Periods
//Storyboard Layer 0 (Background)
//Storyboard Layer 1 (Fail)
//Storyboard Layer 2 (Pass)
//Storyboard Layer 3 (Foreground)
//Storyboard Sound Samples

[TimingPoints]
40,300,4,2,8,60,1,0
40,-142.857142857143,4,2,8,60,0,0
190,-142.857142857143,4,2,8,11,0,0
340,-142.857142857143,4,2,8,12,0,0
490,-142.857142857143,4,2,8,13,0,0
640,-142.857142857143,4,2,8,14,0,0
790,-142.857142857143,4,2,8,15,0,0
940,-142.857142857143,4,2,8,16,0,0
1090,-142.857142857143,4,2,8,17,0,0
1240,-142.857142857143,4,2,8,20,0,0
1390,-142.857142857143,4,2,8,21,0,0
1540,-142.857142857143,4,2,8,22,0,0
1690,-142.857142857143,4,2,8,23,0,0
1840,-142.857142857143,4,2,8,24,0,0
1990,-142.857142857143,4,2,8,25,0,0
2140,-142.857142857143,4,2,7,26,0,0
2290,-142.857142857143,4,2,7,27,0,0
2440,-142.857142857143,4,2,8,30,0,0
2590,-142.857142857143,4,2,8,31,0,0
2740,-142.857142857143,4,2,8,32,0,0
2890,-142.857142857143,4,2,8,33,0,0
3040,-142.857142857143,4,2,8,34,0,0
3190,-142.857142857143,4,2,8,35,0,0
3340,-142.857142857143,4,2,8,36,0,0
3490,-142.857142857143,4,2,8,37,0,0
3640,-142.857142857143,4,2,8,40,0,0
3790,-142.857142857143,4,2,8,41,0,0
3940,-142.857142857143,4,2,8,42,0,0
4090,-142.857142857143,4,2,8,43,0,0
4240,-142.857142857143,4,2,8,44,0,0
4390,-142.857142857143,4,2,8,45,0,0
4540,-142.857142857143,4,2,7,46,0,0
4690,-142.857142857143,4,2,7,47,0,0
4840,-142.857142857143,4,2,8,50,0,0
4990,-142.857142857143,4,2,8,51,0,0
5140,-142.857142857143,4,2,8,52,0,0
5290,-142.857142857143,4,2,8,53,0,0
5440,-142.857142857143,4,2,8,54,0,0
5590,-142.857142857143,4,2,8,55,0,0
5740,-142.857142857143,4,2,8,56,0,0
5890,-142.857142857143,4,2,8,57,0,0
6040,-142.857142857143,4,2,8,60,0,0
6190,-142.857142857143,4,2,8,61,0,0
6340,-142.857142857143,4,2,8,62,0,0
6490,-142.857142857143,4,2,8,63,0,0
6640,-142.857142857143,4,2,8,64,0,0
6790,-142.857142857143,4,2,8,65,0,0
6940,-142.857142857143,4,2,7,66,0,0
7090,-142.857142857143,4,2,7,67,0,0
7240,-142.857142857143,4,2,8,70,0,0
7390,-142.857142857143,4,2,8,71,0,0
7540,-142.857142857143,4,2,8,72,0,0
7690,-142.857142857143,4,2,8,73,0,0
7840,-142.857142857143,4,2,8,74,0,0
7990,-142.857142857143,4,2,8,75,0,0
8140,-142.857142857143,4,2,8,76,0,0
8290,-142.857142857143,4,2,8,77,0,0
8440,-142.857142857143,4,2,8,80,0,0
8590,-142.857142857143,4,2,8,81,0,0
8740,-142.857142857143,4,2,8,82,0,0
8890,-142.857142857143,4,2,8,83,0,0
9040,-142.857142857143,4,2,8,84,0,0
9190,-142.857142857143,4,2,8,85,0,0
9340,-142.857142857143,4,2,7,86,0,0
9640,-125,4,3,1,60,0,0
9715,-125,4,2,89,60,0,0
10840,-125,4,3,1,60,0,0
10915,-125,4,2,89,60,0,0
12040,-125,4,3,1,60,0,0
12115,-125,4,2,89,60,0,0
13240,-125,4,3,1,60,0,0
13315,-125,4,2,89,60,0,0
14440,-125,4,3,1,60,0,0
14515,-125,4,2,89,60,0,0
15640,-125,4,3,1,60,0,0
15715,-125,4,2,89,60,0,0
16840,-125,4,3,1,60,0,0
16915,-125,4,2,89,60,0,0
18040,-125,4,3,1,60,0,0
18115,-125,4,2,89,60,0,0
19240,-83.3333333333333,4,3,1,50,0,0
19690,-83.3333333333333,4,2,9,50,0,0
20140,-83.3333333333333,4,2,7,50,0,0
20590,-83.3333333333333,4,3,1,50,0,0
20890,-83.3333333333333,4,2,9,50,0,0
21340,-83.3333333333333,4,2,7,50,0,0
21640,-83.3333333333333,4,3,1,50,0,0
22090,-83.3333333333333,4,2,9,50,0,0
22540,-83.3333333333333,4,2,7,50,0,0
22840,-83.3333333333333,4,3,1,50,0,0
23290,-83.3333333333333,4,2,9,50,0,0
23740,-83.3333333333333,4,2,7,50,0,0
24040,-83.3333333333333,4,3,1,50,0,0
24490,-83.3333333333333,4,2,9,50,0,0
24940,-83.3333333333333,4,2,7,50,0,0
25240,-83.3333333333333,4,3,1,50,0,0
25690,-83.3333333333333,4,2,9,50,0,0
26140,-83.3333333333333,4,2,7,50,0,0
26440,-83.3333333333333,4,3,1,50,0,0
26890,-83.3333333333333,4,2,9,50,0,0
27340,-83.3333333333333,4,2,7,50,0,0
27640,-83.3333333333333,4,3,1,50,0,0
28090,-83.3333333333333,4,2,9,50,0,0
28540,-83.3333333333333,4,2,7,50,0,0
28840,-142.857142857143,4,2,1,52,0,0
29140,-142.857142857143,4,2,6,40,0,0
29440,-142.857142857143,4,3,1,40,0,0
29740,-142.857142857143,4,2,6,40,0,0
30040,-133.333333333333,4,2,1,55,0,0
30340,-133.333333333333,4,2,6,40,0,0
30640,-133.333333333333,4,3,1,40,0,0
30940,-133.333333333333,4,2,6,40,0,0
31240,-125,4,2,1,60,0,0
31540,-125,4,2,6,40,0,0
31840,-125,4,3,1,40,0,0
32140,-125,4,2,6,40,0,0
32440,-117.647058823529,4,2,1,62,0,0
32740,-117.647058823529,4,2,6,40,0,0
33040,-117.647058823529,4,3,1,40,0,0
33340,-117.647058823529,4,2,6,40,0,0
33640,-111.111111111111,4,2,1,65,0,0
33790,-111.111111111111,4,3,1,40,0,0
33940,-111.111111111111,4,2,6,40,0,0
34090,-111.111111111111,4,3,1,40,0,0
34540,-111.111111111111,4,2,6,40,0,0
34840,-111.111111111111,4,2,1,66,0,0
34990,-111.111111111111,4,3,1,40,0,0
35140,-111.111111111111,4,2,6,40,0,0
35290,-111.111111111111,4,3,1,40,0,0
35740,-111.111111111111,4,2,6,40,0,0
35890,-111.111111111111,4,3,1,40,0,0
36040,-105.263157894737,4,2,1,67,0,0
36115,-105.263157894737,4,3,1,67,0,0
37240,-99.9999999999999,4,3,1,69,0,0
38440,-76.9230769230769,4,3,1,80,0,1
38515,-66.6666666666667,4,3,1,70,0,1
38740,-76.9230769230769,4,2,1,70,0,1
38815,-76.9230769230769,4,3,1,70,0,1
39040,-66.6666666666667,4,3,1,70,0,1
39340,-66.6666666666667,4,2,1,70,0,1
39415,-66.6666666666667,4,3,1,70,0,1
39940,-62.5,4,2,1,70,0,1
40015,-62.5,4,3,1,70,0,1
40240,-58.8235294117647,4,3,1,70,0,1
40540,-58.8235294117647,4,2,1,70,0,1
40615,-58.8235294117647,4,3,1,70,0,1
40690,-66.6666666666667,4,3,1,70,0,1
40840,-66.6666666666667,4,3,1,80,0,1
40915,-66.6666666666667,4,3,1,70,0,1
41140,-66.6666666666667,4,2,1,70,0,1
41215,-66.6666666666667,4,3,1,70,0,1
41740,-66.6666666666667,4,2,1,70,0,1
41815,-66.6666666666667,4,3,1,70,0,1
42040,-62.5,4,3,1,70,0,1
42340,-58.8235294117647,4,2,1,70,0,1
42415,-58.8235294117647,4,3,1,70,0,1
42940,-58.8235294117647,4,2,1,70,0,1
43015,-58.8235294117647,4,3,1,70,0,1
43240,-66.6666666666667,4,3,1,80,0,1
43315,-66.6666666666667,4,3,1,70,0,1
43540,-66.6666666666667,4,2,1,70,0,1
43615,-66.6666666666667,4,3,1,70,0,1
44140,-62.5,4,2,1,70,0,1
44215,-62.5,4,3,1,70,0,1
44440,-58.8235294117647,4,3,1,70,0,1
44740,-55.5555555555556,4,2,1,70,0,1
44815,-55.5555555555556,4,3,1,70,0,1
45340,-55.5555555555556,4,2,1,70,0,1
45415,-55.5555555555556,4,3,1,70,0,1
45640,-66.6666666666667,4,3,1,80,0,1
45715,-66.6666666666667,4,3,1,70,0,1
45940,-66.6666666666667,4,2,1,70,0,1
46015,-66.6666666666667,4,3,1,70,0,1
46540,-66.6666666666667,4,2,1,70,0,1
46615,-66.6666666666667,4,3,1,70,0,1
46840,-100,4,2,0,60,0,0
48040,-62.5,4,3,1,80,0,1
48340,-62.5,4,2,2,80,0,1
48415,-62.5,4,3,1,80,0,1
48940,-62.5,4,2,2,80,0,1
49015,-62.5,4,3,1,80,0,1
49540,-62.5,4,2,2,80,0,1
49615,-62.5,4,3,1,80,0,1
50140,-62.5,4,2,2,80,0,1
50215,-62.5,4,3,1,80,0,1
50740,-62.5,4,2,2,80,0,1
50815,-62.5,4,3,1,80,0,1
51340,-62.5,4,2,2,80,0,1
51415,-62.5,4,3,1,80,0,1
51940,-62.5,4,2,2,80,0,1
52015,-62.5,4,3,1,80,0,1
52540,-62.5,4,2,2,80,0,1
52615,-62.5,4,3,1,80,0,1
53140,-62.5,4,2,2,80,0,1
53215,-62.5,4,3,1,80,0,1
53740,-62.5,4,2,2,80,0,1
53815,-62.5,4,3,1,80,0,1
54340,-62.5,4,2,2,80,0,1
54415,-62.5,4,3,1,80,0,1
54940,-62.5,4,2,2,80,0,1
55015,-62.5,4,3,1,80,0,1
55540,-62.5,4,2,2,80,0,1
55615,-62.5,4,3,1,80,0,1
56140,-62.5,4,2,2,80,0,1
56215,-62.5,4,3,1,70,0,1
56440,-100,4,3,1,50,0,0
57340,-100,4,3,2,50,0,0
57415,-100,4,3,1,50,0,0
58540,-142.857142857143,4,3,2,50,0,0
58615,-142.857142857143,4,3,1,50,0,0
58765,-142.857142857143,4,3,1,50,0,0
58840,-76.9230769230769,4,3,1,70,0,1
59140,-76.9230769230769,4,2,3,70,0,1
59215,-76.9230769230769,4,3,1,70,0,1
59740,-76.9230769230769,4,2,3,70,0,1
59815,-76.9230769230769,4,3,1,70,0,1
60340,-76.9230769230769,4,2,3,70,0,1
60415,-76.9230769230769,4,3,1,70,0,1
60940,-76.9230769230769,4,2,3,70,0,1
61015,-76.9230769230769,4,3,1,70,0,1
61540,-76.9230769230769,4,2,3,70,0,1
61615,-76.9230769230769,4,3,1,70,0,1
62140,-76.9230769230769,4,2,3,70,0,1
62215,-76.9230769230769,4,3,1,70,0,1
62740,-76.9230769230769,4,2,3,70,0,1
62815,-76.9230769230769,4,3,1,70,0,1
63340,-76.9230769230769,4,2,3,70,0,1
63415,-76.9230769230769,4,3,1,70,0,1
63940,-76.9230769230769,4,2,3,70,0,1
64015,-76.9230769230769,4,3,1,70,0,1
64540,-76.9230769230769,4,2,3,70,0,1
64615,-76.9230769230769,4,3,1,70,0,1
65140,-76.9230769230769,4,2,3,70,0,1
65215,-76.9230769230769,4,3,1,70,0,1
65740,-76.9230769230769,4,2,3,70,0,1
65815,-76.9230769230769,4,3,1,70,0,1
66340,-76.9230769230769,4,2,3,70,0,1
66415,-76.9230769230769,4,3,1,70,0,1
66940,-76.9230769230769,4,2,3,70,0,1
67015,-76.9230769230769,4,3,1,70,0,1
67240,-100,4,3,1,70,0,0
68440,-166.666666666667,4,2,89,40,0,0
72940,-100,4,2,89,40,0,0
73240,-142.857142857143,4,2,89,50,0,0
75640,-125,4,3,1,60,0,0
76240,-111.111111111111,4,3,1,65,0,0
76840,-166.666666666667,4,3,1,50,0,0
78040,-100,4,3,1,60,0,0
78340,-100,4,2,3,60,0,0
78415,-100,4,3,1,60,0,0
78940,-100,4,2,3,60,0,0
79015,-100,4,3,1,60,0,0
79540,-100,4,2,3,60,0,0
79615,-100,4,3,1,60,0,0
80140,-100,4,2,3,60,0,0
80215,-100,4,3,1,60,0,0
80740,-100,4,2,3,60,0,0
80815,-100,4,3,1,60,0,0
81340,-100,4,2,3,60,0,0
81415,-100,4,3,1,60,0,0
81940,-100,4,2,3,60,0,0
82015,-100,4,3,1,60,0,0
82540,-100,4,2,3,60,0,0
82615,-100,4,3,1,60,0,0
83140,-100,4,2,3,60,0,0
83215,-100,4,3,1,60,0,0
83740,-100,4,2,3,60,0,0
83815,-100,4,3,1,60,0,0
84340,-100,4,2,3,60,0,0
84415,-100,4,3,1,60,0,0
84940,-100,4,2,3,60,0,0
85015,-100,4,3,1,60,0,0
85540,-100,4,2,3,60,0,0
85615,-100,4,3,1,60,0,0
86140,-100,4,2,3,60,0,0
86215,-100,4,3,1,60,0,0
86440,-166.666666666667,4,3,1,50,0,0
87640,-100,4,3,1,60,0,0
87940,-100,4,2,3,60,0,0
88015,-100,4,3,1,60,0,0
88540,-100,4,2,3,60,0,0
88615,-100,4,3,1,60,0,0
89140,-100,4,2,3,60,0,0
89215,-100,4,3,1,60,0,0
89740,-100,4,2,3,60,0,0
89815,-100,4,3,1,60,0,0
90340,-100,4,2,3,60,0,0
90415,-100,4,3,1,60,0,0
90940,-100,4,2,3,60,0,0
91015,-100,4,3,1,60,0,0
91540,-100,4,2,3,60,0,0
91615,-100,4,3,1,60,0,0
92140,-100,4,2,3,60,0,0
92215,-100,4,3,1,60,0,0
92440,-100,4,2,2,70,0,0

[Colours]
Combo1 : 255,62,62
Combo2 : 32,242,237
Combo3 : 92,164,228
Combo4 : 166,123,230

[HitObjects]
111,190,40,6,0,P|144:184|176:168,7,55.9999982910157,10|2|10|2|10|2|10|2,0:0|0:0|0:0|0:0|0:0|0:0|0:0|0:0,0:0:0:0:
250,214,1240,2,0,P|283:220|315:236,5,55.9999982910157,10|2|10|2|10|2,0:0|0:0|0:0|0:0|0:0|0:0,0:0:0:0:
396,209,2140,2,0,L|392:131,1,55.9999982910157,2|2,0:0|0:0,0:0:0:0:
332,71,2440,6,0,L|264:64,7,55.9999982910157,10|2|10|2|10|2|10|2,0:0|0:0|0:0|0:0|0:0|0:0|0:0|0:0,0:0:0:0:
204,130,3640,2,0,L|136:137,5,55.9999982910157,10|2|10|2|10|2,0:0|0:0|0:0|0:0|0:0|0:0,0:0:0:0:
53,147,4540,2,0,P|66:191|63:223,1,55.9999982910157,2|2,0:0|0:0,0:0:0:0:
68,297,4840,6,0,B|105:301|105:301|148:293,7,55.9999982910157,10|2|10|2|10|2|10|2,0:0|0:0|0:0|0:0|0:0|0:0|0:0|0:0,0:0:0:0:
205,237,6040,2,0,B|242:233|242:233|285:241,5,55.9999982910157,10|2|10|2|10|2,0:0|0:0|0:0|0:0|0:0|0:0,0:0:0:0:
332,300,6940,2,0,L|408:297,1,55.9999982910157,2|2,0:0|0:0,0:0:0:0:
465,180,7240,6,0,P|429:186|396:187,7,55.9999982910157,10|2|10|2|10|2|10|2,0:0|0:0|0:0|0:0|0:0|0:0|0:0|0:0,0:0:0:0:
333,127,8440,2,0,P|297:121|264:120,5,55.9999982910157,10|2|10|2|10|2,0:0|0:0|0:0|0:0|0:0|0:0,0:0:0:0:
195,173,9340,2,0,L|117:164,1,55.9999982910157,2|2,0:0|0:0,0:0:0:0:
75,289,9640,5,0,0:0:0:0:
167,275,9790,1,0,0:0:0:0:
241,338,9940,1,0,0:0:0:0:
337,322,10090,1,0,0:0:0:0:
397,241,10240,5,0,0:0:0:0:
404,216,10315,1,0,0:0:0:0:
402,190,10390,1,0,0:0:0:0:
394,165,10465,1,0,0:0:0:0:
376,146,10540,2,0,L|325:138,3,32,0|0|0|0,0:0|0:0|0:0|0:0,0:0:0:0:
261,100,10840,5,0,0:0:0:0:
196,169,10990,1,0,0:0:0:0:
101,134,11140,1,0,0:0:0:0:
40,215,11290,1,0,0:0:0:0:
97,298,11440,5,0,0:0:0:0:
120,307,11515,1,0,0:0:0:0:
145,309,11590,1,0,0:0:0:0:
170,305,11665,1,0,0:0:0:0:
193,294,11740,2,0,L|206:246,3,32,0|0|0|0,0:0|0:0|0:0|0:0,0:0:0:0:
263,194,12040,5,0,0:0:0:0:
350,246,12190,1,0,0:0:0:0:
406,153,12340,1,0,0:0:0:0:
318,98,12490,1,0,0:0:0:0:
263,194,12640,5,0,0:0:0:0:
254,218,12715,1,0,0:0:0:0:
257,243,12790,1,0,0:0:0:0:
270,264,12865,1,0,0:0:0:0:
290,278,12940,2,0,L|349:276,3,32,0|0|0|0,0:0|0:0|0:0|0:0,0:0:0:0:
421,271,13240,5,0,0:0:0:0:
449,175,13390,1,0,0:0:0:0:
395,80,13540,2,0,L|358:79,3,32,0|0|0|0,0:0|0:0|0:0|0:0,0:0:0:0:
337,78,13840,1,0,0:0:0:0:
312,83,13915,1,0,0:0:0:0:
289,94,13990,1,0,0:0:0:0:
270,112,14065,1,0,0:0:0:0:
257,134,14140,2,0,P|253:175|258:189,3,32,0|0|0|0,0:0|0:0|0:0|0:0,0:0:0:0:
305,240,14440,5,0,0:0:0:0:
217,286,14590,1,0,0:0:0:0:
122,258,14740,1,0,0:0:0:0:
34,298,14890,1,0,0:0:0:0:
41,200,15040,5,0,0:0:0:0:
50,176,15115,1,0,0:0:0:0:
71,162,15190,1,0,0:0:0:0:
94,152,15265,1,0,0:0:0:0:
119,150,15340,2,0,L|179:154,3,32,0|0|0|0,0:0|0:0|0:0|0:0,0:0:0:0:
235,205,15640,5,0,0:0:0:0:
299,122,15790,1,0,0:0:0:0:
398,148,15940,1,0,0:0:0:0:
466,70,16090,1,0,0:0:0:0:
499,166,16240,5,0,0:0:0:0:
492,190,16315,1,0,0:0:0:0:
486,215,16390,1,0,0:0:0:0:
480,240,16465,1,0,0:0:0:0:
472,264,16540,2,0,L|441:288,3,32,0|0|0|0,0:0|0:0|0:0|0:0,0:0:0:0:
365,306,16840,5,0,0:0:0:0:
269,317,16990,1,0,0:0:0:0:
195,257,17140,1,0,0:0:0:0:
95,268,17290,1,0,0:0:0:0:
194,178,17440,5,0,0:0:0:0:
219,182,17515,1,0,0:0:0:0:
241,193,17590,1,0,0:0:0:0:
259,210,17665,1,0,0:0:0:0:
271,232,17740,2,0,L|285:285,3,32,0|0|0|0,0:0|0:0|0:0|0:0,0:0:0:0:
353,327,18040,5,0,0:0:0:0:
403,243,18190,1,0,0:0:0:0:
349,153,18340,1,0,0:0:0:0:
387,62,18490,1,0,0:0:0:0:
191,50,18640,5,0,0:0:0:0:
179,72,18715,1,0,0:0:0:0:
183,97,18790,1,0,0:0:0:0:
200,115,18865,1,0,0:0:0:0:
224,122,18940,2,0,L|280:115,3,32,0|0|0|0,0:0|0:0|0:0|0:0,0:0:0:0:
276,210,19240,6,0,L|160:218,1,95.9999970703126,4|0,0:0|0:0,0:0:0:0:
437,254,19540,1,0,0:0:0:0:
437,254,19690,2,0,P|456:201|406:123,1,143.999995605469,2|0,0:0|0:0,0:0:0:0:
398,117,19990,1,0,0:0:0:0:
368,199,20140,1,2,0:0:0:0:
152,70,20290,6,0,L|312:64,1,143.999995605469,0|0,0:0|0:0,0:0:0:0:
319,61,20590,1,0,0:0:0:0:
180,216,20740,1,0,0:0:0:0:
58,61,20890,2,0,L|65:170,1,95.9999970703126,2|0,0:0|0:0,0:0:0:0:
23,246,21190,1,0,0:0:0:0:
95,313,21340,1,2,0:0:0:0:
180,216,21490,1,0,0:0:0:0:
300,352,21640,6,0,P|288:311|227:267,1,95.9999970703126,0|0,0:0|0:0,0:0:0:0:
201,363,21940,1,0,0:0:0:0:
390,325,22090,1,2,0:0:0:0:
250,169,22240,5,0,0:0:0:0:
300,352,22390,1,0,0:0:0:0:
347,211,22540,1,2,0:0:0:0:
175,292,22690,1,0,0:0:0:0:
429,254,22840,6,0,P|439:201|420:154,1,95.9999970703126,0|0,0:0|0:0,0:0:0:0:
299,102,23140,1,0,0:0:0:0:
347,211,23290,1,2,0:0:0:0:
367,44,23440,1,0,0:0:0:0:
238,159,23590,1,0,0:0:0:0:
347,211,23740,2,0,P|397:193|429:153,1,95.9999970703126,2|0,0:0|0:0,0:0:0:0:
238,159,24040,6,0,B|216:199|240:241|240:241|252:267|252:267|269:308|232:367,1,191.999994140625,0|0,0:0|0:0,0:0:0:0:
73,300,24490,2,0,L|187:289,1,95.9999970703126,2|0,0:0|0:0,0:0:0:0:
361,260,24790,1,0,0:0:0:0:
245,341,24940,1,2,0:0:0:0:
377,169,25090,6,0,P|441:209|412:344,1,191.999994140625,0|0,0:0|0:0,0:0:0:0:
361,260,25540,1,0,0:0:0:0:
286,198,25690,2,0,L|299:71,1,95.9999970703126,2|0,0:0|0:0,0:0:0:0:
204,241,25990,1,0,0:0:0:0:
278,302,26140,1,2,0:0:0:0:
204,241,26290,1,0,0:0:0:0:
361,260,26440,6,0,P|374:304|347:366,1,95.9999970703126,0|0,0:0|0:0,0:0:0:0:
286,198,26740,2,0,L|298:77,1,95.9999970703126,0|2,0:0|0:0,0:0:0:0:
123,71,27040,1,0,0:0:0:0:
202,125,27190,1,0,0:0:0:0:
95,249,27340,2,0,L|-12:244,1,95.9999970703126,2|0,0:0|0:0,0:0:0:0:
144,352,27640,6,0,L|351:343,1,191.999994140625,0|0,0:0|0:0,0:0:0:0:
433,338,28090,1,2,0:0:0:0:
473,216,28240,2,0,P|478:158|465:116,1,95.9999970703126,0|0,0:0|0:0,0:0:0:0:
321,53,28540,2,0,P|309:99|315:146,1,95.9999970703126,2|0,0:0|0:0,0:0:0:0:
369,233,28840,5,4,0:0:0:0:
274,262,29140,1,8,0:0:0:0:
169,236,29440,1,0,0:0:0:0:
71,257,29740,1,8,0:0:0:0:
184,210,30040,5,4,0:0:0:0:
157,82,30340,1,8,0:0:0:0:
30,104,30640,1,0,0:0:0:0:
47,231,30940,1,8,0:0:0:0:
210,210,31240,5,4,0:0:0:0:
305,237,31540,1,8,0:0:0:0:
403,215,31840,1,0,0:0:0:0:
467,143,32140,1,8,0:0:0:0:
292,55,32440,5,4,0:0:0:0:
278,172,32740,1,8,0:0:0:0:
361,255,33040,1,0,0:0:0:0:
347,373,33340,1,8,0:0:0:0:
345,232,33640,6,0,L|357:145,1,71.9999978027344,4|0,0:0|0:0,0:0:0:0:
235,89,33940,2,0,L|247:176,1,71.9999978027344,8|0,0:0|0:0,0:0:0:0:
179,246,34240,1,0,0:0:0:0:
179,246,34390,1,2,0:0:0:0:
96,192,34540,1,8,0:0:0:0:
96,192,34690,1,0,0:0:0:0:
152,335,34840,6,0,P|203:335|246:306,1,71.9999978027344,4|0,0:0|0:0,0:0:0:0:
302,271,35140,2,0,P|353:271|396:300,1,71.9999978027344,8|0,0:0|0:0,0:0:0:0:
461,229,35440,1,0,0:0:0:0:
461,229,35590,1,0,0:0:0:0:
428,134,35740,1,8,0:0:0:0:
428,134,35890,1,0,0:0:0:0:
333,177,36040,6,0,P|310:178|285:175,7,37.9999989852906,4|0|0|0|0|0|0|0,0:0|0:0|0:0|0:0|0:0|0:0|0:0|0:0,0:0:0:0:
256,159,36640,2,0,P|233:158|208:161,7,37.9999989852906,0|0|0|0|0|0|0|0,0:0|0:0|0:0|0:0|0:0|0:0|0:0|0:0,0:0:0:0:
177,172,37240,6,0,L|183:202,14,20,4|0|0|0|0|0|0|0|0|0|0|0|0|0|0,0:0|0:0|0:0|0:0|0:0|0:0|0:0|0:0|0:0|0:0|0:0|0:0|0:0|0:0|0:0,0:0:0:0:
188,202,37840,2,0,L|184:221,14,20,0|0|0|0|0|0|0|0|0|0|0|0|0|0|0,0:0|0:0|0:0|0:0|0:0|0:0|0:0|0:0|0:0|0:0|0:0|0:0|0:0|0:0|0:0,0:0:0:0:
175,249,38440,6,0,L|116:257,2,51.999997619629,4|0|0,1:0|0:0|0:0,0:0:0:0:
239,176,38740,2,0,L|391:195,1,103.999995239258,8|0,0:0|0:0,0:0:0:0:
356,166,38965,1,2,0:0:0:0:
356,166,39040,6,0,L|199:147,1,120.000004577637,0|0,0:0|0:0,0:0:0:0:
81,220,39340,5,8,0:0:0:0:
81,220,39415,1,0,0:0:0:0:
81,220,39490,2,0,L|146:225,1,60.0000022888184,0|2,0:0|0:0,0:0:0:0:
206,297,39640,6,0,P|273:289|330:216,1,120.000004577637,0|0,0:0|0:0,0:0:0:0:
414,244,39865,1,0,0:0:0:0:
414,244,39940,2,0,P|425:174|389:111,1,128,8|0,0:0|0:0,0:0:0:0:
323,65,40165,1,2,0:0:0:0:
323,65,40240,2,0,L|130:69,1,136.000002593994,0|0,0:0|0:0,0:0:0:0:
250,208,40540,5,8,0:0:0:0:
250,208,40615,1,0,0:0:0:0:
250,208,40690,2,0,P|260:173|261:135,1,60.0000022888184,0|2,0:0|0:0,0:0:0:0:
127,148,40840,6,0,B|131:177|116:209|116:209|124:242|152:273,1,120.000004577637,4|0,1:0|0:0,0:0:0:0:
244,359,41140,6,0,L|249:267,2,60.0000022888184,8|0|0,0:0|0:0|0:0,0:0:0:0:
377,235,41440,6,0,P|392:204|398:166,1,60.0000022888184,0|2,0:0|0:0,0:0:0:0:
306,138,41590,2,0,P|291:169|285:207,1,60.0000022888184,0|0,0:0|0:0,0:0:0:0:
367,85,41740,6,0,L|209:85,1,120.000004577637,8|0,0:0|0:0,0:0:0:0:
161,46,41965,1,2,0:0:0:0:
161,46,42040,2,0,P|98:84|79:164,1,128,0|0,0:0|0:0,0:0:0:0:
5,188,42265,1,0,0:0:0:0:
5,188,42340,2,0,P|20:261|99:310,1,136.000002593994,8|0,0:0|0:0,0:0:0:0:
144,360,42565,1,2,0:0:0:0:
144,360,42640,6,0,L|237:352,1,68.0000012969971,0|2,0:0|0:0,0:0:0:0:
270,265,42790,2,0,L|177:257,1,68.0000012969971,0|0,0:0|0:0,0:0:0:0:
121,176,42940,2,0,L|286:161,1,136.000002593994,8|0,0:0|0:0,0:0:0:0:
352,193,43165,1,2,0:0:0:0:
356,198,43240,6,0,B|374:193|384:174|384:174|403:215|376:265,1,120.000004577637,4|0,1:0|0:0,0:0:0:0:
448,104,43540,6,0,L|437:31,2,60.0000022888184,8|0|0,0:0|0:0|0:0,0:0:0:0:
382,251,43840,2,0,L|228:246,1,120.000004577637,0|0,0:0|0:0,0:0:0:0:
248,224,44065,1,0,0:0:0:0:
248,224,44140,6,0,L|388:229,1,128,8|0,0:0|0:0,0:0:0:0:
458,175,44365,1,2,0:0:0:0:
458,175,44440,6,0,P|432:116|360:91,1,136.000002593994,0|0,0:0|0:0,0:0:0:0:
292,43,44665,1,0,0:0:0:0:
292,43,44740,2,0,P|214:57|163:144,1,143.999995605469,8|0,0:0|0:0,0:0:0:0:
132,195,44965,1,2,0:0:0:0:
132,195,45040,6,0,L|140:299,1,71.9999978027344,0|2,0:0|0:0,0:0:0:0:
241,324,45190,2,0,L|249:220,1,71.9999978027344,0|0,0:0|0:0,0:0:0:0:
344,158,45340,2,0,L|364:318,1,143.999995605469,8|0,0:0|0:0,0:0:0:0:
448,342,45565,1,2,0:0:0:0:
448,342,45640,6,0,B|480:334|497:284|497:284|469:278|437:287,1,120.000004577637,4|0,1:0|0:0,0:0:0:0:
344,158,45940,6,0,L|420:143,1,60.0000022888184,8|0,0:0|0:0,0:0:0:0:
361,300,46090,2,0,L|285:285,1,60.0000022888184,0|2,0:0|0:0,0:0:0:0:
224,145,46240,2,0,L|344:158,1,120.000004577637,0|0,0:0|0:0,0:0:0:0:
302,288,46540,2,0,L|143:304,1,120.000004577637,8|0,0:0|0:0,0:0:0:0:
182,300,46765,1,2,0:0:0:0:
188,308,46840,6,0,L|120:304,5,40,2|0|0|0|0|0,0:0|0:0|0:0|0:0|0:0|0:0,0:0:0:0:
86,241,47290,1,2,0:0:0:0:
126,155,47440,2,0,L|130:107,2,40,0|0|0,0:0|0:0|0:0,0:0:0:0:
86,241,47740,2,0,P|55:219|33:173,1,80,0|0,0:0|0:0,0:0:0:0:
234,327,48040,6,0,P|301:321|356:197,1,192,4|0,1:0|0:0,0:0:0:0:
317,143,48340,2,0,L|324:65,2,64,8|0|0,0:0|0:0|0:0,0:0:0:0:
259,220,48640,1,0,0:0:0:0:
259,220,48715,1,2,0:0:0:0:
259,220,48790,1,0,0:0:0:0:
194,142,48940,2,0,L|51:137,1,128,8|0,0:0|0:0,0:0:0:0:
23,223,49165,1,2,0:0:0:0:
23,223,49240,6,0,P|56:306|126:326,1,128,0|0,0:0|0:0,0:0:0:0:
189,334,49465,1,0,0:0:0:0:
189,334,49540,2,0,L|267:339,2,64,8|0|0,0:0|0:0|0:0,0:0:0:0:
86,218,49840,2,0,L|11:223,2,64,0|2|0,0:0|0:0|0:0,0:0:0:0:
195,166,50140,6,0,L|340:164,1,128,8|0,0:0|0:0,0:0:0:0:
414,202,50365,1,2,0:0:0:0:
414,202,50440,2,0,P|452:149|433:73,1,128,4|0,1:0|0:0,0:0:0:0:
361,22,50665,1,0,0:0:0:0:
361,22,50740,2,0,P|353:68|369:102,2,64,8|0|0,0:0|0:0|0:0,0:0:0:0:
454,97,51040,1,0,0:0:0:0:
454,97,51115,1,2,0:0:0:0:
454,97,51190,1,0,0:0:0:0:
337,217,51340,6,0,L|168:216,1,128,8|0,0:0|0:0,0:0:0:0:
130,175,51565,1,2,0:0:0:0:
130,175,51640,2,0,P|149:146|132:53,1,128,0|0,0:0|0:0,0:0:0:0:
44,49,51865,1,0,0:0:0:0:
44,49,51940,2,0,L|69:131,1,64,8|0,0:0|0:0,0:0:0:0:
130,175,52090,2,0,L|105:257,1,64,0|2,0:0|0:0,0:0:0:0:
41,304,52240,6,0,B|59:314|68:329|68:329|90:330|113:342,2,64,0|2|0,0:0|0:0|0:0,0:0:0:0:
183,302,52540,6,0,B|223:306|249:290|249:290|279:311|366:298,1,128,8|0,0:0|0:0,0:0:0:0:
392,260,52765,1,2,0:0:0:0:
392,260,52840,6,0,P|417:200|383:128,1,128,4|0,1:0|0:0,0:0:0:0:
316,93,53065,1,0,0:0:0:0:
316,93,53140,2,0,L|321:21,2,64,8|0|0,0:0|0:0|0:0,0:0:0:0:
266,172,53440,2,0,L|271:244,2,64,0|2|0,0:0|0:0|0:0,0:0:0:0:
142,115,53740,6,0,P|150:195|212:238,1,128,8|0,0:0|0:0,0:0:0:0:
276,240,53965,1,2,0:0:0:0:
276,240,54040,6,0,L|446:237,1,128,0|0,0:0|0:0,0:0:0:0:
492,201,54265,1,0,0:0:0:0:
492,201,54340,2,0,P|496:166|489:128,2,64,8|0|0,0:0|0:0|0:0,0:0:0:0:
397,149,54640,1,0,0:0:0:0:
397,149,54715,1,2,0:0:0:0:
397,149,54790,1,0,0:0:0:0:
266,75,54940,6,0,L|105:73,1,128,8|0,0:0|0:0,0:0:0:0:
41,71,55165,1,2,0:0:0:0:
41,71,55240,2,0,P|19:132|54:207,1,128,4|0,1:0|0:0,0:0:0:0:
119,243,55465,1,0,0:0:0:0:
119,243,55540,2,0,P|125:280|115:317,2,64,8|0|0,0:0|0:0|0:0,0:0:0:0:
37,189,55840,2,0,P|31:152|41:115,2,64,0|2|0,0:0|0:0|0:0,0:0:0:0:
175,109,56140,6,0,L|356:118,1,128,8|0,0:0|0:0,0:0:0:0:
302,115,56365,1,2,0:0:0:0:
302,115,56440,6,0,L|297:258,1,120,8|0,0:0|0:0,0:0:0:0:
297,254,56740,1,0,0:0:0:0:
416,335,56890,6,0,L|410:192,1,120,8|0,0:0|0:0,0:0:0:0:
410,196,57190,1,0,0:0:0:0:
230,235,57340,2,0,P|275:270|321:271,1,80,8|0,0:0|0:0,0:0:0:0:
170,177,57640,6,0,P|146:241|178:303,1,120,8|0,0:0|0:0,0:0:0:0:
175,301,57940,1,0,0:0:0:0:
261,161,58090,6,0,L|254:28,1,120,8|0,0:0|0:0,0:0:0:0:
252,22,58390,1,0,0:0:0:0:
425,129,58540,6,0,L|420:237,1,83.9999974365235,8|0,0:0|0:0,0:0:0:0:
374,289,58840,6,0,P|306:271|208:316,1,155.999992858887,4|0,1:0|0:0,0:0:0:0:
165,366,59140,2,0,P|107:353|75:322,1,103.999995239258,8|0,0:0|0:0,0:0:0:0:
45,232,59365,1,2,0:0:0:0:
45,232,59440,2,0,L|48:164,2,51.999997619629,0|2|0,0:0|0:0|0:0,0:0:0:0:
75,323,59740,1,8,0:0:0:0:
227,297,59890,6,0,L|209:77,1,207.999990478516,0|0,0:0|0:0,0:0:0:0:
281,35,60265,1,0,0:0:0:0:
281,35,60340,2,0,L|340:40,1,51.999997619629,8|0,0:0|0:0,0:0:0:0:
210,89,60490,2,0,L|151:94,1,51.999997619629,0|2,0:0|0:0,0:0:0:0:
74,40,60640,2,0,P|119:88|79:191,1,155.999992858887,0|0,0:0|0:0,0:0:0:0:
85,198,60940,1,8,0:0:0:0:
221,178,61090,6,0,B|285:164|285:164|359:198|359:198|437:183,1,207.999990478516,0|0,0:0|0:0,0:0:0:0:
508,162,61465,1,0,0:0:0:0:
508,162,61540,2,0,P|475:118|444:107,1,51.999997619629,8|0,0:0|0:0,0:0:0:0:
410,55,61690,2,0,P|366:88|355:119,1,51.999997619629,0|2,0:0|0:0,0:0:0:0:
305,161,61840,2,0,L|322:361,1,155.999992858887,0|0,0:0|0:0,0:0:0:0:
321,350,62140,1,8,0:0:0:0:
215,222,62290,6,0,B|115:169|116:262|8:206,1,207.999990478516,0|0,0:0|0:0,0:0:0:0:
75,130,62665,1,0,0:0:0:0:
75,130,62740,2,0,P|111:115|143:112,3,51.999997619629,8|0|0|2,0:0|0:0|0:0|0:0,0:0:0:0:
219,124,63040,2,0,P|277:140|350:104,1,103.999995239258,0|0,0:0|0:0,0:0:0:0:
416,18,63340,2,0,L|477:26,1,51.999997619629,8|0,0:0|0:0,0:0:0:0:
502,112,63490,2,0,L|441:120,1,51.999997619629,0|0,0:0|0:0,0:0:0:0:
273,47,63640,6,0,L|269:228,1,155.999992858887,4|0,1:0|0:0,0:0:0:0:
270,230,63940,1,8,0:0:0:0:
308,326,64090,2,0,B|256:345|210:311|210:311|160:271|97:296,1,207.999990478516,0|0,0:0|0:0,0:0:0:0:
8,238,64540,2,0,L|1:164,1,51.999997619629,8|0,0:0|0:0,0:0:0:0:
61,120,64690,6,0,P|86:177|221:155,1,207.999990478516,0|0,0:0|0:0,0:0:0:0:
244,73,65065,1,0,0:0:0:0:
244,73,65140,2,0,L|314:61,1,51.999997619629,8|0,0:0|0:0,0:0:0:0:
378,124,65290,2,0,L|448:112,1,51.999997619629,0|2,0:0|0:0,0:0:0:0:
404,217,65440,2,0,L|288:205,1,103.999995239258,0|0,0:0|0:0,0:0:0:0:
214,198,65740,1,8,0:0:0:0:
75,95,65890,6,0,B|94:61|123:53|123:53|164:120|100:234,1,207.999990478516,0|0,0:0|0:0,0:0:0:0:
61,270,66265,1,0,0:0:0:0:
61,270,66340,2,0,L|130:293,1,51.999997619629,8|0,0:0|0:0,0:0:0:0:
205,259,66490,2,0,L|274:282,1,51.999997619629,0|2,0:0|0:0,0:0:0:0:
357,301,66640,2,0,P|377:253|362:197,1,103.999995239258,0|0,0:0|0:0,0:0:0:0:
253,84,66940,2,0,P|242:134|262:181,1,103.999995239258,8|0,0:0|0:0,0:0:0:0:
434,149,67240,5,8,0:0:0:0:
398,55,67390,1,0,0:0:0:0:
366,203,67540,1,8,0:0:0:0:
332,125,67690,1,0,0:0:0:0:
457,235,67840,5,8,0:0:0:0:
391,308,67990,1,0,0:0:0:0:
262,181,68140,1,8,0:0:0:0:
366,203,68290,1,0,0:0:0:0:
296,292,68440,6,0,L|237:299,1,47.9999985351563,4|0,1:0|0:0,0:0:0:0:
173,253,68740,2,0,L|114:246,1,47.9999985351563,0|0,0:0|0:0,0:0:0:0:
44,278,69040,2,0,P|39:229|69:178,1,95.9999970703126,2|0,0:0|0:0,0:0:0:0:
145,162,69490,1,0,0:0:0:0:
145,162,69640,6,0,P|150:113|120:62,1,95.9999970703126,0|0,0:0|0:0,0:0:0:0:
184,2,70090,1,0,0:0:0:0:
184,2,70240,2,0,L|299:9,1,95.9999970703126,2|0,0:0|0:0,0:0:0:0:
367,17,70690,1,0,0:0:0:0:
452,31,70840,6,0,P|457:69|452:93,1,47.9999985351563,0|0,0:0|0:0,0:0:0:0:
387,135,71140,2,0,P|382:173|387:197,1,47.9999985351563,0|0,0:0|0:0,0:0:0:0:
428,259,71440,2,0,P|393:272|372:272,1,47.9999985351563,2|0,0:0|0:0,0:0:0:0:
303,234,71740,2,0,P|268:221|247:221,1,47.9999985351563,0|0,0:0|0:0,0:0:0:0:
179,265,72040,5,0,0:0:0:0:
97,306,72190,1,0,0:0:0:0:
143,187,72340,1,0,0:0:0:0:
18,165,72490,1,0,0:0:0:0:
174,100,72640,2,0,P|210:118|223:139,1,47.9999985351563,2|0,0:0|0:0,0:0:0:0:
236,214,72865,1,0,0:0:0:0:
236,214,72940,6,0,L|347:211,1,80,2|0,0:0|0:0,0:0:0:0:
381,148,73240,6,0,L|442:146,1,55.9999982910157,0|0,0:0|0:0,0:0:0:0:
460,239,73540,2,0,L|399:237,1,55.9999982910157,0|0,0:0|0:0,0:0:0:0:
315,211,73840,2,0,P|263:221|220:285,1,111.999996582031,2|0,0:0|0:0,0:0:0:0:
194,355,74290,1,0,0:0:0:0:
194,355,74440,6,0,P|142:345|99:281,1,111.999996582031,0|0,0:0|0:0,0:0:0:0:
68,215,74890,1,0,0:0:0:0:
68,215,75040,2,0,L|76:82,1,111.999996582031,2|0,0:0|0:0,0:0:0:0:
137,25,75490,1,0,0:0:0:0:
137,25,75640,6,0,L|224:32,1,64,10|0,0:0|0:0,0:0:0:0:
288,81,75940,2,0,L|375:88,1,64,10|0,0:0|0:0,0:0:0:0:
448,178,76240,6,0,L|346:185,1,71.9999978027344,10|0,0:0|0:0,0:0:0:0:
285,275,76540,2,0,L|181:283,1,71.9999978027344,10|0,0:0|0:0,0:0:0:0:
110,123,76840,5,8,0:0:0:0:
147,205,76990,1,0,0:0:0:0:
59,194,77140,2,0,P|21:177|2:160,1,47.9999985351563,8|0,0:0|0:0,0:0:0:0:
147,205,77440,2,0,P|149:246|142:270,1,47.9999985351563,8|0,0:0|0:0,0:0:0:0:
110,123,77740,2,0,P|148:108|173:107,1,47.9999985351563,8|0,0:0|0:0,0:0:0:0:
315,171,78040,6,0,B|275:180|275:180|204:166,1,80,4|0,1:0|0:0,0:0:0:0:
386,130,78340,2,0,B|398:169|398:169|383:223,1,80,8|0,0:0|0:0,0:0:0:0:
335,278,78565,1,2,0:0:0:0:
335,278,78640,2,0,P|338:312|345:334,2,40,0|2|0,0:0|0:0|0:0,0:0:0:0:
236,172,78940,2,0,L|242:79,1,80,8|0,0:0|0:0,0:0:0:0:
113,182,79240,6,0,B|109:224|109:224|135:274,1,80,0|0,0:0|0:0,0:0:0:0:
241,92,79540,2,0,L|147:92,1,80,8|0,0:0|0:0,0:0:0:0:
113,182,79765,1,2,0:0:0:0:
113,182,79840,2,0,P|82:183|57:176,2,40,0|2|0,0:0|0:0|0:0,0:0:0:0:
161,92,80140,2,0,L|167:4,1,80,8|0,0:0|0:0,0:0:0:0:
52,266,80440,6,0,B|62:281|62:281|156:295,1,80,4|0,1:0|0:0,0:0:0:0:
318,128,80740,2,0,P|265:118|226:139,1,80,8|0,0:0|0:0,0:0:0:0:
194,205,80965,1,2,0:0:0:0:
194,205,81040,2,0,L|204:251,2,40,0|2|0,0:0|0:0|0:0,0:0:0:0:
345,217,81340,2,0,L|326:308,1,80,8|0,0:0|0:0,0:0:0:0:
236,347,81640,5,0,0:0:0:0:
226,329,81790,1,0,0:0:0:0:
194,205,81940,1,8,0:0:0:0:
184,217,82090,1,0,0:0:0:0:
92,342,82240,2,0,P|73:281|92:236,1,80,0|0,0:0|0:0,0:0:0:0:
89,178,82465,1,0,0:0:0:0:
89,178,82540,2,0,L|81:85,1,80,8|0,0:0|0:0,0:0:0:0:
184,217,82840,6,0,B|223:229|223:229|296:215,1,80,4|0,1:0|0:0,0:0:0:0:
361,178,83140,2,0,L|365:75,1,80,8|0,0:0|0:0,0:0:0:0:
301,31,83365,1,2,0:0:0:0:
301,31,83440,2,0,P|267:20|251:20,2,40,0|2|0,0:0|0:0|0:0,0:0:0:0:
364,98,83740,2,0,L|458:94,1,80,8|0,0:0|0:0,0:0:0:0:
354,222,84040,6,0,B|316:208|316:208|259:224,1,80,0|0,0:0|0:0,0:0:0:0:
166,276,84340,2,0,P|172:227|157:189,1,80,8|0,0:0|0:0,0:0:0:0:
97,133,84565,1,2,0:0:0:0:
97,133,84640,2,0,L|101:85,2,40,0|2|0,0:0|0:0|0:0,0:0:0:0:
162,198,84940,2,0,L|253:189,1,80,8|0,0:0|0:0,0:0:0:0:
399,137,85240,6,0,B|361:120|361:120|319:124,1,80,4|0,1:0|0:0,0:0:0:0:
413,302,85540,2,0,L|430:211,1,80,8|0,0:0|0:0,0:0:0:0:
495,157,85765,1,2,0:0:0:0:
495,157,85840,2,0,L|486:103,2,40,0|2|0,0:0|0:0|0:0,0:0:0:0:
427,223,86140,1,8,0:0:0:0:
345,175,86290,1,0,0:0:0:0:
345,175,86365,1,0,0:0:0:0:
345,175,86440,6,0,L|279:180,1,47.9999985351563,8|0,0:0|0:0,0:0:0:0:
224,238,86740,2,0,L|175:228,1,47.9999985351563,8|0,0:0|0:0,0:0:0:0:
91,120,87040,6,0,P|104:153|104:184,1,47.9999985351563,8|0,0:0|0:0,0:0:0:0:
80,252,87340,2,0,P|67:285|67:316,1,47.9999985351563,8|0,0:0|0:0,0:0:0:0:
141,361,87640,6,0,L|288:354,1,120,4|0,1:0|0:0,0:0:0:0:
260,355,87940,1,8,0:0:0:0:
379,242,88090,2,0,P|336:217|242:271,1,160,0|0,0:0|0:0,0:0:0:0:
360,135,88540,2,0,L|345:30,1,80,8|0,0:0|0:0,0:0:0:0:
210,134,88840,6,0,B|206:191|206:191|234:227|234:227|225:317,1,160,4|8,1:0|0:0,0:0:0:0:
405,163,89290,2,0,P|338:138|271:180,1,120,0|2,0:0|0:0,0:0:0:0:
295,153,89590,1,0,0:0:0:0:
357,278,89740,2,0,L|449:268,1,80,8|0,0:0|0:0,0:0:0:0:
262,242,90040,6,0,B|248:234|229:231|229:231|214:235|199:242|199:242|181:234|169:224|169:224|150:226|135:233|135:233|116:229|101:217|101:217,1,160,4|8,1:0|0:0,0:0:0:0:
260,153,90490,2,0,P|322:174|350:263,1,160,0|0,0:0|0:0,0:0:0:0:
460,126,90940,2,0,L|371:122,1,80,8|0,0:0|0:0,0:0:0:0:
231,293,91240,6,0,L|410:289,1,160,4|8,1:0|0:0,0:0:0:0:
489,256,91690,1,0,0:0:0:0:
489,256,91765,1,2,0:0:0:0:
489,256,91840,2,0,L|496:197,1,40,0|2,0:0|0:0,0:0:0:0:
460,126,91990,1,0,0:0:0:0:
390,289,92140,1,8,0:0:0:0:
317,191,92290,1,0,0:0:0:0:
159,231,92440,5,4,0:0:0:0:
