osu file format v14

[General]
AudioFilename: audio.mp3
AudioLeadIn: 0
PreviewTime: 58840
Countdown: 0
SampleSet: Soft
StackLeniency: 0.7
Mode: 0
LetterboxInBreaks: 0
WidescreenStoryboard: 0

[Editor]
Bookmarks: 9624,14424,28824,38424,78024,82840,87640,92424
DistanceSpacing: 1
BeatDivisor: 4
GridSize: 8
TimelineZoom: 1.9

[Metadata]
Title:Airborne Robots
TitleUnicode:Airborne Robots
Artist:F-777
ArtistUnicode:F-777
Creator:CookieBite
Version:Forest's Advanced
Source:Geometry Dash Meltdown
Tags:f777 jesse valentine ludicrous speed game edit Underforest gary00737 InternalLight Hytex LowComboFC [_Drop_]
BeatmapID:1531182
BeatmapSetID:632505

[Difficulty]
HPDrainRate:4
CircleSize:3
OverallDifficulty:5
ApproachRate:6.5
SliderMultiplier:1.2
SliderTickRate:1

[Events]
//Background and Video events
0,0,"bg.jpg",0,0
//Break Periods
2,68640,75865
//Storyboard Layer 0 (Background)
//Storyboard Layer 1 (Fail)
//Storyboard Layer 2 (Pass)
//Storyboard Layer 3 (Foreground)
//Storyboard Sound Samples

[TimingPoints]
40,300,4,2,8,60,1,0
190,-100,4,2,8,11,0,0
340,-100,4,2,8,12,0,0
490,-100,4,2,8,13,0,0
640,-100,4,2,8,14,0,0
790,-100,4,2,8,15,0,0
940,-100,4,2,8,16,0,0
1090,-100,4,2,8,17,0,0
1240,-100,4,2,8,20,0,0
1390,-100,4,2,8,21,0,0
1540,-100,4,2,8,22,0,0
1690,-100,4,2,8,23,0,0
1840,-100,4,2,8,24,0,0
1990,-100,4,2,8,25,0,0
2140,-100,4,2,7,26,0,0
2440,-100,4,2,8,30,0,0
2590,-100,4,2,8,31,0,0
2740,-100,4,2,8,32,0,0
2890,-100,4,2,8,33,0,0
3040,-100,4,2,8,34,0,0
3190,-100,4,2,8,35,0,0
3340,-100,4,2,8,36,0,0
3490,-100,4,2,8,37,0,0
3640,-100,4,2,8,40,0,0
3790,-100,4,2,8,41,0,0
3940,-100,4,2,8,42,0,0
4090,-100,4,2,8,43,0,0
4240,-100,4,2,8,44,0,0
4390,-100,4,2,8,45,0,0
4540,-100,4,2,7,46,0,0
4840,-100,4,2,8,50,0,0
4990,-100,4,2,8,51,0,0
5140,-100,4,2,8,52,0,0
5290,-100,4,2,8,53,0,0
5440,-100,4,2,8,54,0,0
5590,-100,4,2,8,55,0,0
5740,-100,4,2,8,56,0,0
5890,-100,4,2,8,57,0,0
6040,-100,4,2,8,60,0,0
6190,-100,4,2,8,61,0,0
6340,-100,4,2,8,62,0,0
6490,-100,4,2,8,63,0,0
6640,-100,4,2,8,64,0,0
6790,-100,4,2,8,65,0,0
6940,-100,4,2,7,66,0,0
7240,-100,4,2,8,70,0,0
7390,-100,4,2,8,71,0,0
7540,-100,4,2,8,72,0,0
7690,-100,4,2,8,73,0,0
7840,-100,4,2,8,74,0,0
7990,-100,4,2,8,75,0,0
8140,-100,4,2,8,76,0,0
8290,-100,4,2,8,77,0,0
8440,-100,4,2,8,80,0,0
8590,-100,4,2,8,81,0,0
8740,-100,4,2,8,82,0,0
8890,-100,4,2,8,83,0,0
9040,-100,4,2,8,84,0,0
9190,-100,4,2,8,85,0,0
9340,-100,4,2,7,86,0,0
9640,-100,4,3,1,60,0,0
9715,-100,4,2,89,60,0,0
10840,-100,4,3,1,60,0,0
10915,-100,4,2,89,60,0,0
12040,-100,4,3,1,60,0,0
12115,-100,4,2,89,60,0,0
13240,-100,4,3,1,60,0,0
13315,-100,4,2,89,60,0,0
14440,-100,4,3,1,60,0,0
14515,-100,4,2,89,60,0,0
15640,-100,4,3,1,60,0,0
15715,-100,4,2,89,60,0,0
16840,-100,4,3,1,60,0,0
16915,-100,4,2,89,60,0,0
18040,-100,4,3,1,60,0,0
18115,-100,4,2,89,60,0,0
19240,-100,4,3,1,50,0,0
19690,-100,4,2,9,50,0,0
20140,-100,4,2,7,50,0,0
20440,-100,4,3,1,50,0,0
20890,-100,4,2,9,50,0,0
21340,-100,4,2,7,50,0,0
21640,-100,4,3,1,50,0,0
22090,-100,4,2,9,50,0,0
22540,-100,4,2,7,50,0,0
22840,-100,4,3,1,50,0,0
23290,-100,4,2,9,50,0,0
23740,-100,4,2,7,50,0,0
24040,-100,4,3,1,50,0,0
24490,-100,4,2,9,50,0,0
24940,-100,4,2,7,50,0,0
25240,-100,4,3,1,50,0,0
25690,-100,4,2,9,50,0,0
26140,-100,4,2,7,50,0,0
26440,-100,4,3,1,50,0,0
26890,-100,4,2,9,50,0,0
27340,-100,4,2,7,50,0,0
27640,-100,4,3,1,50,0,0
28090,-100,4,2,9,50,0,0
28540,-100,4,2,7,50,0,0
28840,-100,4,2,1,52,0,0
29140,-100,4,2,6,40,0,0
29440,-100,4,3,1,40,0,0
29740,-100,4,2,6,40,0,0
30040,-100,4,2,1,55,0,0
30340,-100,4,2,6,40,0,0
30640,-100,4,3,1,40,0,0
30940,-100,4,2,6,40,0,0
31240,-100,4,2,1,60,0,0
31540,-100,4,2,6,40,0,0
31840,-100,4,3,1,40,0,0
32140,-100,4,2,6,40,0,0
32440,-100,4,2,1,62,0,0
32740,-100,4,2,6,40,0,0
33040,-100,4,3,1,40,0,0
33340,-100,4,2,6,40,0,0
33640,-100,4,2,1,65,0,0
33790,-100,4,3,1,40,0,0
33940,-100,4,2,6,40,0,0
34090,-100,4,3,1,40,0,0
34540,-100,4,2,6,40,0,0
34840,-100,4,2,1,66,0,0
34990,-100,4,3,1,40,0,0
35140,-100,4,2,6,40,0,0
35290,-100,4,3,1,40,0,0
35740,-100,4,2,6,40,0,0
35890,-100,4,3,1,40,0,0
36040,-100,4,2,1,67,0,0
36115,-100,4,3,1,67,0,0
37240,-100,4,3,1,69,0,0
38440,-100,4,3,1,80,0,1
38515,-100,4,3,1,70,0,1
38740,-100,4,2,1,70,0,1
38815,-100,4,3,1,70,0,1
39340,-100,4,2,1,70,0,1
39415,-100,4,3,1,70,0,1
39940,-100,4,2,1,70,0,1
40015,-100,4,3,1,70,0,1
40540,-100,4,2,1,70,0,1
40615,-100,4,3,1,70,0,1
40840,-100,4,3,1,80,0,1
40915,-100,4,3,1,70,0,1
41140,-100,4,2,1,70,0,1
41215,-100,4,3,1,70,0,1
41740,-100,4,2,1,70,0,1
41815,-100,4,3,1,70,0,1
42340,-100,4,2,1,70,0,1
42415,-100,4,3,1,70,0,1
42940,-100,4,2,1,70,0,1
43015,-100,4,3,1,70,0,1
43240,-100,4,3,1,80,0,1
43315,-100,4,3,1,70,0,1
43540,-100,4,2,1,70,0,1
43615,-100,4,3,1,70,0,1
44140,-100,4,2,1,70,0,1
44215,-100,4,3,1,70,0,1
44740,-100,4,2,1,70,0,1
44815,-100,4,3,1,70,0,1
45340,-100,4,2,1,70,0,1
45415,-100,4,3,1,70,0,1
45640,-100,4,3,1,80,0,1
45715,-100,4,3,1,70,0,1
45940,-100,4,2,1,70,0,1
46015,-100,4,3,1,70,0,1
46540,-100,4,2,1,70,0,1
46615,-100,4,3,1,70,0,1
46840,-100,4,2,0,60,0,0
48040,-100,4,3,1,80,0,1
48340,-100,4,2,2,80,0,1
48415,-100,4,3,1,80,0,1
48940,-100,4,2,2,80,0,1
49015,-100,4,3,1,80,0,1
49540,-100,4,2,2,80,0,1
49615,-100,4,3,1,80,0,1
50140,-100,4,2,2,80,0,1
50215,-100,4,3,1,80,0,1
50740,-100,4,2,2,80,0,1
50815,-100,4,3,1,80,0,1
51340,-100,4,2,2,80,0,1
51415,-100,4,3,1,80,0,1
51940,-100,4,2,2,80,0,1
52015,-100,4,3,1,80,0,1
52540,-100,4,2,2,80,0,1
52615,-100,4,3,1,80,0,1
53140,-100,4,2,2,80,0,1
53215,-100,4,3,1,80,0,1
53740,-100,4,2,2,80,0,1
53815,-100,4,3,1,80,0,1
54340,-100,4,2,2,80,0,1
54415,-100,4,3,1,80,0,1
54940,-100,4,2,2,80,0,1
55015,-100,4,3,1,80,0,1
55540,-100,4,2,2,80,0,1
55615,-100,4,3,1,80,0,1
56140,-100,4,2,2,80,0,1
56215,-100,4,3,1,70,0,1
56440,-100,4,3,1,50,0,0
57340,-100,4,3,2,50,0,0
57415,-100,4,3,1,50,0,0
58540,-100,4,3,2,50,0,0
58615,-100,4,3,1,50,0,0
58840,-100,4,3,1,70,0,1
59140,-100,4,2,3,70,0,1
59215,-100,4,3,1,70,0,1
59740,-100,4,2,3,70,0,1
59815,-100,4,3,1,70,0,1
60340,-100,4,2,3,70,0,1
60415,-100,4,3,1,70,0,1
60940,-100,4,2,3,70,0,1
61015,-100,4,3,1,70,0,1
61540,-100,4,2,3,70,0,1
61615,-100,4,3,1,70,0,1
62140,-100,4,2,3,70,0,1
62215,-100,4,3,1,70,0,1
62740,-100,4,2,3,70,0,1
62815,-100,4,3,1,70,0,1
63340,-100,4,2,3,70,0,1
63415,-100,4,3,1,70,0,1
63940,-100,4,2,3,70,0,1
64015,-100,4,3,1,70,0,1
64540,-100,4,2,3,70,0,1
64615,-100,4,3,1,70,0,1
65140,-100,4,2,3,70,0,1
65215,-100,4,3,1,70,0,1
65740,-100,4,2,3,70,0,1
65815,-100,4,3,1,70,0,1
66340,-100,4,2,3,70,0,1
66415,-100,4,3,1,70,0,1
66940,-100,4,2,3,70,0,1
67015,-100,4,3,1,70,0,1
67240,-100,4,3,1,70,0,0
68440,-100,4,2,1,40,0,0
76840,-100,4,3,1,50,0,0
78040,-100,4,3,1,60,0,0
78340,-100,4,2,3,60,0,0
78415,-100,4,3,1,60,0,0
78940,-100,4,2,3,60,0,0
79015,-100,4,3,1,60,0,0
79540,-100,4,2,3,60,0,0
79615,-100,4,3,1,60,0,0
80140,-100,4,2,3,60,0,0
80215,-100,4,3,1,60,0,0
80740,-100,4,2,3,60,0,0
80815,-100,4,3,1,60,0,0
81340,-100,4,2,3,60,0,0
81415,-100,4,3,1,60,0,0
81940,-100,4,2,3,60,0,0
82015,-100,4,3,1,60,0,0
82540,-100,4,2,3,60,0,0
82615,-100,4,3,1,60,0,0
83140,-100,4,2,3,60,0,0
83215,-100,4,3,1,60,0,0
83740,-100,4,2,3,60,0,0
83815,-100,4,3,1,60,0,0
84340,-100,4,2,3,60,0,0
84415,-100,4,3,1,60,0,0
84940,-100,4,2,3,60,0,0
85015,-100,4,3,1,60,0,0
85540,-100,4,2,3,60,0,0
85615,-100,4,3,1,60,0,0
86140,-100,4,2,3,60,0,0
86215,-100,4,3,1,60,0,0
86440,-100,4,3,1,60,0,0
87640,-100,4,3,1,60,0,0
87940,-100,4,2,3,60,0,0
88015,-100,4,3,1,60,0,0
88540,-100,4,2,3,60,0,0
88615,-100,4,3,1,60,0,0
89140,-100,4,2,3,60,0,0
89215,-100,4,3,1,60,0,0
89740,-100,4,2,3,60,0,0
89815,-100,4,3,1,60,0,0
90340,-100,4,2,3,60,0,0
90415,-100,4,3,1,60,0,0
90940,-100,4,2,3,60,0,0
91015,-100,4,3,1,60,0,0
91540,-100,4,2,3,60,0,0
91615,-100,4,3,1,60,0,0
92140,-100,4,2,3,60,0,0
92215,-100,4,3,1,60,0,0
92440,-100,4,2,2,70,0,0

[Colours]
Combo1 : 255,62,62
Combo2 : 32,242,237
Combo3 : 92,164,228
Combo4 : 166,123,230

[HitObjects]
252,333,40,6,0,B|167:377|93:376|11:298|-41:206|21:99|108:41|203:56|241:91|241:91|361:202|450:112,1,840,10|2,0:0|0:0,0:0:0:0:
362,30,2440,6,0,B|309:86|322:200|430:230|430:230|338:323|338:323|325:228|213:240|237:165|202:390|94:305|91:213|87:168|132:136|190:124|214:166|229:167|245:204|221:245,1,840,10|2,0:0|0:0,0:0:0:0:
251,339,4840,6,0,B|194:360|129:357|89:326|89:326|52:351|9:367|9:367|51:249|10:197|10:197|38:139|5:65|5:65|70:110|115:74|115:74|153:52|226:62|257:92,1,840,10|2,0:0|0:0,0:0:0:0:
351,160,7240,6,0,B|415:150|463:146|500:109|500:109|546:69|537:6|488:-25|434:-10|415:36|415:36|399:79|430:124|516:192|516:192|469:293|469:293|392:305|311:244,1,840,10|2,0:0|0:0,0:0:0:0:
212,274,9640,6,0,P|169:288|79:260,1,120,0|0,0:0|0:0,0:0:0:0:
98,153,10240,2,0,P|155:137|212:152,1,120,0|0,0:0|0:0,0:0:0:0:
305,228,10840,2,0,P|348:242|438:214,1,120,0|0,0:0|0:0,0:0:0:0:
420,106,11440,2,0,P|362:90|305:105,1,120,0|0,0:0|0:0,0:0:0:0:
194,151,12040,6,0,L|183:282,1,120,0|0,0:0|0:0,0:0:0:0:
71,226,12640,2,0,L|81:106,1,120,0|0,0:0|0:0,0:0:0:0:
168,23,13240,1,0,0:0:0:0:
267,90,13540,1,0,0:0:0:0:
379,47,13840,2,0,P|388:84|361:169,1,120,0|0,0:0|0:0,0:0:0:0:
425,266,14440,6,0,L|297:280,1,120,0|0,0:0|0:0,0:0:0:0:
194,324,15040,2,0,L|66:338,1,120,0|0,0:0|0:0,0:0:0:0:
72,217,15640,2,0,L|191:203,1,120,0|0,0:0|0:0,0:0:0:0:
298,149,16240,2,0,L|417:135,1,120,0|0,0:0|0:0,0:0:0:0:
479,33,16840,6,0,B|423:13|423:13|357:25,1,120,0|0,0:0|0:0,0:0:0:0:
248,58,17440,2,0,B|188:68|188:68|132:48,1,120,0|0,0:0|0:0,0:0:0:0:
24,101,18040,1,0,0:0:0:0:
117,176,18340,1,0,0:0:0:0:
24,252,18640,2,0,L|40:374,1,120,0|0,0:0|0:0,0:0:0:0:
154,333,19240,6,0,P|216:308|274:323,1,120,4|0,0:0|0:0,0:0:0:0:
322,340,19690,2,0,P|380:349|434:325,1,120,2|0,0:0|0:0,0:0:0:0:
474,281,20140,1,2,0:0:0:0:
439,166,20440,2,0,L|300:160,1,120,0|0,0:0|0:0,0:0:0:0:
264,136,20890,2,0,L|125:130,1,120,2|0,0:0|0:0,0:0:0:0:
85,118,21340,1,2,0:0:0:0:
29,224,21640,6,0,B|82:247|129:229|129:229|184:285,1,180,0|2,0:0|0:0,0:0:0:0:
303,281,22390,2,0,L|294:354,2,60,0|2|0,0:0|0:0|0:0,0:0:0:0:
357,254,22840,2,0,P|393:252|477:196,1,120,0|0,0:0|0:0,0:0:0:0:
454,152,23290,2,0,P|405:118|346:109,1,120,2|0,0:0|0:0,0:0:0:0:
287,116,23740,1,2,0:0:0:0:
191,42,24040,6,0,L|176:169,1,120,0|0,0:0|0:0,0:0:0:0:
138,207,24490,2,0,L|153:334,1,120,2|0,0:0|0:0,0:0:0:0:
174,381,24940,1,2,0:0:0:0:
283,332,25240,2,0,P|338:342|422:318,1,120,0|0,0:0|0:0,0:0:0:0:
427,275,25690,2,0,P|437:220|413:136,1,120,2|0,0:0|0:0,0:0:0:0:
414,98,26140,1,2,0:0:0:0:
297,64,26440,6,0,B|224:95|204:22|117:58,1,180,0|2,0:0|0:0,0:0:0:0:
70,164,27190,2,0,L|7:148,2,60,0|2|0,0:0|0:0|0:0,0:0:0:0:
120,197,27640,2,0,P|109:235|128:314,1,120,0|0,0:0|0:0,0:0:0:0:
168,354,28090,2,0,P|206:365|285:346,1,120,2|0,0:0|0:0,0:0:0:0:
334,317,28540,1,2,0:0:0:0:
431,246,28840,6,0,L|456:128,1,120,4|8,0:0|0:0,0:0:0:0:
356,60,29440,2,0,L|331:178,1,120,0|8,0:0|0:0,0:0:0:0:
211,185,30040,2,0,L|68:154,1,120,4|8,0:0|0:0,0:0:0:0:
44,50,30640,2,0,L|161:75,1,120,0|8,0:0|0:0,0:0:0:0:
211,185,31240,6,0,P|197:248|228:317,1,120,4|8,0:0|0:0,0:0:0:0:
334,300,31840,2,0,P|351:243|337:185,1,120,0|8,0:0|0:0,0:0:0:0:
284,77,32440,6,0,P|347:63|416:94,1,120,4|8,0:0|0:0,0:0:0:0:
337,185,33040,2,0,P|279:199|222:181,1,120,0|8,0:0|0:0,0:0:0:0:
104,205,33640,6,0,L|90:276,2,60,4|0|8,0:0|0:0|0:0,0:0:0:0:
193,285,34240,2,0,L|179:356,2,60,0|2|8,0:0|0:0|0:0,0:0:0:0:
271,194,34840,2,0,L|285:123,2,60,4|0|8,0:0|0:0|0:0,0:0:0:0:
182,114,35440,2,0,L|196:43,2,60,0|0|8,0:0|0:0|0:0,0:0:0:0:
99,201,36040,5,4,0:0:0:0:
256,192,36115,12,0,37840,0:0:0:0:
451,178,38440,6,0,L|443:314,1,120,4|8,1:0|0:0,0:0:0:0:
396,335,38890,1,0,0:0:0:0:
339,356,39040,2,0,P|303:356|274:352,2,60,0|0|8,0:0|0:0|0:0,0:0:0:0:
297,244,39640,2,0,P|267:240|237:240,1,60,0|0,0:0|0:0,0:0:0:0:
181,264,39940,2,0,P|151:267|121:267,1,60,8|0,0:0|0:0,0:0:0:0:
70,234,40240,2,0,L|59:89,1,120,0|8,0:0|0:0,0:0:0:0:
169,62,40840,6,0,B|217:43|217:43|302:58,1,120,4|8,1:0|0:0,0:0:0:0:
339,79,41290,1,0,0:0:0:0:
392,105,41440,2,0,L|398:175,2,60,0|0|8,0:0|0:0|0:0,0:0:0:0:
299,181,42040,2,0,L|305:251,1,60,0|0,0:0|0:0,0:0:0:0:
250,268,42340,2,0,L|190:273,1,60,8|0,0:0|0:0,0:0:0:0:
132,291,42640,2,0,P|82:287|16:233,1,120,0|8,0:0|0:0,0:0:0:0:
118,171,43240,6,0,L|136:114,1,60,4|0,1:0|0:0,0:0:0:0:
181,74,43540,2,0,P|216:63|257:74,1,60,8|0,0:0|0:0,0:0:0:0:
292,92,43840,2,0,P|327:103|368:92,2,60,0|0|8,0:0|0:0|0:0,0:0:0:0:
327,206,44440,2,0,P|336:243|345:276,1,60,0|0,0:0|0:0,0:0:0:0:
396,287,44740,2,0,P|403:257|410:228,1,60,8|0,0:0|0:0,0:0:0:0:
450,183,45040,2,0,P|479:142|484:66,1,120,0|8,0:0|0:0,0:0:0:0:
367,95,45640,6,0,L|236:106,1,120,4|8,1:0|0:0,0:0:0:0:
196,137,46090,1,0,0:0:0:0:
151,177,46240,2,0,L|149:250,2,60,0|0|8,0:0|0:0|0:0,0:0:0:0:
150,56,46840,5,2,0:0:0:0:
59,211,47290,1,2,0:0:0:0:
239,211,47740,1,0,0:0:0:0:
302,109,48040,6,0,P|343:99|435:125,1,120,4|8,1:0|0:0,0:0:0:0:
461,155,48490,1,0,0:0:0:0:
485,209,48640,2,0,L|495:287,2,60,0|0|8,0:0|0:0|0:0,0:0:0:0:
368,238,49240,2,0,L|293:231,1,60,0|0,0:0|0:0,0:0:0:0:
251,251,49540,2,0,L|191:256,1,60,8|0,0:0|0:0,0:0:0:0:
138,286,49840,2,0,P|102:284|35:225,1,120,0|8,0:0|0:0,0:0:0:0:
77,119,50440,6,0,L|205:105,1,120,4|8,1:0|0:0,0:0:0:0:
255,98,50890,1,0,0:0:0:0:
314,89,51040,2,0,L|304:13,2,60,0|0|8,0:0|0:0|0:0,0:0:0:0:
433,105,51640,2,0,P|434:137|428:184,1,60,0|0,0:0|0:0,0:0:0:0:
401,216,51940,2,0,P|399:245|402:275,1,60,8|0,0:0|0:0,0:0:0:0:
376,330,52240,2,0,P|319:338|231:324,1,120,0|8,0:0|0:0,0:0:0:0:
154,269,52840,6,0,B|142:188|142:188|159:141,1,120,4|8,1:0|0:0,0:0:0:0:
209,126,53290,1,0,0:0:0:0:
263,101,53440,2,0,L|245:44,2,60,0|0|8,0:0|0:0|0:0,0:0:0:0:
377,136,54040,2,0,P|409:133|447:145,1,60,0|0,0:0|0:0,0:0:0:0:
462,193,54340,2,0,P|465:225|453:263,1,60,8|0,0:0|0:0,0:0:0:0:
419,298,54640,2,0,P|390:307|299:288,1,120,0|8,0:0|0:0,0:0:0:0:
186,266,55240,6,0,L|171:125,1,120,4|8,1:0|0:0,0:0:0:0:
219,108,55690,1,0,0:0:0:0:
271,78,55840,2,0,L|333:66,2,60,0|0|8,0:0|0:0|0:0,0:0:0:0:
336,178,56440,6,0,P|383:183|489:106,2,180,8|8|8,0:0|0:0|0:0,0:0:0:0:
377,65,57640,2,0,P|372:112|449:218,2,180,8|8|8,0:0|0:0|0:0,0:0:0:0:
257,53,58840,6,0,L|116:65,1,120,4|8,1:0|0:0,0:0:0:0:
90,101,59290,2,0,P|64:168|90:226,1,120,0|0,0:0|0:0,0:0:0:0:
113,260,59740,1,8,0:0:0:0:
221,311,60040,2,0,L|219:375,2,60,0|0|8,0:0|0:0|0:0,0:0:0:0:
269,275,60490,2,0,P|332:300|403:289,1,120,0|0,0:0|0:0,0:0:0:0:
432,262,60940,1,8,0:0:0:0:
400,146,61240,6,0,B|346:113|346:113|275:125,1,120,4|8,1:0|0:0,0:0:0:0:
230,134,61690,2,0,B|174:143|174:143|120:110,1,120,0|0,0:0|0:0,0:0:0:0:
73,73,62140,1,8,0:0:0:0:
51,191,62440,2,0,L|43:313,1,120,0|8,0:0|0:0,0:0:0:0:
93,343,62890,2,0,P|142:364|221:347,1,120,0|0,0:0|0:0,0:0:0:0:
260,327,63340,1,8,0:0:0:0:
367,273,63640,6,0,P|393:204|372:142,1,120,4|8,1:0|0:0,0:0:0:0:
353,108,64090,2,0,L|214:114,1,120,0|0,0:0|0:0,0:0:0:0:
173,117,64540,1,8,0:0:0:0:
75,186,64840,2,0,L|33:132,2,60,0|0|8,0:0|0:0|0:0,0:0:0:0:
117,228,65290,2,0,L|265:240,1,120,0|0,0:0|0:0,0:0:0:0:
296,244,65740,1,8,0:0:0:0:
415,239,66040,6,0,P|443:170|427:113,1,120,4|8,1:0|0:0,0:0:0:0:
389,87,66490,2,0,P|337:112|273:97,1,120,0|0,0:0|0:0,0:0:0:0:
226,69,66940,1,8,0:0:0:0:
120,126,67240,1,8,0:0:0:0:
120,126,67390,2,0,B|98:181|98:181|114:241,1,120,0|0,0:0|0:0,0:0:0:0:
164,271,67840,2,0,P|214:268|245:255,1,60,8|0,0:0|0:0,0:0:0:0:
278,240,68140,2,0,P|308:224|334:190,1,60,8|0,0:0|0:0,0:0:0:0:
361,157,68440,5,4,1:0:0:0:
41,93,76840,6,0,L|108:79,1,60,8|0,0:0|0:0,0:0:0:0:
155,102,77140,2,0,L|213:114,1,60,8|0,0:0|0:0,0:0:0:0:
265,83,77440,2,0,L|332:69,1,60,8|0,0:0|0:0,0:0:0:0:
379,92,77740,2,0,L|437:104,1,60,8|0,0:0|0:0,0:0:0:0:
483,143,78040,6,0,P|497:202|474:268,1,120,4|8,1:0|0:0,0:0:0:0:
452,310,78490,1,0,0:0:0:0:
399,338,78640,2,0,L|268:328,1,120,0|8,0:0|0:0,0:0:0:0:
195,242,79240,2,0,P|148:227|79:250,1,120,0|8,0:0|0:0,0:0:0:0:
30,277,79690,1,0,0:0:0:0:
8,220,79840,2,0,L|15:89,1,120,0|8,0:0|0:0,0:0:0:0:
122,47,80440,6,0,P|169:37|191:42,1,60,4|0,1:0|0:0,0:0:0:0:
234,66,80740,2,0,P|281:76|303:71,1,60,8|0,0:0|0:0,0:0:0:0:
343,42,81040,2,0,P|375:36|458:81,1,120,0|8,0:0|0:0,0:0:0:0:
463,191,81640,2,0,L|390:198,1,60,0|0,0:0|0:0,0:0:0:0:
350,224,81940,2,0,L|277:217,1,60,8|0,0:0|0:0,0:0:0:0:
230,215,82240,1,0,0:0:0:0:
110,215,82540,2,0,P|98:266|102:297,1,60,8|0,0:0|0:0,0:0:0:0:
121,328,82840,6,0,P|173:357|248:336,1,120,4|8,1:0|0:0,0:0:0:0:
284,323,83290,1,0,0:0:0:0:
335,291,83440,2,0,P|393:282|444:312,1,120,0|8,0:0|0:0,0:0:0:0:
489,201,84040,2,0,L|500:79,1,120,0|8,0:0|0:0,0:0:0:0:
454,42,84490,1,0,0:0:0:0:
399,15,84640,2,0,P|322:3|265:25,1,120,0|8,0:0|0:0,0:0:0:0:
163,27,85240,6,0,L|154:105,1,60,4|0,1:0|0:0,0:0:0:0:
185,139,85540,2,0,L|194:217,1,60,8|0,0:0|0:0,0:0:0:0:
183,258,85840,1,0,0:0:0:0:
80,195,86140,2,0,L|75:124,1,60,8|0,0:0|0:0,0:0:0:0:
107,82,86440,2,0,P|157:52|223:54,2,120,8|8|8,0:0|0:0|0:0,0:0:0:0:
189,170,87340,1,8,0:0:0:0:
268,264,87640,6,0,L|409:252,1,120,4|8,1:0|0:0,0:0:0:0:
446,242,88090,2,0,P|472:175|446:117,1,120,0|0,0:0|0:0,0:0:0:0:
433,76,88540,1,8,0:0:0:0:
313,72,88840,2,0,L|315:8,2,60,4|0|8,1:0|0:0|0:0,0:0:0:0:
260,101,89290,2,0,P|197:76|126:87,1,120,0|0,0:0|0:0,0:0:0:0:
100,119,89740,1,8,0:0:0:0:
112,238,90040,6,0,B|166:271|166:271|237:259,1,120,4|8,1:0|0:0,0:0:0:0:
282,250,90490,2,0,B|338:241|338:241|392:274,1,120,0|0,0:0|0:0,0:0:0:0:
439,311,90940,1,8,0:0:0:0:
461,193,91240,2,0,L|469:71,1,120,4|8,1:0|0:0,0:0:0:0:
419,41,91690,2,0,P|370:20|291:37,1,120,0|0,0:0|0:0,0:0:0:0:
252,57,92140,2,0,L|181:48,1,60,8|0,0:0|0:0,0:0:0:0:
133,43,92440,5,4,0:0:0:0:
