osu file format v14

[General]
AudioFilename: audio.mp3
AudioLeadIn: 0
PreviewTime: 58840
Countdown: 0
SampleSet: Soft
StackLeniency: 0.2
Mode: 0
LetterboxInBreaks: 0
WidescreenStoryboard: 1

[Editor]
Bookmarks: 9624,14424,19240,28824,38424,78024,82840,87640,92424
DistanceSpacing: 1.8
BeatDivisor: 4
GridSize: 4
TimelineZoom: 1.9

[Metadata]
Title:Airborne Robots
TitleUnicode:Airborne Robots
Artist:F-777
ArtistUnicode:F-777
Creator:CookieBite
Version:Aerial
Source:Geometry Dash Meltdown
Tags:f777 jesse valentine ludicrous speed game edit Underforest gary00737 InternalLight Hytex LowComboFC [_Drop_]
BeatmapID:1342612
BeatmapSetID:632505

[Difficulty]
HPDrainRate:5
CircleSize:4
OverallDifficulty:8.5
ApproachRate:9.7
SliderMultiplier:1.8
SliderTickRate:1

[Events]
//Background and Video events
0,0,"bg.jpg",0,0
//Break Periods
//Storyboard Layer 0 (Background)
//Storyboard Layer 1 (Fail)
//Storyboard Layer 2 (Pass)
//Storyboard Layer 3 (Foreground)
//Storyboard Sound Samples

[TimingPoints]
40,300,4,2,8,60,1,0
40,-400,4,2,8,60,0,0
115,-400,4,2,8,5,0,0
190,-400,4,2,8,11,0,0
265,-400,4,2,8,6,0,0
340,-400,4,2,8,12,0,0
415,-400,4,2,8,7,0,0
490,-400,4,2,8,13,0,0
565,-400,4,2,8,8,0,0
640,-400,4,2,8,14,0,0
715,-400,4,2,8,9,0,0
790,-400,4,2,8,15,0,0
865,-400,4,2,8,10,0,0
940,-400,4,2,8,16,0,0
1015,-400,4,2,8,10,0,0
1090,-400,4,2,8,17,0,0
1165,-400,4,2,8,10,0,0
1240,-400,4,2,8,20,0,0
1315,-400,4,2,8,10,0,0
1390,-400,4,2,8,21,0,0
1465,-400,4,2,8,10,0,0
1540,-400,4,2,8,22,0,0
1615,-400,4,2,8,10,0,0
1690,-400,4,2,8,23,0,0
1765,-400,4,2,8,10,0,0
1840,-400,4,2,8,24,0,0
1915,-400,4,2,8,10,0,0
1990,-400,4,2,8,25,0,0
2065,-400,4,2,8,10,0,0
2140,-300,4,2,7,26,0,0
2215,-300,4,2,7,10,0,0
2290,-300,4,2,7,27,0,0
2365,-300,4,2,7,10,0,0
2440,-250,4,2,8,30,0,0
2515,-250,4,2,8,10,0,0
2590,-250,4,2,8,31,0,0
2665,-250,4,2,8,10,0,0
2740,-250,4,2,8,32,0,0
2815,-250,4,2,8,10,0,0
2890,-250,4,2,8,33,0,0
2965,-250,4,2,8,10,0,0
3040,-250,4,2,8,34,0,0
3115,-250,4,2,8,10,0,0
3190,-250,4,2,8,35,0,0
3265,-250,4,2,8,10,0,0
3340,-250,4,2,8,36,0,0
3415,-250,4,2,8,10,0,0
3490,-250,4,2,8,37,0,0
3565,-250,4,2,8,10,0,0
3640,-250,4,2,8,40,0,0
3715,-250,4,2,8,10,0,0
3790,-250,4,2,8,41,0,0
3865,-250,4,2,8,10,0,0
3940,-250,4,2,8,42,0,0
4015,-250,4,2,8,10,0,0
4090,-250,4,2,8,43,0,0
4165,-250,4,2,8,10,0,0
4240,-250,4,2,8,44,0,0
4315,-250,4,2,8,10,0,0
4390,-250,4,2,8,45,0,0
4465,-250,4,2,8,10,0,0
4540,-225,4,2,7,46,0,0
4615,-225.272727272727,4,2,7,10,0,0
4690,-225,4,2,7,47,0,0
4765,-225.272727272727,4,2,7,10,0,0
4840,-200,4,2,8,50,0,0
4915,-200,4,2,8,10,0,0
4990,-200,4,2,8,51,0,0
5065,-200,4,2,8,10,0,0
5140,-200,4,2,8,52,0,0
5215,-200,4,2,8,10,0,0
5290,-200,4,2,8,53,0,0
5365,-200,4,2,8,10,0,0
5440,-200,4,2,8,54,0,0
5515,-200,4,2,8,10,0,0
5590,-200,4,2,8,55,0,0
5665,-200,4,2,8,10,0,0
5740,-200,4,2,8,56,0,0
5815,-200,4,2,8,10,0,0
5890,-200,4,2,8,57,0,0
5965,-200,4,2,8,10,0,0
6040,-200,4,2,8,60,0,0
6115,-200,4,2,8,10,0,0
6190,-200,4,2,8,61,0,0
6265,-200,4,2,8,10,0,0
6340,-200,4,2,8,62,0,0
6415,-200,4,2,8,10,0,0
6490,-200,4,2,8,63,0,0
6565,-200,4,2,8,10,0,0
6640,-200,4,2,8,64,0,0
6715,-200,4,2,8,10,0,0
6790,-200,4,2,8,65,0,0
6865,-200,4,2,8,10,0,0
6940,-181.818181818182,4,2,7,66,0,0
7015,-181.818181818182,4,2,7,10,0,0
7090,-181.818181818182,4,2,7,67,0,0
7165,-181.818181818182,4,2,7,10,0,0
7240,-166.666666666667,4,2,8,70,0,0
7315,-166.666666666667,4,2,8,10,0,0
7390,-166.666666666667,4,2,8,71,0,0
7465,-166.666666666667,4,2,8,10,0,0
7540,-166.666666666667,4,2,8,72,0,0
7615,-166.666666666667,4,2,8,10,0,0
7690,-166.666666666667,4,2,8,73,0,0
7765,-166.666666666667,4,2,8,10,0,0
7840,-166.666666666667,4,2,8,74,0,0
7915,-166.666666666667,4,2,8,10,0,0
7990,-166.666666666667,4,2,8,75,0,0
8065,-166.666666666667,4,2,8,10,0,0
8140,-166.666666666667,4,2,8,76,0,0
8215,-166.666666666667,4,2,8,10,0,0
8290,-166.666666666667,4,2,8,77,0,0
8365,-166.666666666667,4,2,8,10,0,0
8440,-166.666666666667,4,2,8,80,0,0
8515,-166.666666666667,4,2,8,10,0,0
8590,-166.666666666667,4,2,8,81,0,0
8665,-166.666666666667,4,2,8,10,0,0
8740,-166.666666666667,4,2,8,82,0,0
8815,-166.666666666667,4,2,8,10,0,0
8890,-166.666666666667,4,2,8,83,0,0
8965,-166.666666666667,4,2,8,10,0,0
9040,-166.666666666667,4,2,8,84,0,0
9115,-166.666666666667,4,2,8,10,0,0
9190,-166.666666666667,4,2,8,85,0,0
9265,-166.666666666667,4,2,8,10,0,0
9340,-133.333333333333,4,2,7,86,0,0
9640,-125,4,3,1,60,0,0
9690,-125,4,2,89,60,0,0
9940,-100,4,2,89,60,0,0
10240,-83.3333333333333,4,2,89,60,0,0
10390,-76.9230769230769,4,2,89,60,0,0
10540,-71.4285714285714,4,2,89,60,0,0
10690,-66.6666666666667,4,2,89,60,0,0
10840,-125,4,3,1,60,0,0
10890,-125,4,2,89,60,0,0
11140,-100,4,2,89,60,0,0
11440,-83.3333333333333,4,2,89,60,0,0
11590,-76.9230769230769,4,2,89,60,0,0
11740,-71.4285714285714,4,2,89,60,0,0
11890,-66.6666666666667,4,2,89,60,0,0
12040,-125,4,3,1,60,0,0
12090,-125,4,2,89,60,0,0
12340,-100,4,2,89,60,0,0
12640,-83.3333333333333,4,2,89,60,0,0
12790,-76.9230769230769,4,2,89,60,0,0
12940,-71.4285714285714,4,2,89,60,0,0
13090,-66.6666666666667,4,2,89,60,0,0
13240,-100,4,3,1,60,0,0
13290,-100,4,2,89,60,0,0
13540,-83.3333333333333,4,2,89,60,0,0
13840,-71.4285714285714,4,2,89,60,0,0
14140,-62.5,4,2,89,60,0,0
14440,-125,4,3,1,60,0,0
14490,-125,4,2,89,60,0,0
14740,-100,4,2,89,60,0,0
15040,-83.3333333333333,4,2,89,60,0,0
15190,-76.9230769230769,4,2,89,60,0,0
15340,-71.4285714285714,4,2,89,60,0,0
15490,-66.6666666666667,4,2,89,60,0,0
15640,-125,4,3,1,60,0,0
15690,-125,4,2,89,60,0,0
15940,-100,4,2,89,60,0,0
16240,-83.3333333333333,4,2,89,60,0,0
16390,-76.9230769230769,4,2,89,60,0,0
16540,-71.4285714285714,4,2,89,60,0,0
16690,-66.6666666666667,4,2,89,60,0,0
16840,-125,4,3,1,60,0,0
16890,-125,4,2,89,60,0,0
17140,-100,4,2,89,60,0,0
17440,-83.3333333333333,4,2,89,60,0,0
17590,-76.9230769230769,4,2,89,60,0,0
17740,-71.4285714285714,4,2,89,60,0,0
17890,-66.6666666666667,4,2,89,60,0,0
18040,-100,4,3,1,60,0,0
18090,-100,4,2,89,60,0,0
18340,-83.3333333333333,4,2,89,60,0,0
18640,-71.4285714285714,4,2,89,60,0,0
18940,-62.5,4,2,89,60,0,0
19240,-83.3333333333333,4,3,1,50,0,0
19390,-100,4,3,1,50,0,0
19690,-100,4,2,9,50,0,0
20140,-100,4,2,7,50,0,0
20440,-100,4,3,1,50,0,0
20890,-100,4,2,9,50,0,0
21340,-100,4,2,7,50,0,0
21640,-100,4,3,1,50,0,0
22090,-100,4,2,9,50,0,0
22540,-100,4,2,7,50,0,0
22840,-100,4,3,1,50,0,0
23290,-100,4,2,9,50,0,0
23740,-100,4,2,7,50,0,0
24040,-100,4,3,1,50,0,0
24490,-100,4,2,9,50,0,0
24940,-100,4,2,7,50,0,0
25240,-100,4,3,1,50,0,0
25690,-100,4,2,9,50,0,0
26140,-100,4,2,7,50,0,0
26440,-100,4,3,1,50,0,0
26890,-100,4,2,9,50,0,0
27340,-100,4,2,7,50,0,0
27640,-100,4,3,1,50,0,0
28090,-100,4,2,9,50,0,0
28540,-100,4,2,7,50,0,0
28840,-142.857142857143,4,2,1,52,0,0
29140,-142.857142857143,4,2,6,40,0,0
29440,-142.857142857143,4,3,1,40,0,0
29740,-142.857142857143,4,2,6,40,0,0
30040,-133.333333333333,4,2,1,55,0,0
30340,-133.333333333333,4,2,6,40,0,0
30640,-133.333333333333,4,3,1,40,0,0
30940,-133.333333333333,4,2,6,40,0,0
31240,-125,4,2,1,60,0,0
31540,-125,4,2,6,40,0,0
31840,-125,4,3,1,40,0,0
32140,-125,4,2,6,40,0,0
32440,-117.647058823529,4,2,1,62,0,0
32740,-117.647058823529,4,2,6,40,0,0
33040,-117.647058823529,4,3,1,40,0,0
33340,-117.647058823529,4,2,6,40,0,0
33640,-111.111111111111,4,2,1,65,0,0
33790,-111.111111111111,4,3,1,40,0,0
33940,-111.111111111111,4,2,6,40,0,0
34090,-111.111111111111,4,3,1,40,0,0
34540,-111.111111111111,4,2,6,40,0,0
34840,-111.111111111111,4,2,1,66,0,0
34990,-111.111111111111,4,3,1,40,0,0
35140,-111.111111111111,4,2,6,40,0,0
35290,-111.111111111111,4,3,1,40,0,0
35740,-111.111111111111,4,2,6,40,0,0
35890,-111.111111111111,4,3,1,40,0,0
36040,-105.263157894737,4,2,1,67,0,0
36115,-105.263157894737,4,3,1,67,0,0
37240,-83.3333333333333,4,2,1,69,0,0
37840,-71.4285714285714,4,2,1,69,0,0
38440,-76.9230769230769,4,3,1,80,0,1
38515,-76.9230769230769,4,3,1,70,0,1
38740,-76.9230769230769,4,2,1,70,0,1
38815,-76.9230769230769,4,3,1,70,0,1
39340,-76.9230769230769,4,2,1,70,0,1
39415,-76.9230769230769,4,3,1,70,0,1
39940,-76.9230769230769,4,2,1,70,0,1
40015,-76.9230769230769,4,3,1,70,0,1
40540,-76.9230769230769,4,2,1,70,0,1
40615,-76.9230769230769,4,3,1,70,0,1
40840,-76.9230769230769,4,3,1,80,0,1
40915,-76.9230769230769,4,3,1,70,0,1
41140,-76.9230769230769,4,2,1,70,0,1
41215,-76.9230769230769,4,3,1,70,0,1
41740,-76.9230769230769,4,2,1,70,0,1
41815,-76.9230769230769,4,3,1,70,0,1
42340,-76.9230769230769,4,2,1,70,0,1
42415,-76.9230769230769,4,3,1,70,0,1
42940,-76.9230769230769,4,2,1,70,0,1
43015,-76.9230769230769,4,3,1,70,0,1
43240,-76.9230769230769,4,3,1,80,0,1
43315,-76.9230769230769,4,3,1,70,0,1
43540,-76.9230769230769,4,2,1,70,0,1
43615,-76.9230769230769,4,3,1,70,0,1
44140,-76.9230769230769,4,2,1,70,0,1
44215,-76.9230769230769,4,3,1,70,0,1
44740,-76.9230769230769,4,2,1,70,0,1
44815,-76.9230769230769,4,3,1,70,0,1
45340,-76.9230769230769,4,2,1,70,0,1
45415,-76.9230769230769,4,3,1,70,0,1
45640,-76.9230769230769,4,3,1,80,0,1
45715,-76.9230769230769,4,3,1,70,0,1
45940,-76.9230769230769,4,2,1,70,0,1
46015,-76.9230769230769,4,3,1,70,0,1
46540,-76.9230769230769,4,2,1,70,0,1
46615,-76.9230769230769,4,3,1,70,0,1
46840,-100,4,2,89,60,0,0
48040,-71.4285714285714,4,3,1,80,0,1
48340,-71.4285714285714,4,2,2,80,0,1
48415,-71.4285714285714,4,3,1,80,0,1
48940,-71.4285714285714,4,2,2,80,0,1
49015,-71.4285714285714,4,3,1,80,0,1
49540,-71.4285714285714,4,2,2,80,0,1
49615,-71.4285714285714,4,3,1,80,0,1
50140,-71.4285714285714,4,2,2,80,0,1
50215,-71.4285714285714,4,3,1,80,0,1
50740,-71.4285714285714,4,2,2,80,0,1
50815,-71.4285714285714,4,3,1,80,0,1
51340,-71.4285714285714,4,2,2,80,0,1
51415,-71.4285714285714,4,3,1,80,0,1
51940,-71.4285714285714,4,2,2,80,0,1
52015,-71.4285714285714,4,3,1,80,0,1
52540,-71.4285714285714,4,2,2,80,0,1
52615,-71.4285714285714,4,3,1,80,0,1
53140,-71.4285714285714,4,2,2,80,0,1
53215,-71.4285714285714,4,3,1,80,0,1
53740,-71.4285714285714,4,2,2,80,0,1
53815,-71.4285714285714,4,3,1,80,0,1
54340,-71.4285714285714,4,2,2,80,0,1
54415,-71.4285714285714,4,3,1,80,0,1
54940,-71.4285714285714,4,2,2,80,0,1
55015,-71.4285714285714,4,3,1,80,0,1
55540,-71.4285714285714,4,2,2,80,0,1
55615,-71.4285714285714,4,3,1,80,0,1
56140,-71.4285714285714,4,2,2,70,0,1
56215,-71.4285714285714,4,3,1,70,0,1
56440,-166.666666666667,4,3,1,50,0,0
57340,-166.666666666667,4,3,2,50,0,0
57415,-166.666666666667,4,3,1,50,0,0
58540,-166.666666666667,4,3,2,50,0,0
58615,-166.666666666667,4,3,1,50,0,0
58840,-76.9230769230769,4,3,1,70,0,1
59140,-76.9230769230769,4,2,3,70,0,1
59215,-76.9230769230769,4,3,1,70,0,1
59740,-76.9230769230769,4,2,3,70,0,1
59815,-76.9230769230769,4,3,1,70,0,1
60340,-76.9230769230769,4,2,3,70,0,1
60415,-76.9230769230769,4,3,1,70,0,1
60940,-76.9230769230769,4,2,3,70,0,1
61015,-76.9230769230769,4,3,1,70,0,1
61540,-76.9230769230769,4,2,3,70,0,1
61615,-76.9230769230769,4,3,1,70,0,1
62140,-76.9230769230769,4,2,3,70,0,1
62215,-76.9230769230769,4,3,1,70,0,1
62740,-76.9230769230769,4,2,3,70,0,1
62815,-76.9230769230769,4,3,1,70,0,1
63340,-76.9230769230769,4,2,3,70,0,1
63415,-76.9230769230769,4,3,1,70,0,1
63940,-76.9230769230769,4,2,3,70,0,1
64015,-76.9230769230769,4,3,1,70,0,1
64540,-76.9230769230769,4,2,3,70,0,1
64615,-76.9230769230769,4,3,1,70,0,1
65140,-76.9230769230769,4,2,3,70,0,1
65215,-76.9230769230769,4,3,1,70,0,1
65740,-76.9230769230769,4,2,3,70,0,1
65815,-76.9230769230769,4,3,1,70,0,1
66340,-76.9230769230769,4,2,3,70,0,1
66415,-76.9230769230769,4,3,1,70,0,1
66940,-76.9230769230769,4,2,3,70,0,1
67015,-76.9230769230769,4,3,1,70,0,1
67240,-100,4,3,1,70,0,0
68440,-166.666666666667,4,2,89,40,0,0
73240,-142.857142857143,4,2,89,50,0,0
75640,-125,4,3,1,60,0,0
76240,-111.111111111111,4,3,1,65,0,0
76840,-166.666666666667,4,3,1,50,0,0
76940,-166.666666666667,4,3,88,5,0,0
76990,-166.666666666667,4,3,1,50,0,0
77090,-166.666666666667,4,3,88,5,0,0
77140,-166.666666666667,4,3,1,50,0,0
78040,-100,4,3,1,60,0,0
78340,-100,4,2,3,60,0,0
78415,-100,4,3,1,60,0,0
78940,-100,4,2,3,60,0,0
79015,-100,4,3,1,60,0,0
79540,-100,4,2,3,60,0,0
79615,-100,4,3,1,60,0,0
80140,-100,4,2,3,60,0,0
80215,-100,4,3,1,60,0,0
80740,-100,4,2,3,60,0,0
80815,-100,4,3,1,60,0,0
81340,-100,4,2,3,60,0,0
81415,-100,4,3,1,60,0,0
81940,-100,4,2,3,60,0,0
82015,-100,4,3,1,60,0,0
82540,-100,4,2,3,60,0,0
82615,-100,4,3,1,60,0,0
83140,-100,4,2,3,60,0,0
83215,-100,4,3,1,60,0,0
83740,-100,4,2,3,60,0,0
83815,-100,4,3,1,60,0,0
84340,-100,4,2,3,60,0,0
84415,-100,4,3,1,60,0,0
84940,-100,4,2,3,60,0,0
85015,-100,4,3,1,60,0,0
85540,-100,4,2,3,60,0,0
85615,-100,4,3,1,60,0,0
86140,-100,4,2,3,60,0,0
86215,-100,4,3,1,60,0,0
86440,-166.666666666667,4,3,1,50,0,0
87640,-100,4,3,1,60,0,0
87940,-100,4,2,3,60,0,0
88015,-100,4,3,1,60,0,0
88540,-100,4,2,3,60,0,0
88615,-100,4,3,1,60,0,0
89140,-100,4,2,3,60,0,0
89215,-100,4,3,1,60,0,0
89740,-100,4,2,3,60,0,0
89815,-100,4,3,1,60,0,0
90340,-100,4,2,3,60,0,0
90415,-100,4,3,1,60,0,0
90940,-100,4,2,3,60,0,0
91015,-100,4,3,1,60,0,0
91540,-100,4,2,3,60,0,0
91615,-100,4,3,1,60,0,0
92140,-100,4,2,3,60,0,0
92215,-100,4,3,1,60,0,0
92440,-100,4,2,2,70,0,0

[Colours]
Combo1 : 255,62,62
Combo2 : 32,242,237
Combo3 : 92,164,228
Combo4 : 166,123,230

[HitObjects]
108,284,40,6,0,L|108:272,1,11.25,10|0,0:0|0:0,0:0:0:0:
108,273,190,2,0,L|108:261,1,11.25,2|0,0:0|0:0,0:0:0:0:
109,262,340,2,0,L|109:250,1,11.25,10|0,0:0|0:0,0:0:0:0:
110,251,490,2,0,L|110:239,1,11.25,2|0,0:0|0:0,0:0:0:0:
111,240,640,2,0,L|111:228,1,11.25,10|0,0:0|0:0,0:0:0:0:
112,229,790,2,0,L|112:217,1,11.25,2|0,0:0|0:0,0:0:0:0:
113,218,940,2,0,L|113:206,1,11.25,10|0,0:0|0:0,0:0:0:0:
114,207,1090,2,0,L|114:195,1,11.25,2|0,0:0|0:0,0:0:0:0:
115,196,1240,2,0,L|115:184,1,11.25,10|0,0:0|0:0,0:0:0:0:
116,185,1390,2,0,L|116:173,1,11.25,2|0,0:0|0:0,0:0:0:0:
117,174,1540,2,0,L|117:162,1,11.25,10|0,0:0|0:0,0:0:0:0:
118,163,1690,2,0,L|118:151,1,11.25,2|0,0:0|0:0,0:0:0:0:
119,152,1840,2,0,L|119:140,1,11.25,10|0,0:0|0:0,0:0:0:0:
120,141,1990,2,0,L|120:129,1,11.25,2|0,0:0|0:0,0:0:0:0:
20,280,2140,6,0,L|22:256,1,15,2|0,0:0|0:0,0:0:0:0:
27,192,2290,2,0,L|29:168,1,15,2|0,0:0|0:0,0:0:0:0:
196,343,2440,6,0,L|197:325,1,18,10|0,0:0|0:0,0:0:0:0:
197,325,2590,2,0,L|198:307,1,18,2|0,0:0|0:0,0:0:0:0:
199,307,2740,2,0,L|200:289,1,18,10|0,0:0|0:0,0:0:0:0:
200,289,2890,2,0,L|201:271,1,18,2|0,0:0|0:0,0:0:0:0:
202,271,3040,2,0,L|203:253,1,18,10|0,0:0|0:0,0:0:0:0:
203,253,3190,2,0,L|204:235,1,18,2|0,0:0|0:0,0:0:0:0:
205,235,3340,2,0,L|206:217,1,18,10|0,0:0|0:0,0:0:0:0:
206,217,3490,2,0,L|207:199,1,18,2|0,0:0|0:0,0:0:0:0:
208,199,3640,2,0,L|209:181,1,18,10|0,0:0|0:0,0:0:0:0:
210,181,3790,2,0,L|211:163,1,18,2|0,0:0|0:0,0:0:0:0:
211,163,3940,2,0,L|212:145,1,18,10|0,0:0|0:0,0:0:0:0:
213,145,4090,2,0,L|214:127,1,18,2|0,0:0|0:0,0:0:0:0:
214,127,4240,2,0,L|215:109,1,18,10|0,0:0|0:0,0:0:0:0:
216,109,4390,2,0,L|217:91,1,18,2|0,0:0|0:0,0:0:0:0:
108,284,4540,6,0,L|110:255,1,20,2|0,0:0|0:0,0:0:0:0:
116,178,4690,2,0,L|118:149,1,20,2|0,0:0|0:0,0:0:0:0:
287,373,4840,6,0,L|288:350,1,22.5,10|0,0:0|0:0,0:0:0:0:
288,351,4990,2,0,L|289:328,1,22.5,2|0,0:0|0:0,0:0:0:0:
290,329,5140,2,0,L|291:306,1,22.5,10|0,0:0|0:0,0:0:0:0:
292,307,5290,2,0,L|293:284,1,22.5,2|0,0:0|0:0,0:0:0:0:
294,285,5440,2,0,L|295:262,1,22.5,10|0,0:0|0:0,0:0:0:0:
296,263,5590,2,0,L|297:240,1,22.5,2|0,0:0|0:0,0:0:0:0:
298,241,5740,2,0,L|299:218,1,22.5,10|0,0:0|0:0,0:0:0:0:
300,219,5890,2,0,L|301:196,1,22.5,2|0,0:0|0:0,0:0:0:0:
302,197,6040,2,0,L|303:174,1,22.5,10|0,0:0|0:0,0:0:0:0:
304,175,6190,2,0,L|305:152,1,22.5,2|0,0:0|0:0,0:0:0:0:
306,153,6340,2,0,L|307:130,1,22.5,10|0,0:0|0:0,0:0:0:0:
308,131,6490,2,0,L|309:108,1,22.5,2|0,0:0|0:0,0:0:0:0:
310,110,6640,2,0,L|311:87,1,22.5,10|0,0:0|0:0,0:0:0:0:
311,88,6790,2,0,L|312:65,1,22.5,2|0,0:0|0:0,0:0:0:0:
196,343,6940,6,0,L|198:308,1,24.7500007553101,2|0,0:0|0:0,0:0:0:0:
205,215,7090,2,0,L|207:180,1,24.7500007553101,2|0,0:0|0:0,0:0:0:0:
382,384,7240,6,0,L|384:357,1,26.9999991760254,10|0,0:0|0:0,0:0:0:0:
384,357,7390,2,0,L|386:330,1,26.9999991760254,2|0,0:0|0:0,0:0:0:0:
386,330,7540,2,0,L|388:303,1,26.9999991760254,10|0,0:0|0:0,0:0:0:0:
389,303,7690,2,0,L|391:276,1,26.9999991760254,2|0,0:0|0:0,0:0:0:0:
391,276,7840,2,0,L|393:249,1,26.9999991760254,10|0,0:0|0:0,0:0:0:0:
393,249,7990,2,0,L|395:222,1,26.9999991760254,2|0,0:0|0:0,0:0:0:0:
396,222,8140,2,0,L|398:195,1,26.9999991760254,10|0,0:0|0:0,0:0:0:0:
398,195,8290,2,0,L|400:168,1,26.9999991760254,2|0,0:0|0:0,0:0:0:0:
400,168,8440,2,0,L|402:141,1,26.9999991760254,10|0,0:0|0:0,0:0:0:0:
403,141,8590,2,0,L|405:114,1,26.9999991760254,2|0,0:0|0:0,0:0:0:0:
405,115,8740,2,0,L|407:88,1,26.9999991760254,10|0,0:0|0:0,0:0:0:0:
407,88,8890,2,0,L|409:61,1,26.9999991760254,2|0,0:0|0:0,0:0:0:0:
410,61,9040,2,0,L|412:34,1,26.9999991760254,10|0,0:0|0:0,0:0:0:0:
412,34,9190,2,0,L|414:7,1,26.9999991760254,2|0,0:0|0:0,0:0:0:0:
287,373,9340,6,0,L|290:331,1,33.7500012874604,2|0,0:0|0:0,0:0:0:0:
299,221,9490,2,0,L|302:179,1,33.7500012874604,2|0,0:0|0:0,0:0:0:0:
192,375,9640,6,0,P|190:364|189:352,5,24,0|0|0|0|0|0,0:0|0:0|0:0|0:0|0:0|0:0,0:0:0:0:
190,352,9940,2,0,P|190:338|192:323,5,30,0|0|0|0|0|0,0:0|0:0|0:0|0:0|0:0|0:0,0:0:0:0:
192,322,10240,2,0,P|211:318|230:301,2,35.9999989013672,0|0|0,0:0|0:0|0:0,0:0:0:0:
174,249,10390,2,0,P|187:234|194:216,2,38.9999982147218,0|0|0,0:0|0:0|0:0,0:0:0:0:
116,197,10540,2,0,P|117:175|110:156,2,41.9999987182618,0|0|0,0:0|0:0|0:0,0:0:0:0:
40,186,10690,2,0,P|26:167|7:154,2,45.0000017166138,0|0|0,0:0|0:0|0:0,0:0:0:0:
0,252,10840,6,0,L|2:275,5,24,0|0|0|0|0|0,0:0|0:0|0:0|0:0|0:0|0:0,0:0:0:0:
2,275,11140,2,0,L|0:304,5,30,0|0|0|0|0|0,0:0|0:0|0:0|0:0|0:0|0:0,0:0:0:0:
0,304,11440,2,0,P|17:305|35:299,2,35.9999989013672,0|0|0,0:0|0:0|0:0,0:0:0:0:
78,361,11590,2,0,P|94:349|106:330,2,38.9999982147218,0|0|0,0:0|0:0|0:0,0:0:0:0:
179,365,11740,2,0,P|187:336|181:305,2,41.9999987182618,0|0|0,0:0|0:0|0:0,0:0:0:0:
262,304,11890,2,0,P|249:276|225:255,2,45.0000017166138,0|0|0,0:0|0:0|0:0,0:0:0:0:
318,242,12040,6,0,L|321:217,5,24,0|0|0|0|0|0,0:0|0:0|0:0|0:0|0:0|0:0,0:0:0:0:
321,218,12340,2,0,L|339:193,5,30,0|0|0|0|0|0,0:0|0:0|0:0|0:0|0:0|0:0,0:0:0:0:
339,193,12640,2,0,P|344:175|342:157,2,35.9999989013672,0|0|0,0:0|0:0|0:0,0:0:0:0:
261,178,12790,2,0,P|253:159|238:146,2,38.9999982147218,0|0|0,0:0|0:0|0:0,0:0:0:0:
188,213,12940,2,0,P|169:202|148:201,2,41.9999987182618,0|0|0,0:0|0:0|0:0,0:0:0:0:
153,286,13090,2,0,P|130:289|112:301,2,45.0000017166138,0|0|0,0:0|0:0|0:0,0:0:0:0:
230,358,13240,6,0,L|234:329,5,30,0|0|0|0|0|0,0:0|0:0|0:0|0:0|0:0|0:0,0:0:0:0:
234,329,13540,6,0,L|231:294,5,35.9999989013672,0|0|0|0|0|0,0:0|0:0|0:0|0:0|0:0|0:0,0:0:0:0:
231,294,13840,6,0,L|236:253,5,41.9999987182618,0|0|0|0|0|0,0:0|0:0|0:0|0:0|0:0|0:0,0:0:0:0:
236,253,14140,6,0,L|231:206,5,48,0|0|0|0|0|0,0:0|0:0|0:0|0:0|0:0|0:0,0:0:0:0:
314,205,14440,6,0,L|316:181,5,24,0|0|0|0|0|0,0:0|0:0|0:0|0:0|0:0|0:0,0:0:0:0:
316,181,14740,2,0,L|313:151,5,30,0|0|0|0|0|0,0:0|0:0|0:0|0:0|0:0|0:0,0:0:0:0:
313,151,15040,2,0,P|320:134|332:121,2,35.9999989013672,0|0|0,0:0|0:0|0:0,0:0:0:0:
383,177,15190,2,0,P|403:166|425:163,2,38.9999982147218,0|0|0,0:0|0:0|0:0,0:0:0:0:
428,239,15340,2,0,P|450:243|469:255,2,41.9999987182618,0|0|0,0:0|0:0|0:0,0:0:0:0:
423,316,15490,2,0,P|438:332|447:353,2,45.0000017166138,0|0|0,0:0|0:0|0:0,0:0:0:0:
368,375,15640,6,0,L|345:372,5,24,0|0|0|0|0|0,0:0|0:0|0:0|0:0|0:0|0:0,0:0:0:0:
345,372,15940,2,0,L|316:374,5,30,0|0|0|0|0|0,0:0|0:0|0:0|0:0|0:0|0:0,0:0:0:0:
316,374,16240,2,0,P|298:364|276:362,2,35.9999989013672,0|0|0,0:0|0:0|0:0,0:0:0:0:
265,288,16390,2,0,P|244:291|226:304,2,38.9999982147218,0|0|0,0:0|0:0|0:0,0:0:0:0:
182,237,16540,2,0,P|167:252|157:270,2,41.9999987182618,0|0|0,0:0|0:0|0:0,0:0:0:0:
84,255,16690,2,0,P|81:276|86:298,2,45.0000017166138,0|0|0,0:0|0:0|0:0,0:0:0:0:
6,281,16840,6,0,L|2:256,5,24,0|0|0|0|0|0,0:0|0:0|0:0|0:0|0:0|0:0,0:0:0:0:
2,257,17140,2,0,L|6:227,5,30,0|0|0|0|0|0,0:0|0:0|0:0|0:0|0:0|0:0,0:0:0:0:
7,227,17440,2,0,P|0:209|0:192,2,35.9999989013672,0|0|0,0:0|0:0|0:0,0:0:0:0:
82,189,17590,2,0,P|89:170|100:155,2,38.9999982147218,0|0|0,0:0|0:0|0:0,0:0:0:0:
168,209,17740,2,0,P|186:198|206:193,2,41.9999987182618,0|0|0,0:0|0:0|0:0,0:0:0:0:
218,284,17890,2,0,P|240:287|260:297,2,45.0000017166138,0|0|0,0:0|0:0|0:0,0:0:0:0:
196,371,18040,6,0,L|225:367,5,30,0|0|0|0|0|0,0:0|0:0|0:0|0:0|0:0|0:0,0:0:0:0:
225,367,18340,6,0,L|260:371,5,35.9999989013672,0|0|0|0|0|0,0:0|0:0|0:0|0:0|0:0|0:0,0:0:0:0:
260,371,18640,6,0,L|301:365,5,41.9999987182618,0|0|0|0|0|0,0:0|0:0|0:0|0:0|0:0|0:0,0:0:0:0:
301,365,18940,6,0,L|348:371,5,48,0|0|0|0|0|0,0:0|0:0|0:0|0:0|0:0|0:0,0:0:0:0:
301,365,19240,6,0,L|408:357,1,107.999996704102,4|0,0:0|0:0,0:0:0:0:
506,231,19540,1,0,0:0:0:0:
316,185,19690,2,0,L|301:365,1,180,2|0,0:0|0:0,0:0:0:0:
158,377,20140,1,2,0:0:0:0:
226,193,20290,6,0,L|316:185,1,90,0|0,0:0|0:0,0:0:0:0:
486,266,20590,1,0,0:0:0:0:
462,80,20740,1,0,0:0:0:0:
394,300,20890,1,2,0:0:0:0:
369,113,21040,2,0,L|361:23,1,90,0|0,0:0|0:0,0:0:0:0:
207,162,21340,1,2,0:0:0:0:
315,185,21490,1,0,0:0:0:0:
178,65,21640,5,0,0:0:0:0:
278,94,21790,1,0,0:0:0:0:
232,264,21940,1,0,0:0:0:0:
207,162,22090,1,2,0:0:0:0:
381,123,22240,2,0,L|316:185,1,90,0|0,0:0|0:0,0:0:0:0:
352,26,22540,1,2,0:0:0:0:
278,94,22690,1,0,0:0:0:0:
480,188,22840,5,0,0:0:0:0:
346,156,22990,1,0,0:0:0:0:
505,100,23140,1,0,0:0:0:0:
326,161,23290,1,2,0:0:0:0:
426,56,23440,5,0,0:0:0:0:
413,222,23590,1,0,0:0:0:0:
429,32,23740,1,2,0:0:0:0:
412,245,23890,1,0,0:0:0:0:
254,49,24040,6,0,P|299:44|341:66,1,90,0|0,0:0|0:0,0:0:0:0:
283,211,24340,1,0,0:0:0:0:
197,159,24490,1,2,0:0:0:0:
365,135,24640,1,0,0:0:0:0:
201,247,24790,1,0,0:0:0:0:
392,117,24940,2,0,L|385:214,1,90,2|0,0:0|0:0,0:0:0:0:
254,49,25240,5,0,0:0:0:0:
394,92,25390,1,0,0:0:0:0:
210,128,25540,1,0,0:0:0:0:
426,82,25690,1,2,0:0:0:0:
181,137,25840,2,0,L|169:41,1,90,0|0,0:0|0:0,0:0:0:0:
255,240,26140,1,2,0:0:0:0:
125,208,26290,1,0,0:0:0:0:
288,153,26440,6,0,L|377:164,1,90,0|0,0:0|0:0,0:0:0:0:
407,343,26740,1,0,0:0:0:0:
346,264,26890,1,2,0:0:0:0:
486,155,27040,1,0,0:0:0:0:
449,248,27190,1,0,0:0:0:0:
377,164,27340,2,0,L|366:75,1,90,2|0,0:0|0:0,0:0:0:0:
201,29,27640,5,0,0:0:0:0:
362,44,27790,1,0,0:0:0:0:
177,110,27940,1,0,0:0:0:0:
391,33,28090,1,2,0:0:0:0:
245,206,28240,5,0,0:0:0:0:
289,23,28390,1,0,0:0:0:0:
339,242,28540,1,2,0:0:0:0:
201,29,28690,1,0,0:0:0:0:
357,275,28840,6,0,L|294:269,1,62.9999980773926,4|0,0:0|0:0,0:0:0:0:
409,239,29140,2,0,L|357:275,1,62.9999980773926,8|0,0:0|0:0,0:0:0:0:
426,179,29440,1,0,0:0:0:0:
409,239,29590,1,0,0:0:0:0:
400,121,29740,2,0,L|426:179,1,62.9999980773926,8|0,0:0|0:0,0:0:0:0:
235,49,30040,6,0,L|302:55,1,67.5000025749208,4|0,0:0|0:0,0:0:0:0:
179,87,30340,2,0,L|235:49,1,67.5000025749208,8|0,0:0|0:0,0:0:0:0:
161,151,30640,1,0,0:0:0:0:
179,87,30790,1,0,0:0:0:0:
188,213,30940,2,0,L|161:151,1,67.5000025749208,8|0,0:0|0:0,0:0:0:0:
324,283,31240,6,0,L|294:347,1,72,4|0,0:0|0:0,0:0:0:0:
299,210,31540,2,0,L|328:274,1,72,8|0,0:0|0:0,0:0:0:0:
336,131,31840,1,0,0:0:0:0:
305,196,31990,1,0,0:0:0:0:
300,49,32140,2,0,L|329:113,1,72,8|0,0:0|0:0,0:0:0:0:
143,82,32440,6,0,L|176:12,1,76.5000014591217,4|0,0:0|0:0,0:0:0:0:
187,177,32740,2,0,L|154:107,1,76.5000014591217,8|0,0:0|0:0,0:0:0:0:
139,274,33040,1,0,0:0:0:0:
171,204,33190,1,0,0:0:0:0:
182,382,33340,2,0,L|149:312,1,76.5000014591217,8|0,0:0|0:0,0:0:0:0:
349,277,33640,5,4,0:0:0:0:
349,277,33790,1,0,0:0:0:0:
247,216,33940,5,8,0:0:0:0:
247,216,34090,1,0,0:0:0:0:
457,174,34240,5,0,0:0:0:0:
457,174,34390,1,2,0:0:0:0:
215,107,34540,5,8,0:0:0:0:
215,107,34690,1,0,0:0:0:0:
458,39,34840,5,4,0:0:0:0:
454,63,34990,1,0,0:0:0:0:
287,66,35140,5,8,0:0:0:0:
296,118,35290,1,0,0:0:0:0:
497,167,35440,5,0,0:0:0:0:
483,233,35590,1,0,0:0:0:0:
260,226,35740,5,8,0:0:0:0:
277,305,35890,1,0,0:0:0:0:
497,169,36040,5,4,0:0:0:0:
488,145,36115,1,0,0:0:0:0:
473,125,36190,1,0,0:0:0:0:
453,110,36265,1,0,0:0:0:0:
429,102,36340,1,0,0:0:0:0:
404,102,36415,1,0,0:0:0:0:
380,109,36490,1,0,0:0:0:0:
359,123,36565,1,0,0:0:0:0:
343,142,36640,5,0,0:0:0:0:
334,165,36715,1,0,0:0:0:0:
319,185,36790,1,0,0:0:0:0:
299,200,36865,1,0,0:0:0:0:
275,208,36940,1,0,0:0:0:0:
250,208,37015,1,0,0:0:0:0:
226,201,37090,1,0,0:0:0:0:
205,187,37165,1,0,0:0:0:0:
189,168,37240,6,0,L|192:138,14,26.9999991760254,4|0|0|0|0|0|0|0|0|0|0|0|0|0|0,0:0|0:0|0:0|0:0|0:0|0:0|0:0|0:0|0:0|0:0|0:0|0:0|0:0|0:0|0:0,0:0:0:0:
274,79,37840,6,0,L|270:47,14,31.4999990386963,0|0|0|0|0|0|0|0|0|0|0|0|0|0|0,0:0|0:0|0:0|0:0|0:0|0:0|0:0|0:0|0:0|0:0|0:0|0:0|0:0|0:0|0:0,0:0:0:0:
396,111,38440,6,0,B|376:147|376:147|390:237,1,116.999994644165,4|0,1:0|0:0,0:0:0:0:
463,305,38665,1,0,0:0:0:0:
439,338,38740,2,0,B|383:320|383:320|333:353,1,116.999994644165,8|0,0:0|0:0,0:0:0:0:
228,333,38965,1,2,0:0:0:0:
250,362,39040,2,0,L|308:356,2,58.4999973220826,0|2|0,0:0|0:0|0:0,0:0:0:0:
256,200,39340,5,8,0:0:0:0:
258,183,39415,1,0,0:0:0:0:
248,190,39490,1,0,0:0:0:0:
265,192,39565,1,2,0:0:0:0:
409,55,39640,6,0,B|354:34|354:34|301:70,1,116.999994644165,0|0,0:0|0:0,0:0:0:0:
208,35,39865,1,0,0:0:0:0:
189,71,39940,2,0,L|315:66,1,116.999994644165,8|0,0:0|0:0,0:0:0:0:
407,159,40165,1,2,0:0:0:0:
439,133,40240,2,0,L|446:75,2,58.4999973220826,0|2|0,0:0|0:0|0:0,0:0:0:0:
256,200,40540,5,8,0:0:0:0:
256,183,40615,1,0,0:0:0:0:
247,191,40690,1,0,0:0:0:0:
264,191,40765,1,2,0:0:0:0:
218,346,40840,6,0,B|162:324|162:324|110:348,1,116.999994644165,4|0,1:0|0:0,0:0:0:0:
96,201,41065,1,0,0:0:0:0:
123,230,41140,2,0,L|110:347,1,116.999994644165,8|0,0:0|0:0,0:0:0:0:
4,258,41365,1,2,0:0:0:0:
7,253,41440,1,0,0:0:0:0:
9,247,41515,2,0,L|3:188,1,58.4999973220826,2|0,0:0|0:0,0:0:0:0:
256,200,41740,5,8,0:0:0:0:
256,183,41815,1,0,0:0:0:0:
247,191,41890,1,0,0:0:0:0:
264,191,41965,1,2,0:0:0:0:
224,33,42040,6,0,B|165:22|165:22|121:59,1,116.999994644165,0|0,0:0|0:0,0:0:0:0:
109,209,42265,1,0,0:0:0:0:
132,175,42340,2,0,L|120:52,1,116.999994644165,8|0,0:0|0:0,0:0:0:0:
32,168,42565,1,2,0:0:0:0:
35,172,42640,1,0,0:0:0:0:
38,176,42715,2,0,L|99:181,1,58.4999973220826,2|0,0:0|0:0,0:0:0:0:
256,200,42940,5,8,0:0:0:0:
256,183,43015,1,0,0:0:0:0:
247,191,43090,1,0,0:0:0:0:
264,191,43165,1,2,0:0:0:0:
427,117,43240,6,0,B|411:148|411:148|423:234,1,116.999994644165,4|0,1:0|0:0,0:0:0:0:
407,372,43465,1,0,0:0:0:0:
437,345,43540,2,0,L|420:219,1,116.999994644165,8|0,0:0|0:0,0:0:0:0:
336,241,43765,1,2,0:0:0:0:
369,264,43840,2,0,L|361:206,2,58.4999973220826,0|2|0,0:0|0:0|0:0,0:0:0:0:
256,200,44140,5,8,0:0:0:0:
256,183,44215,1,0,0:0:0:0:
247,191,44290,1,0,0:0:0:0:
264,191,44365,1,2,0:0:0:0:
122,299,44440,6,0,B|170:333|170:333|228:317,1,116.999994644165,0|0,0:0|0:0,0:0:0:0:
150,162,44665,1,0,0:0:0:0:
114,182,44740,2,0,L|122:309,1,116.999994644165,8|0,0:0|0:0,0:0:0:0:
348,319,44965,1,2,0:0:0:0:
316,293,45040,2,0,L|256:298,2,58.4999973220826,0|2|0,0:0|0:0|0:0,0:0:0:0:
256,200,45340,5,8,0:0:0:0:
256,183,45415,1,0,0:0:0:0:
247,191,45490,1,0,0:0:0:0:
264,191,45565,1,2,0:0:0:0:
348,319,45640,6,0,B|396:352|396:352|452:334,1,116.999994644165,4|0,1:0|0:0,0:0:0:0:
496,195,45865,1,0,0:0:0:0:
460,217,45940,2,0,L|451:334,1,116.999994644165,8|0,0:0|0:0,0:0:0:0:
274,335,46165,1,2,0:0:0:0:
270,329,46240,1,0,0:0:0:0:
267,324,46315,2,0,L|326:316,1,58.4999973220826,2|0,0:0|0:0,0:0:0:0:
256,200,46540,5,8,0:0:0:0:
256,183,46615,1,0,0:0:0:0:
247,192,46690,1,0,0:0:0:0:
264,192,46765,1,2,0:0:0:0:
256,12,46840,5,2,0:0:0:0:
118,102,46990,1,0,0:0:0:0:
117,116,47065,1,0,0:0:0:0:
117,129,47140,1,0,0:0:0:0:
116,143,47215,1,0,0:0:0:0:
115,156,47290,2,0,L|113:202,1,45,2|0,0:0|0:0,0:0:0:0:
158,360,47440,5,0,0:0:0:0:
158,360,47515,1,0,0:0:0:0:
158,360,47590,2,0,L|208:354,1,45,0|0,0:0|0:0,0:0:0:0:
392,326,47740,2,0,L|347:320,1,45,0|0,0:0|0:0,0:0:0:0:
174,257,47890,2,0,L|218:251,1,45,0|0,0:0|0:0,0:0:0:0:
443,242,48040,6,0,L|380:235,1,62.9999980773926,4|0,1:0|0:0,0:0:0:0:
254,146,48190,1,0,0:0:0:0:
316,115,48265,1,0,0:0:0:0:
372,156,48340,1,8,0:0:0:0:
437,130,48415,1,0,0:0:0:0:
380,235,48490,2,0,L|374:172,1,62.9999980773926,0|2,0:0|0:0,0:0:0:0:
213,100,48640,1,0,0:0:0:0:
234,123,48715,1,2,0:0:0:0:
254,146,48790,2,0,L|248:208,1,62.9999980773926,0|0,0:0|0:0,0:0:0:0:
297,384,48940,6,0,L|291:322,1,62.9999980773926,8|0,0:0|0:0,0:0:0:0:
126,300,49090,1,0,0:0:0:0:
165,356,49165,1,2,0:0:0:0:
228,327,49240,2,0,L|291:321,1,62.9999980773926,0|0,0:0|0:0,0:0:0:0:
451,379,49390,1,0,0:0:0:0:
496,326,49465,1,0,0:0:0:0:
457,272,49540,1,8,0:0:0:0:
491,210,49615,1,0,0:0:0:0:
379,270,49690,2,0,L|441:271,1,62.9999980773926,0|2,0:0|0:0,0:0:0:0:
411,146,49840,6,0,L|348:151,1,62.9999980773926,0|2,0:0|0:0,0:0:0:0:
157,162,49990,1,0,0:0:0:0:
411,146,50140,6,0,L|348:151,1,62.9999980773926,8|0,0:0|0:0,0:0:0:0:
157,162,50290,1,0,0:0:0:0:
213,201,50365,1,2,0:0:0:0:
269,161,50440,6,0,L|332:156,1,62.9999980773926,4|0,1:0|0:0,0:0:0:0:
441,271,50590,1,0,0:0:0:0:
377,243,50665,1,0,0:0:0:0:
327,291,50740,1,8,0:0:0:0:
267,255,50815,1,0,0:0:0:0:
324,378,50890,2,0,L|325:314,1,62.9999980773926,0|2,0:0|0:0,0:0:0:0:
320,127,51040,1,0,0:0:0:0:
291,113,51115,1,2,0:0:0:0:
263,98,51190,2,0,L|268:160,1,62.9999980773926,0|0,0:0|0:0,0:0:0:0:
185,384,51340,6,0,L|190:322,1,62.9999980773926,8|0,0:0|0:0,0:0:0:0:
44,230,51490,1,0,0:0:0:0:
103,194,51565,1,2,0:0:0:0:
151,243,51640,2,0,L|213:238,1,62.9999980773926,0|0,0:0|0:0,0:0:0:0:
324,378,51790,1,0,0:0:0:0:
356,316,51865,1,0,0:0:0:0:
309,265,51940,1,8,0:0:0:0:
352,210,52015,1,0,0:0:0:0:
316,150,52090,2,0,L|321:88,1,62.9999980773926,0|2,0:0|0:0,0:0:0:0:
191,28,52240,6,0,B|179:60|179:60|191:87,1,62.9999980773926,0|2,0:0|0:0,0:0:0:0:
321,87,52390,2,0,B|332:60|332:60|320:28,1,62.9999980773926,0|0,0:0|0:0,0:0:0:0:
160,151,52540,6,0,B|148:178|148:178|160:210,1,62.9999980773926,8|0,0:0|0:0,0:0:0:0:
352,210,52690,2,0,B|364:178|364:178|352:151,1,62.9999980773926,0|2,0:0|0:0,0:0:0:0:
175,286,52840,6,0,B|180:348,1,62.9999980773926,4|0,1:0|0:0,0:0:0:0:
338,371,52990,1,0,0:0:0:0:
406,383,53065,1,0,0:0:0:0:
439,322,53140,1,8,0:0:0:0:
503,346,53215,1,0,0:0:0:0:
429,242,53290,2,0,B|436:304,1,62.9999980773926,0|2,0:0|0:0,0:0:0:0:
252,383,53440,1,0,0:0:0:0:
278,366,53515,1,2,0:0:0:0:
304,349,53590,2,0,B|309:287,1,62.9999980773926,0|0,0:0|0:0,0:0:0:0:
206,141,53740,6,0,B|211:202,1,62.9999980773926,8|0,0:0|0:0,0:0:0:0:
133,352,53890,1,0,0:0:0:0:
81,305,53965,1,2,0:0:0:0:
116,245,54040,2,0,B|121:183,1,62.9999980773926,0|0,0:0|0:0,0:0:0:0:
18,60,54190,1,0,0:0:0:0:
78,26,54265,1,0,0:0:0:0:
130,71,54340,1,8,0:0:0:0:
179,21,54415,1,0,0:0:0:0:
124,155,54490,2,0,B|129:93,1,62.9999980773926,0|2,0:0|0:0,0:0:0:0:
261,241,54640,1,0,0:0:0:0:
236,222,54715,1,2,0:0:0:0:
211,203,54790,2,0,B|206:141,1,62.9999980773926,0|0,0:0|0:0,0:0:0:0:
337,16,54940,6,0,B|332:78,1,62.9999980773926,8|0,0:0|0:0,0:0:0:0:
442,214,55090,1,0,0:0:0:0:
376,190,55165,1,2,0:0:0:0:
337,248,55240,2,0,B|275:243,1,62.9999980773926,4|0,1:0|0:0,0:0:0:0:
90,335,55390,1,0,0:0:0:0:
153,364,55465,1,0,0:0:0:0:
205,319,55540,1,8,0:0:0:0:
267,350,55615,1,0,0:0:0:0:
197,235,55690,2,0,B|202:297,1,62.9999980773926,0|2,0:0|0:0,0:0:0:0:
65,90,55840,1,0,0:0:0:0:
86,112,55915,1,2,0:0:0:0:
108,133,55990,2,0,B|103:195,1,62.9999980773926,0|0,0:0|0:0,0:0:0:0:
301,368,56140,6,0,B|296:306,1,62.9999980773926,8|0,0:0|0:0,0:0:0:0:
280,93,56290,1,0,0:0:0:0:
280,93,56365,1,2,0:0:0:0:
280,93,56440,6,0,B|240:97|240:97|217:87|217:87|172:90,1,107.999996704102,8|0,0:0|0:0,0:0:0:0:
159,164,56890,2,0,B|201:161|201:161|224:172|224:172|265:168,1,107.999996704102,8|0,0:0|0:0,0:0:0:0:
291,240,57340,2,0,L|234:245,1,53.9999983520508,8|0,0:0|0:0,0:0:0:0:
159,313,57640,6,0,B|201:310|201:310|224:321|224:321|265:317,1,107.999996704102,8|0,0:0|0:0,0:0:0:0:
291,240,58090,2,0,B|251:244|251:244|228:234|228:234|186:237,1,107.999996704102,8|0,0:0|0:0,0:0:0:0:
159,164,58540,2,0,L|213:160,1,53.9999983520508,8|0,0:0|0:0,0:0:0:0:
73,89,58840,6,0,L|189:80,1,116.999994644165,4|0,1:0|0:0,0:0:0:0:
385,186,59140,1,8,0:0:0:0:
183,316,59290,1,0,0:0:0:0:
187,269,59365,1,2,0:0:0:0:
192,223,59440,1,0,0:0:0:0:
196,176,59515,1,2,0:0:0:0:
201,130,59590,1,0,0:0:0:0:
353,38,59740,1,8,0:0:0:0:
147,69,59890,1,0,0:0:0:0:
379,29,60040,5,0,0:0:0:0:
264,178,60190,1,0,0:0:0:0:
191,4,60340,1,8,0:0:0:0:
377,179,60490,1,0,0:0:0:0:
374,226,60565,1,2,0:0:0:0:
371,273,60640,1,0,0:0:0:0:
368,320,60715,1,2,0:0:0:0:
366,366,60790,1,0,0:0:0:0:
148,335,60940,1,8,0:0:0:0:
290,284,61090,1,0,0:0:0:0:
121,352,61240,6,0,L|4:341,1,116.999994644165,4|0,1:0|0:0,0:0:0:0:
113,170,61540,1,8,0:0:0:0:
158,158,61615,1,0,0:0:0:0:
204,162,61690,1,0,0:0:0:0:
237,195,61765,1,2,0:0:0:0:
271,225,61840,1,0,0:0:0:0:
318,228,61915,1,2,0:0:0:0:
363,218,61990,1,0,0:0:0:0:
428,30,62140,1,8,0:0:0:0:
310,140,62290,1,0,0:0:0:0:
492,123,62440,5,0,0:0:0:0:
318,228,62590,1,0,0:0:0:0:
428,30,62740,1,8,0:0:0:0:
243,2,62890,1,0,0:0:0:0:
286,16,62965,1,2,0:0:0:0:
316,52,63040,1,0,0:0:0:0:
325,97,63115,1,2,0:0:0:0:
310,140,63190,1,0,0:0:0:0:
192,299,63340,1,8,0:0:0:0:
237,90,63490,1,0,0:0:0:0:
363,324,63640,5,4,1:0:0:0:
172,161,63790,1,0,0:0:0:0:
465,238,63940,1,8,0:0:0:0:
239,307,64090,1,0,0:0:0:0:
192,299,64165,1,2,0:0:0:0:
145,293,64240,1,0,0:0:0:0:
99,287,64315,1,2,0:0:0:0:
53,280,64390,1,0,0:0:0:0:
12,86,64540,1,8,0:0:0:0:
142,210,64690,1,0,0:0:0:0:
190,28,64840,6,0,L|308:34,1,116.999994644165,0|0,0:0|0:0,0:0:0:0:
504,151,65140,1,8,0:0:0:0:
296,220,65290,1,0,0:0:0:0:
298,173,65365,1,2,0:0:0:0:
301,126,65440,1,0,0:0:0:0:
303,79,65515,1,2,0:0:0:0:
306,33,65590,1,0,0:0:0:0:
425,228,65740,1,8,0:0:0:0:
228,85,65890,1,0,0:0:0:0:
446,58,66040,5,4,1:0:0:0:
321,259,66190,1,0,0:0:0:0:
209,50,66340,1,8,0:0:0:0:
255,43,66415,1,0,0:0:0:0:
300,53,66490,1,0,0:0:0:0:
334,85,66565,1,2,0:0:0:0:
371,112,66640,1,0,0:0:0:0:
418,116,66715,1,2,0:0:0:0:
464,108,66790,1,0,0:0:0:0:
253,140,66940,1,8,0:0:0:0:
412,25,67090,1,0,0:0:0:0:
447,253,67240,6,0,L|436:352,1,90,8|0,0:0|0:0,0:0:0:0:
399,178,67540,2,0,L|410:277,1,90,8|0,0:0|0:0,0:0:0:0:
371,109,67840,2,0,L|360:208,1,90,8|0,0:0|0:0,0:0:0:0:
324,33,68140,2,0,L|335:132,1,90,8|0,0:0|0:0,0:0:0:0:
120,120,68440,6,0,L|174:128,1,53.9999983520508,4|0,1:0|0:0,0:0:0:0:
194,252,68740,1,0,0:0:0:0:
140,198,68890,1,0,0:0:0:0:
174,128,69040,2,0,L|185:9,1,107.999996704102,2|0,0:0|0:0,0:0:0:0:
298,67,69490,1,0,0:0:0:0:
234,172,69640,6,0,P|192:204|139:197,1,107.999996704102,0|0,0:0|0:0,0:0:0:0:
140,198,70090,1,0,0:0:0:0:
192,71,70240,2,0,B|235:63|235:63|259:72|259:72|298:67,1,107.999996704102,2|0,0:0|0:0,0:0:0:0:
392,12,70690,1,0,0:0:0:0:
470,86,70840,6,0,L|466:147,1,53.9999983520508,0|0,0:0|0:0,0:0:0:0:
320,208,71140,1,0,0:0:0:0:
360,124,71290,1,0,0:0:0:0:
224,212,71440,1,2,0:0:0:0:
276,289,71590,1,0,0:0:0:0:
268,128,71740,1,0,0:0:0:0:
175,135,71890,1,0,0:0:0:0:
320,208,72040,6,0,L|382:203,1,53.9999983520508,0|0,0:0|0:0,0:0:0:0:
469,151,72340,1,0,0:0:0:0:
390,103,72490,1,0,0:0:0:0:
480,271,72640,2,0,P|451:270|418:285,1,53.9999983520508,2|0,0:0|0:0,0:0:0:0:
396,311,72865,1,0,0:0:0:0:
396,311,72940,2,0,L|338:306,1,53.9999983520508,2|0,0:0|0:0,0:0:0:0:
209,172,73240,6,0,P|241:168|270:176,1,62.9999980773926,0|0,0:0|0:0,0:0:0:0:
364,233,73540,1,0,0:0:0:0:
234,282,73690,1,0,0:0:0:0:
355,130,73840,2,0,L|347:64,1,62.9999980773926,2|0,0:0|0:0,0:0:0:0:
198,29,74140,1,0,0:0:0:0:
343,35,74290,1,0,0:0:0:0:
158,21,74440,6,0,L|165:83,1,62.9999980773926,0|0,0:0|0:0,0:0:0:0:
243,178,74740,1,0,0:0:0:0:
99,145,74890,1,0,0:0:0:0:
256,39,75040,2,0,P|287:36|319:43,1,62.9999980773926,2|0,0:0|0:0,0:0:0:0:
387,161,75340,2,0,P|356:164|324:157,1,62.9999980773926,0|0,0:0|0:0,0:0:0:0:
287,135,75565,1,0,0:0:0:0:
287,135,75640,6,0,L|291:210,1,72,10|0,0:0|0:0,0:0:0:0:
351,322,75940,1,10,0:0:0:0:
333,309,76015,1,0,0:0:0:0:
313,302,76090,1,0,0:0:0:0:
291,302,76165,1,0,0:0:0:0:
270,308,76240,1,10,0:0:0:0:
142,360,76390,1,0,0:0:0:0:
213,202,76540,1,10,0:0:0:0:
53,285,76690,1,0,0:0:0:0:
124,111,76840,6,0,L|122:74,1,35.9999989013672,8|0,0:0|0:0,0:0:0:0:
215,38,76990,6,0,L|212:79,1,35.9999989013672,0|0,0:0|0:0,0:0:0:0:
324,236,77140,5,8,0:0:0:0:
306,78,77290,1,0,0:0:0:0:
432,129,77440,5,8,0:0:0:0:
287,66,77590,1,0,0:0:0:0:
317,214,77740,5,8,0:0:0:0:
444,119,77890,1,0,0:0:0:0:
317,214,78040,6,0,L|324:309,1,90,4|0,1:0|0:0,0:0:0:0:
211,363,78340,1,8,0:0:0:0:
92,240,78490,1,0,0:0:0:0:
104,258,78565,1,2,0:0:0:0:
105,236,78640,1,0,0:0:0:0:
92,253,78715,1,2,0:0:0:0:
112,247,78790,1,0,0:0:0:0:
249,123,78940,5,8,0:0:0:0:
338,311,79090,1,0,0:0:0:0:
325,315,79165,1,2,0:0:0:0:
327,301,79240,1,0,0:0:0:0:
335,82,79390,1,0,0:0:0:0:
157,166,79540,5,8,0:0:0:0:
414,219,79690,1,0,0:0:0:0:
414,197,79765,1,2,0:0:0:0:
401,214,79840,1,0,0:0:0:0:
421,208,79915,1,2,0:0:0:0:
401,201,79990,1,0,0:0:0:0:
199,300,80140,5,8,0:0:0:0:
347,90,80290,1,0,0:0:0:0:
334,95,80365,1,2,0:0:0:0:
335,82,80440,1,4,1:0:0:0:
367,306,80590,1,0,0:0:0:0:
130,202,80740,5,8,0:0:0:0:
295,363,80890,1,0,0:0:0:0:
295,341,80965,1,2,0:0:0:0:
302,352,81040,1,0,0:0:0:0:
282,358,81115,1,2,0:0:0:0:
282,345,81190,1,0,0:0:0:0:
221,98,81340,5,8,0:0:0:0:
108,347,81490,1,0,0:0:0:0:
105,333,81565,1,2,0:0:0:0:
101,319,81640,2,0,L|146:314,1,45,0|0,0:0|0:0,0:0:0:0:
74,241,81790,1,0,0:0:0:0:
74,241,81865,2,0,L|120:237,1,45,0|8,0:0|0:0,0:0:0:0:
46,161,82015,1,0,0:0:0:0:
46,161,82090,2,0,L|90:157,1,45,0|2,0:0|0:0,0:0:0:0:
289,253,82240,6,0,L|244:249,1,45,0|2,0:0|0:0,0:0:0:0:
118,237,82390,1,0,0:0:0:0:
297,121,82540,1,8,0:0:0:0:
194,343,82690,1,0,0:0:0:0:
200,331,82765,1,2,0:0:0:0:
206,319,82840,6,0,L|301:310,1,90,4|0,1:0|0:0,0:0:0:0:
409,136,83140,1,8,0:0:0:0:
482,353,83290,1,0,0:0:0:0:
470,334,83365,1,2,0:0:0:0:
468,356,83440,1,0,0:0:0:0:
483,339,83515,1,2,0:0:0:0:
461,344,83590,1,0,0:0:0:0:
269,217,83740,5,8,0:0:0:0:
495,129,83890,1,0,0:0:0:0:
505,138,83965,1,2,0:0:0:0:
493,141,84040,1,0,0:0:0:0:
296,53,84190,1,0,0:0:0:0:
354,270,84340,5,8,0:0:0:0:
453,56,84490,1,0,0:0:0:0:
453,34,84565,1,2,0:0:0:0:
440,51,84640,1,0,0:0:0:0:
460,45,84715,1,2,0:0:0:0:
440,38,84790,1,0,0:0:0:0:
493,221,84940,5,8,0:0:0:0:
244,134,85090,1,0,0:0:0:0:
246,120,85165,1,2,0:0:0:0:
249,107,85240,2,0,L|294:110,1,45,4|0,1:0|0:0,0:0:0:0:
389,23,85390,2,0,L|344:26,1,45,0|0,0:0|0:0,0:0:0:0:
249,107,85540,5,8,0:0:0:0:
392,219,85690,1,0,0:0:0:0:
392,197,85765,1,2,0:0:0:0:
379,214,85840,1,0,0:0:0:0:
399,208,85915,1,2,0:0:0:0:
379,201,85990,1,0,0:0:0:0:
344,25,86140,1,8,0:0:0:0:
275,234,86290,1,0,0:0:0:0:
466,214,86440,5,8,0:0:0:0:
255,186,86590,1,0,0:0:0:0:
491,204,86740,6,0,L|466:214,1,26.9999991760254,8|0,0:0|0:0,0:0:0:0:
293,284,86890,2,0,L|317:273,1,26.9999991760254,0|0,0:0|0:0,0:0:0:0:
508,183,87040,6,0,L|491:204,1,26.9999991760254,8|0,0:0|0:0,0:0:0:0:
375,349,87190,2,0,L|391:327,1,26.9999991760254,0|0,0:0|0:0,0:0:0:0:
512,157,87340,5,8,0:0:0:0:
479,364,87490,1,0,0:0:0:0:
403,161,87640,6,0,L|314:171,1,90,4|0,1:0|0:0,0:0:0:0:
144,268,87940,1,8,0:0:0:0:
137,103,88090,1,0,0:0:0:0:
167,108,88165,1,2,0:0:0:0:
172,139,88240,1,0,0:0:0:0:
143,153,88315,1,2,0:0:0:0:
122,130,88390,1,0,0:0:0:0:
270,15,88540,1,8,0:0:0:0:
313,171,88690,1,0,0:0:0:0:
446,95,88840,6,0,L|438:185,1,90,4|0,1:0|0:0,0:0:0:0:
297,299,89140,1,8,0:0:0:0:
437,381,89290,1,0,0:0:0:0:
454,356,89365,1,2,0:0:0:0:
437,331,89440,1,0,0:0:0:0:
407,342,89515,1,2,0:0:0:0:
408,372,89590,1,0,0:0:0:0:
508,222,89740,1,8,0:0:0:0:
351,182,89890,1,0,0:0:0:0:
482,58,90040,5,4,1:0:0:0:
327,9,90190,1,0,0:0:0:0:
432,155,90340,1,8,0:0:0:0:
275,114,90490,1,0,0:0:0:0:
270,145,90565,1,2,0:0:0:0:
238,150,90640,1,0,0:0:0:0:
225,121,90715,1,2,0:0:0:0:
246,99,90790,1,0,0:0:0:0:
326,259,90940,1,8,0:0:0:0:
165,236,91090,1,0,0:0:0:0:
283,371,91240,5,4,1:0:0:0:
252,211,91390,1,0,0:0:0:0:
164,368,91540,1,8,0:0:0:0:
373,275,91690,1,0,0:0:0:0:
356,249,91765,1,2,0:0:0:0:
326,259,91840,1,0,0:0:0:0:
326,290,91915,1,2,0:0:0:0:
356,299,91990,1,0,0:0:0:0:
165,236,92140,5,8,0:0:0:0:
425,331,92290,1,0,0:0:0:0:
264,79,92440,5,4,0:0:0:0:
