osu file format v14

[General]
AudioFilename: audio.mp3
AudioLeadIn: 0
PreviewTime: -1
Countdown: 0
SampleSet: None
StackLeniency: 0.7
Mode: 0
LetterboxInBreaks: 0
WidescreenStoryboard: 1

[Editor]
DistanceSpacing: 1
BeatDivisor: 4
GridSize: 32
TimelineZoom: 1

[Metadata]
Title:1UP
TitleUnicode:1UP
Artist:F-777
ArtistUnicode:F-777
Creator:MeSandwitches
Version:Normal
Source:
Tags:F-777 1UP Normal Easy
BeatmapID:1902883
BeatmapSetID:660116

[Difficulty]
HPDrainRate:3
CircleSize:4
OverallDifficulty:3
ApproachRate:5
SliderMultiplier:1
SliderTickRate:2

[Events]
//Background and Video events
0,0,"F777.jpg",0,0
//Break Periods
2,32681,38499
//Storyboard Layer 0 (Background)
//Storyboard Layer 1 (Fail)
//Storyboard Layer 2 (Pass)
//Storyboard Layer 3 (Foreground)
//Storyboard Sound Samples

[TimingPoints]
0,451.127819548872,4,1,0,100,1,0
18045,-66.6666666666667,4,1,0,100,0,1
32481,-100,4,1,0,100,0,0

[Colours]
Combo1 : 26,116,242
Combo2 : 0,128,0
Combo3 : 0,255,64
Combo4 : 23,209,116
Combo5 : 0,0,255

[HitObjects]
110,112,0,6,0,B|145:70|203:106,2,100
227,166,1804,2,0,P|243:222|228:260,2,100
186,151,2932,6,0,P|212:108|231:103,2,50
192,218,3609,2,0,P|273:277|309:207,1,200
221,175,5413,2,0,P|273:129|307:124,2,100
296,195,6541,2,0,P|282:154|269:143,2,50
260,232,7218,5,0,0:0:0:0:
239,189,7669,2,0,B|193:217|193:167|145:196,1,100
239,143,9022,6,0,P|255:232|150:246,2,200
190,192,11278,1,0,0:0:0:0:
239,143,11729,1,0,0:0:0:0:
309,137,12631,6,0,B|328:187|328:187|306:245,1,100
249,188,13308,2,0,L|216:171,1,25
183,141,13759,2,0,P|180:106|198:85,2,50
243,192,14436,6,0,P|248:251|294:267,2,100
256,192,16240,12,0,18045,0:0:0:0:
193,194,18496,6,0,P|184:117|239:80,1,150.000005722046
263,154,19172,2,0,L|286:220,2,37.5000014305115
238,194,19849,6,0,P|244:278|303:310,2,150.000005722046
280,214,20977,2,0,P|282:164|272:126,2,75.0000028610231
211,251,21654,6,0,B|178:184|178:184|217:113,1,150.000005722046
123,138,22330,2,0,L|142:106,3,37.5000014305115
194,86,23007,2,0,P|216:128|209:167,1,75.0000028610231
229,198,23458,6,0,P|274:227|317:206,1,75.0000028610231
326,183,23909,2,0,P|323:259|299:293,1,112.500004291535
285,238,24586,2,0,P|314:259|352:264,2,75.0000028610231
211,251,25263,6,0,B|178:184|178:184|217:113,1,150.000005722046
129,110,26165,1,0,0:0:0:0:
135,188,26390,2,0,L|156:279,1,75.0000028610231
236,221,27067,6,0,L|317:194,1,75.0000028610231
377,146,27518,2,0,L|411:257,1,112.500004291535
442,312,28195,2,0,P|370:310|336:248,1,150.000005722046
336,153,28872,6,0,P|403:215|473:223,2,150.000005722046
245,183,29999,2,0,L|269:98,1,75.0000028610231
256,192,30676,12,0,32481,0:0:0:0:
94,237,39699,6,0,B|123:187|123:187|96:131|169:61|218:92|218:92|184:184|263:169,1,350
304,101,41503,6,0,B|322:202|294:228|294:228|186:213|201:140|201:140|111:162,1,350
103,71,43308,6,0,B|166:106|159:139|159:139|215:137|204:202|204:202|211:269|340:180,1,350
256,192,45112,12,0,46917,0:0:0:0:
146,127,47368,6,0,P|169:172|156:217,2,100
165,93,48496,1,0,0:0:0:0:
221,81,48721,2,0,B|239:132|239:132|293:118,2,100
162,97,50075,1,0,0:0:0:0:
186,180,50751,6,0,L|240:195,2,50
106,151,51428,2,0,B|142:102|142:102|246:114,1,150
256,145,52556,5,0,0:0:0:0:
256,145,52781,2,0,P|284:198|262:239,1,100
193,230,53458,2,0,P|168:189|170:167,2,50
240,125,54360,5,0,0:0:0:0:
240,125,54586,2,0,L|349:100,2,100
257,198,55714,1,0,0:0:0:0:
185,112,56165,5,0,0:0:0:0:
185,112,56390,2,0,B|140:160|140:160|141:216,2,100
174,103,57969,5,0,0:0:0:0:
174,103,58195,2,0,P|221:145|219:197,2,100
256,192,59774,12,0,61353,0:0:0:0:
277,144,61804,5,0,0:0:0:0:
301,66,62255,1,0,0:0:0:0:
223,88,62932,1,0,0:0:0:0:
223,88,63157,6,0,L|204:194,2,100
301,124,64511,1,0,0:0:0:0:
321,207,64962,6,0,P|255:269|217:191,1,200
255,139,66541,1,0,0:0:0:0:
255,139,66766,2,0,L|358:112,2,100
175,100,68120,1,0,0:0:0:0:
212,172,68571,6,0,P|230:224|211:271,2,100
165,101,69924,2,0,L|223:88,1,50
287,133,70375,2,0,P|337:157|341:209,2,100
215,97,71729,1,0,0:0:0:0:
256,192,72180,12,0,75789,0:0:0:0:
