osu file format v14

[General]
AudioFilename: audio.mp3
AudioLeadIn: 0
PreviewTime: 109080
Countdown: 0
SampleSet: Soft
StackLeniency: 0.7
Mode: 3
LetterboxInBreaks: 0
SpecialStyle: 0
WidescreenStoryboard: 0

[Editor]
DistanceSpacing: 1.5
BeatDivisor: 4
GridSize: 4
TimelineZoom: 1.9

[Metadata]
Title:Be With U
TitleUnicode:Be With U
Artist:F Rabbeat
ArtistUnicode:F Rabbeat
Creator:Crisper
Version:Love
Source:BOFXVI
Tags:kawaii future core futurecore bass bms electronic md10 兎我月 未来 yeahtuna groundbreaking 2020 compilation album THE BMS OF FIGHTERS instrumental LN long note
BeatmapID:3417919
BeatmapSetID:1673284

[Difficulty]
HPDrainRate:8.5
CircleSize:4
OverallDifficulty:8
ApproachRate:5
SliderMultiplier:1.4
SliderTickRate:1

[Events]
//Background and Video events
0,0,"BG.jpg",0,0
//Break Periods
//Storyboard Layer 0 (Background)
//Storyboard Layer 1 (Fail)
//Storyboard Layer 2 (Pass)
//Storyboard Layer 3 (Foreground)
//Storyboard Layer 4 (Overlay)
//Storyboard Sound Samples

[TimingPoints]
738,342.857142857143,4,2,1,50,1,0
110795,-100,4,2,1,50,0,1
132395,-100,4,2,1,50,0,0

[HitObjects]
64,192,737,128,0,1080:0:0:0:0:
448,192,737,128,0,1423:0:0:0:0:
320,192,909,1,0,0:0:0:0:
320,192,1080,128,0,1423:0:0:0:0:
64,192,1252,1,0,0:0:0:0:
64,192,1423,128,0,1766:0:0:0:100:snap.wav
192,192,1423,128,0,1509:0:0:0:0:
192,192,1595,128,0,1766:0:0:0:0:
320,192,1766,128,0,2280:0:0:0:0:
448,192,1766,1,0,0:0:0:0:
192,192,1938,128,0,2109:0:0:0:0:
64,192,2109,1,0,0:0:0:0:
448,192,2280,128,0,2623:0:0:0:0:
192,192,2452,1,0,0:0:0:0:
192,192,2623,128,0,2795:0:0:0:0:
64,192,2795,1,0,0:0:0:0:
448,192,2966,128,0,3309:0:0:0:0:
192,192,3138,1,0,0:0:0:0:
192,192,3309,128,0,3480:0:0:0:0:
320,192,3480,128,0,3823:0:0:0:0:
448,192,3480,128,0,4166:0:0:0:0:
64,192,3652,1,0,0:0:0:0:
64,192,3823,128,0,4166:0:0:0:0:
320,192,3995,1,0,0:0:0:0:
192,192,4166,128,0,4252:0:0:0:100:snap.wav
320,192,4166,128,0,4509:0:0:0:0:
192,192,4338,128,0,4509:0:0:0:0:
64,192,4509,128,0,5023:0:0:0:0:
448,192,4509,1,0,0:0:0:0:
320,192,4680,128,0,4852:0:0:0:0:
192,192,4852,1,0,0:0:0:0:
448,192,5023,128,0,5366:0:0:0:0:
192,192,5195,1,0,0:0:0:0:
192,192,5366,128,0,5538:0:0:0:0:
320,192,5538,1,0,0:0:0:0:
448,192,5709,128,0,6052:0:0:0:0:
192,192,5880,1,0,0:0:0:0:
192,192,6052,128,0,6223:0:0:0:0:
64,192,6223,128,0,6566:0:0:0:0:
448,192,6223,128,0,6909:0:0:0:0:
320,192,6395,1,0,0:0:0:0:
320,192,6566,128,0,6909:0:0:0:0:
64,192,6738,1,0,0:0:0:0:
64,192,6909,128,0,7252:0:0:0:100:snap.wav
192,192,6909,128,0,6995:0:0:0:0:
192,192,7080,128,0,7252:0:0:0:0:
320,192,7252,128,0,7766:0:0:0:0:
448,192,7252,1,0,0:0:0:0:
64,192,7423,128,0,7595:0:0:0:0:
192,192,7766,128,0,8109:0:0:0:0:
448,192,7938,1,0,0:0:0:0:
448,192,8109,128,0,8280:0:0:0:0:
64,192,8280,1,0,0:0:0:0:
192,192,8452,128,0,8795:0:0:0:0:
448,192,8623,1,0,0:0:0:0:
448,192,8795,128,0,8966:0:0:0:0:
64,192,8966,128,0,9480:0:0:0:0:
320,192,8966,128,0,9309:0:0:0:0:
192,192,9138,1,0,0:0:0:0:
192,192,9309,128,0,9480:0:0:0:0:
320,192,9480,1,0,0:0:0:0:
448,192,9480,128,0,9823:0:0:0:0:
64,192,9652,128,0,9738:0:0:0:100:snap.wav
192,192,9652,128,0,9995:0:0:0:0:
64,192,9823,128,0,9995:0:0:0:0:
320,192,9995,128,0,10338:0:0:0:0:
448,192,9995,128,0,10166:0:0:0:0:
192,192,10166,128,0,10338:0:0:0:0:
64,192,10338,128,0,10595:0:0:0:0:
320,192,10509,128,0,10852:0:0:0:0:
448,192,10509,128,0,10680:0:0:0:0:
192,192,10595,128,0,10852:0:0:0:0:
448,192,10852,128,0,11366:0:0:0:0:
64,192,11023,128,0,11366:0:0:0:0:
192,192,11023,128,0,11195:0:0:0:0:
320,192,11366,128,0,11452:0:0:0:0:
192,192,11538,128,0,11623:0:0:0:0:
64,192,11709,1,0,0:0:0:40:snare1.wav
192,192,11709,1,0,0:0:0:40:BassKickReverb.wav
448,192,11709,1,0,0:0:0:0:
320,192,11795,1,0,0:0:0:0:
64,192,11880,1,0,0:0:0:0:
320,192,11966,1,0,0:0:0:40:snare1.wav
448,192,11966,1,0,0:0:0:0:
64,192,12052,1,0,0:0:0:40:snare1.wav
192,192,12052,1,0,0:0:0:0:
320,192,12138,1,0,0:0:0:0:
192,192,12223,1,0,0:0:0:40:snare1.wav
448,192,12223,1,0,0:0:0:0:
64,192,12309,1,0,0:0:0:0:
448,192,12395,1,0,0:0:0:0:
64,192,12480,1,0,0:0:0:0:
192,192,12566,1,0,0:0:0:40:snare1.wav
320,192,12566,1,0,0:0:0:0:
448,192,12652,1,0,0:0:0:0:
64,192,12738,1,0,0:0:0:40:snare1.wav
320,192,12738,1,0,0:0:0:0:
192,192,12823,1,0,0:0:0:0:
320,192,12909,1,0,0:0:0:40:snare1.wav
448,192,12909,1,0,0:0:0:0:
64,192,12995,1,0,0:0:0:40:snare1.wav
192,192,12995,1,0,0:0:0:0:
320,192,13080,1,0,0:0:0:40:snare1.wav
448,192,13080,1,0,0:0:0:0:
64,192,13166,1,0,0:0:0:0:
448,192,13252,1,0,0:0:0:0:
64,192,13338,1,0,0:0:0:40:snare1.wav
192,192,13338,1,0,0:0:0:0:
320,192,13423,1,0,0:0:0:40:snare1.wav
448,192,13423,1,0,0:0:0:0:
192,192,13509,1,0,0:0:0:0:
64,192,13595,1,0,0:0:0:40:snare1.wav
320,192,13595,1,0,0:0:0:0:
448,192,13680,1,0,0:0:0:0:
64,192,13766,1,0,0:0:0:0:
448,192,13852,1,0,0:0:0:0:
192,192,13938,1,0,0:0:0:40:snare1.wav
320,192,13938,1,0,0:0:0:0:
64,192,14023,1,0,0:0:0:0:
192,192,14109,1,0,0:0:0:40:snare1.wav
448,192,14109,1,0,0:0:0:0:
320,192,14195,1,0,0:0:0:0:
64,192,14280,1,0,0:0:0:40:snare1.wav
192,192,14280,1,0,0:0:0:0:
320,192,14366,1,0,0:0:0:40:snare1.wav
448,192,14366,1,0,0:0:0:0:
64,192,14452,1,0,0:0:0:40:snare1.wav
192,192,14452,1,0,0:0:0:0:
448,192,14538,1,0,0:0:0:0:
64,192,14623,1,0,0:0:0:0:
320,192,14709,1,0,0:0:0:40:snare1.wav
448,192,14709,1,0,0:0:0:0:
64,192,14795,1,0,0:0:0:40:snare1.wav
192,192,14795,1,0,0:0:0:0:
320,192,14880,1,0,0:0:0:0:
192,192,14966,1,0,0:0:0:40:snare1.wav
448,192,14966,1,0,0:0:0:0:
64,192,15052,1,0,0:0:0:0:
448,192,15138,1,0,0:0:0:0:
64,192,15223,1,0,0:0:0:0:
192,192,15309,1,0,0:0:0:40:snare1.wav
320,192,15309,1,0,0:0:0:0:
448,192,15395,1,0,0:0:0:0:
64,192,15480,1,0,0:0:0:40:snare1.wav
320,192,15480,1,0,0:0:0:0:
192,192,15566,1,0,0:0:0:0:
320,192,15652,1,0,0:0:0:40:snare1.wav
448,192,15652,1,0,0:0:0:0:
64,192,15738,1,0,0:0:0:40:snare1.wav
192,192,15738,1,0,0:0:0:0:
320,192,15823,1,0,0:0:0:40:snare1.wav
448,192,15823,1,0,0:0:0:0:
64,192,15909,1,0,0:0:0:0:
448,192,15995,1,0,0:0:0:0:
64,192,16080,1,0,0:0:0:40:snare1.wav
192,192,16080,1,0,0:0:0:0:
320,192,16166,1,0,0:0:0:40:snare1.wav
448,192,16166,1,0,0:0:0:0:
192,192,16252,1,0,0:0:0:0:
64,192,16338,1,0,0:0:0:40:snare1.wav
320,192,16338,1,0,0:0:0:0:
448,192,16423,1,0,0:0:0:0:
64,192,16509,1,0,0:0:0:0:
448,192,16595,1,0,0:0:0:0:
192,192,16680,1,0,0:0:0:40:snare1.wav
320,192,16680,1,0,0:0:0:0:
64,192,16766,1,0,0:0:0:0:
448,192,16852,1,0,0:0:0:0:
64,192,16938,1,0,0:0:0:0:
320,192,17023,1,0,0:0:0:0:
192,192,17109,1,0,0:0:0:0:
64,192,17195,1,0,0:0:0:40:snare1.wav
448,192,17195,1,0,0:0:0:70:cymhicrsh.wav
320,192,17280,1,0,0:0:0:0:
64,192,17366,1,0,0:0:0:40:snare1.wav
192,192,17366,1,0,0:0:0:0:
320,192,17452,1,0,0:0:0:0:
192,192,17538,1,0,0:0:0:40:snare1.wav
448,192,17538,1,0,0:0:0:0:
64,192,17623,1,0,0:0:0:0:
192,192,17709,1,0,0:0:0:40:snare1.wav
320,192,17709,1,0,0:0:0:0:
448,192,17795,1,0,0:0:0:0:
64,192,17880,1,0,0:0:0:40:snare1.wav
320,192,17880,1,0,0:0:0:0:
192,192,17966,1,0,0:0:0:0:
64,192,18052,1,0,0:0:0:40:snare1.wav
448,192,18052,1,0,0:0:0:0:
320,192,18138,1,0,0:0:0:0:
64,192,18223,1,0,0:0:0:40:snare1.wav
192,192,18223,1,0,0:0:0:0:
448,192,18309,1,0,0:0:0:0:
192,192,18395,1,0,0:0:0:0:
320,192,18395,1,0,0:0:0:0:
64,192,18480,1,0,0:0:0:0:
192,192,18566,1,0,0:0:0:40:snare1.wav
448,192,18566,1,0,0:0:0:70:cymhicrsh.wav
320,192,18652,1,0,0:0:0:0:
64,192,18738,1,0,0:0:0:40:snare1.wav
448,192,18738,1,0,0:0:0:0:
192,192,18823,1,0,0:0:0:0:
320,192,18909,1,0,0:0:0:40:snare1.wav
448,192,18909,1,0,0:0:0:0:
192,192,18995,1,0,0:0:0:0:
64,192,19080,1,0,0:0:0:40:snare1.wav
320,192,19080,1,0,0:0:0:0:
448,192,19166,1,0,0:0:0:0:
192,192,19252,1,0,0:0:0:40:snare1.wav
320,192,19252,1,0,0:0:0:0:
64,192,19338,1,0,0:0:0:0:
192,192,19423,1,0,0:0:0:40:snare1.wav
448,192,19423,1,0,0:0:0:0:
320,192,19509,1,0,0:0:0:0:
64,192,19595,1,0,0:0:0:40:snare1.wav
192,192,19595,1,0,0:0:0:0:
320,192,19680,1,0,0:0:0:0:
64,192,19766,1,0,0:0:0:40:snare1.wav
448,192,19766,1,0,0:0:0:0:
192,192,19852,1,0,0:0:0:0:
320,192,19938,1,0,0:0:0:40:snare1.wav
448,192,19938,1,0,0:0:0:70:cymhicrsh.wav
64,192,20023,1,0,0:0:0:40:snare1.wav
192,192,20023,1,0,0:0:0:0:
320,192,20109,1,0,0:0:0:40:snare1.wav
448,192,20109,1,0,0:0:0:0:
64,192,20195,1,0,0:0:0:40:snare1.wav
192,192,20195,1,0,0:0:0:0:
320,192,20280,1,0,0:0:0:40:snare1.wav
448,192,20280,1,0,0:0:0:0:
64,192,20366,1,0,0:0:0:40:snare1.wav
192,192,20366,1,0,0:0:0:0:
320,192,20452,1,0,0:0:0:40:snare1.wav
448,192,20452,1,0,0:0:0:0:
64,192,20538,1,0,0:0:0:40:snare1.wav
192,192,20538,1,0,0:0:0:0:
320,192,20623,1,0,0:0:0:40:snare1.wav
448,192,20623,1,0,0:0:0:70:cymhicrsh.wav
64,192,20709,1,0,0:0:0:40:snare1.wav
192,192,20709,1,0,0:0:0:0:
320,192,20795,1,0,0:0:0:40:snare1.wav
448,192,20795,1,0,0:0:0:0:
64,192,20880,1,0,0:0:0:40:snare1.wav
192,192,20880,1,0,0:0:0:0:
320,192,20966,1,0,0:0:0:40:snare1.wav
448,192,20966,1,0,0:0:0:0:
64,192,21052,1,0,0:0:0:40:snare1.wav
192,192,21052,1,0,0:0:0:0:
320,192,21138,1,0,0:0:0:40:snare1.wav
448,192,21138,1,0,0:0:0:0:
64,192,21223,1,0,0:0:0:40:snare1.wav
192,192,21223,1,0,0:0:0:0:
448,192,21309,1,0,0:0:0:70:hip hop 808 snare.wav
64,192,21395,1,0,0:0:0:70:hip hop 808 snare.wav
320,192,21480,1,0,0:0:0:70:hip hop 808 snare.wav
192,192,21652,1,0,0:0:0:70:hip hop 808 snare.wav
192,192,21823,1,0,0:0:0:70:hip hop 808 snare.wav
320,192,21995,1,0,0:0:0:50:LR_Kick Beat Drop.wav
448,192,21995,1,0,0:0:0:0:
64,192,22166,1,0,0:0:0:50:LR_Kick Beat Drop.wav
320,192,22166,1,0,0:0:0:0:
64,192,22338,1,0,0:0:0:50:LR_Kick Beat Drop.wav
448,192,22338,1,0,0:0:0:0:
192,192,22423,1,0,0:0:0:50:LR_Kick Beat Drop.wav
320,192,22509,1,0,0:0:0:50:LR_Kick Beat Drop.wav
448,192,22509,1,0,0:0:0:0:
192,192,22595,1,0,0:0:0:50:LR_Kick Beat Drop.wav
320,192,22680,128,0,22766:0:0:0:0:
448,192,22680,128,0,22852:0:0:0:0:
192,192,22852,128,0,22938:0:0:0:0:
320,192,22852,128,0,23023:0:0:0:0:
64,192,23023,128,0,23538:0:0:0:60:kick1.wav
192,192,23023,128,0,23366:0:0:0:0:
448,192,23023,1,0,0:0:0:0:
320,192,23195,1,0,0:0:0:0:
448,192,23280,1,0,0:0:0:0:
320,192,23366,1,0,0:0:0:0:
192,192,23452,1,0,0:0:0:0:
448,192,23538,1,0,0:0:0:0:
64,192,23623,1,0,0:0:0:0:
320,192,23709,1,0,0:0:0:0:
320,192,23795,1,0,0:0:0:0:
64,192,23880,128,0,24395:0:0:0:60:kick1.wav
192,192,23880,128,0,24223:0:0:0:0:
448,192,23880,1,0,0:0:0:0:
448,192,24223,128,0,24309:0:0:0:0:
192,192,24395,1,0,0:0:0:60:kick1.wav
320,192,24395,128,0,24738:0:0:0:0:
448,192,24395,128,0,24738:0:0:0:0:
192,192,24566,128,0,24652:0:0:0:0:
64,192,24738,128,0,24823:0:0:0:0:
192,192,24738,128,0,24823:0:0:0:0:
320,192,24823,128,0,24909:0:0:0:0:
448,192,24823,128,0,24909:0:0:0:0:
64,192,24909,128,0,24995:0:0:0:0:
192,192,24909,128,0,24995:0:0:0:0:
320,192,24995,128,0,25080:0:0:0:0:
448,192,24995,128,0,25080:0:0:0:0:
192,192,25080,128,0,25166:0:0:0:0:
64,192,25252,128,0,25338:0:0:0:0:
192,192,25423,128,0,25509:0:0:0:60:kick1.wav
320,192,25423,128,0,25595:0:0:0:0:
448,192,25423,128,0,25595:0:0:0:0:
192,192,25595,128,0,25766:0:0:0:0:
320,192,25680,128,0,25852:0:0:0:60:kick1.wav
448,192,25680,128,0,25852:0:0:0:0:
64,192,25766,128,0,25852:0:0:0:0:
64,192,25938,128,0,26023:0:0:0:60:kick1.wav
320,192,25938,128,0,26023:0:0:0:0:
448,192,25938,128,0,26109:0:0:0:0:
64,192,26109,128,0,26280:0:0:0:60:kick1.wav
192,192,26109,128,0,26280:0:0:0:0:
320,192,26109,128,0,26195:0:0:0:0:
320,192,26280,128,0,26452:0:0:0:0:
64,192,26366,128,0,26538:0:0:0:60:kick1.wav
192,192,26366,128,0,26538:0:0:0:0:
448,192,26452,128,0,26538:0:0:0:0:
64,192,26623,128,0,26795:0:0:0:60:kick1.wav
192,192,26623,128,0,26795:0:0:0:0:
448,192,26623,128,0,26795:0:0:0:0:
320,192,26795,1,0,0:0:0:0:
192,192,26880,1,0,0:0:0:0:
448,192,26966,1,0,0:0:0:0:
64,192,27052,1,0,0:0:0:0:
192,192,27138,128,0,27223:0:0:0:60:kick1.wav
320,192,27138,128,0,27395:0:0:0:0:
448,192,27138,128,0,27395:0:0:0:0:
192,192,27309,128,0,27480:0:0:0:0:
64,192,27480,128,0,27652:0:0:0:60:kick1.wav
320,192,27480,1,0,0:0:0:0:
448,192,27480,128,0,27652:0:0:0:0:
192,192,27652,128,0,27909:0:0:0:0:
320,192,27738,128,0,27909:0:0:0:60:kick1.wav
448,192,27738,128,0,27909:0:0:0:0:
64,192,27909,128,0,28166:0:0:0:0:
192,192,27995,128,0,28166:0:0:0:60:kick1.wav
448,192,27995,128,0,28080:0:0:0:0:
320,192,28166,1,0,0:0:0:0:
320,192,28252,1,0,0:0:0:0:
192,192,28338,128,0,28509:0:0:0:0:
64,192,28509,1,0,0:0:0:60:kick1.wav
320,192,28509,128,0,28852:0:0:0:0:
448,192,28509,128,0,29023:0:0:0:0:
192,192,28680,1,0,0:0:0:0:
64,192,28766,1,0,0:0:0:0:
192,192,28852,1,0,0:0:0:0:
320,192,28938,1,0,0:0:0:0:
64,192,29023,1,0,0:0:0:0:
448,192,29109,1,0,0:0:0:0:
320,192,29195,1,0,0:0:0:0:
192,192,29280,1,0,0:0:0:0:
64,192,29366,1,0,0:0:0:60:kick1.wav
320,192,29366,128,0,29709:0:0:0:0:
448,192,29366,128,0,29880:0:0:0:0:
64,192,29709,128,0,29795:0:0:0:0:
64,192,29880,128,0,30223:0:0:0:60:kick1.wav
192,192,29880,128,0,30223:0:0:0:0:
320,192,29880,1,0,0:0:0:0:
320,192,30052,128,0,30138:0:0:0:0:
320,192,30223,128,0,30309:0:0:0:0:
448,192,30223,128,0,30309:0:0:0:0:
64,192,30309,128,0,30395:0:0:0:0:
192,192,30309,128,0,30395:0:0:0:0:
320,192,30395,128,0,30480:0:0:0:0:
448,192,30395,128,0,30480:0:0:0:0:
64,192,30480,128,0,30566:0:0:0:0:
192,192,30480,128,0,30566:0:0:0:0:
320,192,30566,128,0,30652:0:0:0:0:
448,192,30566,128,0,30738:0:0:0:0:
320,192,30738,128,0,30909:0:0:0:0:
64,192,30909,128,0,31252:0:0:0:60:kick1.wav
192,192,30909,128,0,31080:0:0:0:0:
448,192,30909,128,0,30995:0:0:0:0:
448,192,31080,128,0,31252:0:0:0:0:
192,192,31252,128,0,31423:0:0:0:50:LR_Kick Beat Drop.wav
320,192,31252,1,0,0:0:0:0:
64,192,31423,128,0,31509:0:0:0:60:kick1.wav
320,192,31423,128,0,31595:0:0:0:0:
448,192,31423,128,0,31766:0:0:0:0:
64,192,31595,128,0,31766:0:0:0:0:
192,192,31766,128,0,31938:0:0:0:0:
64,192,31938,128,0,32023:0:0:0:60:kick1.wav
320,192,31938,128,0,32109:0:0:0:0:
448,192,31938,128,0,32280:0:0:0:0:
64,192,32109,128,0,32280:0:0:0:0:
192,192,32280,1,0,0:0:0:100:hip hop 808 snare.wav
320,192,32280,128,0,32452:0:0:0:0:
64,192,32452,128,0,32623:0:0:0:60:kick1.wav
192,192,32452,128,0,32795:0:0:0:100:hip hop 808 snare.wav
448,192,32452,1,0,0:0:0:0:
320,192,32538,1,0,0:0:0:100:hip hop 808 snare.wav
448,192,32623,128,0,32795:0:0:0:100:hip hop 808 snare.wav
64,192,32795,1,0,0:0:0:100:hip hop 808 snare.wav
320,192,32880,1,0,0:0:0:100:hip hop 808 snare.wav
64,192,32966,128,0,33309:0:0:0:60:kick1.wav
192,192,32966,128,0,33138:0:0:0:100:hip hop 808 snare.wav
448,192,32966,128,0,33309:0:0:0:0:
320,192,33138,1,0,0:0:0:100:hip hop 808 snare.wav
192,192,33309,1,0,0:0:0:0:
320,192,33352,1,0,0:0:0:0:
448,192,33395,1,0,0:0:0:0:
192,192,33652,1,0,0:0:0:60:kick1.wav
320,192,33652,128,0,33823:0:0:0:0:
448,192,33652,128,0,33909:0:0:0:0:
192,192,33823,128,0,33995:0:0:0:0:
64,192,33995,1,0,0:0:0:60:kick1.wav
320,192,33995,128,0,34166:0:0:0:0:
448,192,33995,128,0,34252:0:0:0:0:
192,192,34166,1,0,0:0:0:0:
192,192,34252,1,0,0:0:0:0:
64,192,34338,128,0,34595:0:0:0:60:kick1.wav
320,192,34338,128,0,34423:0:0:0:0:
448,192,34338,1,0,0:0:0:0:
192,192,34595,1,0,0:0:0:60:kick1.wav
320,192,34595,128,0,34852:0:0:0:0:
448,192,34595,128,0,34680:0:0:0:0:
64,192,34852,1,0,0:0:0:60:kick1.wav
192,192,34852,128,0,34938:0:0:0:0:
448,192,34852,128,0,35023:0:0:0:0:
64,192,35023,128,0,35280:0:0:0:60:kick1.wav
192,192,35023,128,0,35195:0:0:0:0:
320,192,35023,1,0,0:0:0:0:
320,192,35195,128,0,35366:0:0:0:0:
64,192,35366,128,0,35623:0:0:0:60:kick1.wav
192,192,35366,128,0,35538:0:0:0:0:
448,192,35366,1,0,0:0:0:0:
320,192,35538,1,0,0:0:0:0:
320,192,35623,1,0,0:0:0:0:
64,192,35709,128,0,35795:0:0:0:60:kick1.wav
192,192,35709,1,0,0:0:0:0:
448,192,35709,128,0,35966:0:0:0:0:
64,192,35966,128,0,36223:0:0:0:60:kick1.wav
192,192,35966,128,0,36052:0:0:0:0:
320,192,35966,1,0,0:0:0:0:
192,192,36223,128,0,36395:0:0:0:60:kick1.wav
320,192,36223,128,0,36309:0:0:0:0:
448,192,36223,1,0,0:0:0:0:
64,192,36395,1,0,0:0:0:60:kick1.wav
320,192,36395,128,0,36652:0:0:0:0:
448,192,36395,128,0,36566:0:0:0:0:
64,192,36566,128,0,36738:0:0:0:0:
192,192,36738,1,0,0:0:0:60:kick1.wav
320,192,36738,128,0,36995:0:0:0:0:
448,192,36738,128,0,36909:0:0:0:0:
64,192,36909,1,0,0:0:0:0:
64,192,36995,1,0,0:0:0:0:
192,192,37080,128,0,37338:0:0:0:60:kick1.wav
320,192,37080,128,0,37166:0:0:0:0:
448,192,37080,1,0,0:0:0:0:
64,192,37338,128,0,37423:0:0:0:60:kick1.wav
320,192,37338,1,0,0:0:0:0:
448,192,37338,128,0,37595:0:0:0:0:
64,192,37595,1,0,0:0:0:60:kick1.wav
192,192,37595,128,0,37680:0:0:0:0:
320,192,37595,128,0,37766:0:0:0:0:
64,192,37766,128,0,37938:0:0:0:60:kick1.wav
192,192,37766,128,0,38023:0:0:0:0:
448,192,37766,1,0,0:0:0:0:
448,192,37938,128,0,38109:0:0:0:0:
64,192,38109,128,0,38280:0:0:0:60:kick1.wav
192,192,38109,128,0,38366:0:0:0:0:
320,192,38109,1,0,0:0:0:0:
448,192,38280,1,0,0:0:0:0:
448,192,38366,1,0,0:0:0:0:
64,192,38452,1,0,0:0:0:60:kick1.wav
192,192,38452,128,0,38538:0:0:0:0:
320,192,38452,128,0,38709:0:0:0:0:
64,192,38709,128,0,38795:0:0:0:60:kick1.wav
192,192,38709,128,0,38966:0:0:0:0:
448,192,38709,1,0,0:0:0:0:
64,192,38966,128,0,39052:0:0:0:60:kick1.wav
320,192,38966,1,0,0:0:0:0:
448,192,38966,128,0,39138:0:0:0:0:
320,192,39138,128,0,39480:0:0:0:0:
64,192,39480,128,0,39652:0:0:0:60:kick1.wav
192,192,39480,128,0,39566:0:0:0:0:
448,192,39480,1,0,0:0:0:0:
320,192,39652,128,0,39738:0:0:0:0:
448,192,39652,128,0,39823:0:0:0:0:
64,192,39823,1,0,0:0:0:60:kick1.wav
192,192,39823,128,0,39909:0:0:0:0:
320,192,39823,128,0,40080:0:0:0:0:
64,192,40080,128,0,40166:0:0:0:60:kick1.wav
192,192,40080,128,0,40338:0:0:0:0:
448,192,40080,1,0,0:0:0:0:
64,192,40338,128,0,40509:0:0:0:60:kick1.wav
320,192,40338,1,0,0:0:0:0:
448,192,40338,128,0,40423:0:0:0:0:
192,192,40509,1,0,0:0:0:60:kick1.wav
320,192,40509,128,0,40680:0:0:0:0:
448,192,40509,128,0,40766:0:0:0:0:
192,192,40680,128,0,40852:0:0:0:0:
64,192,40852,1,0,0:0:0:60:kick1.wav
320,192,40852,128,0,41023:0:0:0:0:
448,192,40852,128,0,41109:0:0:0:0:
192,192,41023,1,0,0:0:0:0:
192,192,41109,1,0,0:0:0:0:
64,192,41195,128,0,41538:0:0:0:60:kick1.wav
320,192,41195,128,0,41366:0:0:0:0:
448,192,41195,128,0,41452:0:0:0:0:
192,192,41366,128,0,41538:0:0:0:0:
320,192,41538,128,0,41880:0:0:0:0:
64,192,41709,1,0,0:0:0:0:
64,192,41880,128,0,42223:0:0:0:60:kick1.wav
192,192,41880,128,0,41966:0:0:0:0:
448,192,41880,128,0,42395:0:0:0:0:
192,192,42052,128,0,42223:0:0:0:0:
320,192,42223,128,0,42309:0:0:0:0:
64,192,42395,128,0,42909:0:0:0:60:kick1.wav
192,192,42395,128,0,42480:0:0:0:0:
320,192,42395,128,0,42738:0:0:0:0:
192,192,42566,128,0,42738:0:0:0:0:
448,192,42738,128,0,42823:0:0:0:0:
192,192,42909,128,0,42995:0:0:0:60:kick1.wav
320,192,42909,128,0,43252:0:0:0:0:
448,192,42909,128,0,43338:0:0:0:0:
192,192,43080,128,0,43252:0:0:0:0:
64,192,43252,128,0,43423:0:0:0:0:
192,192,43423,128,0,43509:0:0:0:60:kick1.wav
320,192,43423,128,0,43595:0:0:0:0:
448,192,43423,128,0,43852:0:0:0:0:
64,192,43509,128,0,43680:0:0:0:0:
64,192,43766,128,0,44280:0:0:0:0:
192,192,43766,128,0,43852:0:0:0:0:
192,192,43938,128,0,44195:0:0:0:60:kick1.wav
320,192,43938,128,0,44109:0:0:0:0:
448,192,43938,128,0,44023:0:0:0:0:
320,192,44280,1,0,0:0:0:0:
192,192,44366,1,0,0:0:0:0:
448,192,44452,1,0,0:0:0:0:
64,192,44538,1,0,0:0:0:0:
192,192,44623,1,0,0:0:0:40:snare1.wav
320,192,44623,1,0,0:0:0:0:
448,192,44709,1,0,0:0:0:0:
192,192,44795,1,0,0:0:0:0:
320,192,44880,1,0,0:0:0:0:
192,192,44966,1,0,0:0:0:40:snare1.wav
448,192,44966,1,0,0:0:0:0:
64,192,45052,1,0,0:0:0:0:
192,192,45138,1,0,0:0:0:0:
448,192,45223,1,0,0:0:0:0:
64,192,45309,1,0,0:0:0:40:snare1.wav
320,192,45309,1,0,0:0:0:0:
192,192,45395,1,0,0:0:0:0:
320,192,45480,1,0,0:0:0:0:
64,192,45566,1,0,0:0:0:0:
192,192,45652,1,0,0:0:0:40:snare1.wav
320,192,45652,1,0,0:0:0:0:
448,192,45738,1,0,0:0:0:0:
320,192,45823,1,0,0:0:0:0:
64,192,45909,1,0,0:0:0:0:
192,192,45995,1,0,0:0:0:40:snare1.wav
448,192,45995,1,0,0:0:0:0:
64,192,46080,1,0,0:0:0:0:
320,192,46166,1,0,0:0:0:0:
192,192,46252,1,0,0:0:0:0:
64,192,46338,1,0,0:0:0:40:snare1.wav
320,192,46338,1,0,0:0:0:0:
448,192,46423,1,0,0:0:0:0:
320,192,46509,1,0,0:0:0:0:
192,192,46595,1,0,0:0:0:0:
64,192,46680,1,0,0:0:0:40:snare1.wav
448,192,46680,1,0,0:0:0:0:
320,192,46766,1,0,0:0:0:0:
192,192,46852,1,0,0:0:0:0:
448,192,46938,1,0,0:0:0:0:
192,192,47023,1,0,0:0:0:40:snare1.wav
320,192,47023,1,0,0:0:0:0:
64,192,47109,1,0,0:0:0:0:
192,192,47195,1,0,0:0:0:0:
320,192,47280,1,0,0:0:0:0:
64,192,47366,1,0,0:0:0:40:snare1.wav
448,192,47366,1,0,0:0:0:0:
192,192,47452,1,0,0:0:0:0:
448,192,47538,1,0,0:0:0:0:
192,192,47623,1,0,0:0:0:0:
64,192,47709,1,0,0:0:0:40:snare1.wav
448,192,47709,1,0,0:0:0:0:
320,192,47795,1,0,0:0:0:0:
448,192,47880,1,0,0:0:0:0:
192,192,47966,1,0,0:0:0:0:
64,192,48052,1,0,0:0:0:40:snare1.wav
320,192,48052,1,0,0:0:0:0:
448,192,48138,1,0,0:0:0:0:
64,192,48223,1,0,0:0:0:0:
320,192,48309,1,0,0:0:0:0:
64,192,48395,1,0,0:0:0:40:snare1.wav
192,192,48395,1,0,0:0:0:0:
448,192,48480,1,0,0:0:0:0:
64,192,48566,1,0,0:0:0:0:
448,192,48652,1,0,0:0:0:0:
192,192,48738,1,0,0:0:0:40:snare1.wav
320,192,48738,1,0,0:0:0:0:
64,192,48823,1,0,0:0:0:0:
448,192,48909,1,0,0:0:0:0:
64,192,48995,1,0,0:0:0:0:
192,192,49080,1,0,0:0:0:40:snare1.wav
448,192,49080,1,0,0:0:0:0:
320,192,49166,1,0,0:0:0:0:
448,192,49252,1,0,0:0:0:0:
192,192,49338,1,0,0:0:0:0:
320,192,49423,128,0,50023:0:0:0:0:
64,192,49766,128,0,50023:0:0:0:0:
64,192,50109,1,0,0:0:0:60:kick1.wav
320,192,50109,1,0,0:0:0:40:snare1.wav
448,192,50109,1,0,0:0:0:70:cymhicrsh.wav
192,192,50195,1,0,0:0:0:0:
320,192,50280,1,0,0:0:0:0:
64,192,50366,1,0,0:0:0:0:
192,192,50452,1,0,0:0:0:60:kick1.wav
320,192,50452,1,0,0:0:0:40:snare1.wav
448,192,50452,1,0,0:0:0:0:
64,192,50538,1,0,0:0:0:0:
448,192,50623,1,0,0:0:0:0:
192,192,50709,1,0,0:0:0:0:
64,192,50795,1,0,0:0:0:60:kick1.wav
320,192,50795,1,0,0:0:0:40:snare1.wav
448,192,50795,1,0,0:0:0:0:
192,192,50880,1,0,0:0:0:0:
320,192,50966,1,0,0:0:0:0:
64,192,51052,1,0,0:0:0:0:
192,192,51138,1,0,0:0:0:60:kick1.wav
320,192,51138,1,0,0:0:0:40:snare1.wav
448,192,51138,1,0,0:0:0:0:
64,192,51223,1,0,0:0:0:0:
448,192,51309,1,0,0:0:0:0:
320,192,51395,1,0,0:0:0:0:
64,192,51480,1,0,0:0:0:60:kick1.wav
192,192,51480,1,0,0:0:0:40:snare1.wav
448,192,51480,1,0,0:0:0:0:
320,192,51566,1,0,0:0:0:0:
192,192,51652,1,0,0:0:0:0:
448,192,51738,1,0,0:0:0:0:
64,192,51823,1,0,0:0:0:60:kick1.wav
192,192,51823,1,0,0:0:0:40:snare1.wav
320,192,51823,1,0,0:0:0:0:
448,192,51909,1,0,0:0:0:0:
64,192,51995,1,0,0:0:0:0:
320,192,52080,1,0,0:0:0:0:
64,192,52166,1,0,0:0:0:60:kick1.wav
192,192,52166,1,0,0:0:0:40:snare1.wav
448,192,52166,1,0,0:0:0:0:
320,192,52252,1,0,0:0:0:0:
192,192,52338,1,0,0:0:0:0:
448,192,52423,1,0,0:0:0:0:
64,192,52509,1,0,0:0:0:60:kick1.wav
192,192,52509,1,0,0:0:0:40:snare1.wav
320,192,52509,1,0,0:0:0:0:
448,192,52595,1,0,0:0:0:0:
64,192,52680,1,0,0:0:0:0:
320,192,52766,1,0,0:0:0:0:
64,192,52852,1,0,0:0:0:60:kick1.wav
192,192,52852,1,0,0:0:0:40:snare1.wav
448,192,52852,1,0,0:0:0:70:cymhicrsh.wav
320,192,52938,1,0,0:0:0:0:
192,192,53023,1,0,0:0:0:60:kick1.wav
448,192,53023,1,0,0:0:0:40:snare1.wav
64,192,53109,1,0,0:0:0:0:
192,192,53195,1,0,0:0:0:60:kick1.wav
320,192,53195,1,0,0:0:0:40:snare1.wav
448,192,53280,1,0,0:0:0:0:
64,192,53366,1,0,0:0:0:60:kick1.wav
192,192,53366,1,0,0:0:0:40:snare1.wav
320,192,53452,1,0,0:0:0:0:
64,192,53538,1,0,0:0:0:60:kick1.wav
448,192,53538,1,0,0:0:0:40:snare1.wav
192,192,53623,1,0,0:0:0:0:
64,192,53709,1,0,0:0:0:60:kick1.wav
320,192,53709,1,0,0:0:0:40:snare1.wav
448,192,53795,1,0,0:0:0:0:
192,192,53880,1,0,0:0:0:60:kick1.wav
320,192,53880,1,0,0:0:0:40:snare1.wav
64,192,53966,1,0,0:0:0:0:
192,192,54052,1,0,0:0:0:60:kick1.wav
448,192,54052,1,0,0:0:0:40:snare1.wav
320,192,54138,1,0,0:0:0:0:
64,192,54223,1,0,0:0:0:60:kick1.wav
192,192,54223,1,0,0:0:0:40:snare1.wav
320,192,54309,1,0,0:0:0:60:kick1.wav
448,192,54309,1,0,0:0:0:0:
64,192,54395,1,0,0:0:0:60:kick1.wav
192,192,54395,1,0,0:0:0:40:snare1.wav
320,192,54480,1,0,0:0:0:60:kick1.wav
448,192,54480,1,0,0:0:0:0:
64,192,54566,1,0,0:0:0:60:kick1.wav
192,192,54566,1,0,0:0:0:40:snare1.wav
320,192,54652,1,0,0:0:0:60:kick1.wav
448,192,54652,1,0,0:0:0:0:
64,192,54738,1,0,0:0:0:60:kick1.wav
192,192,54738,1,0,0:0:0:40:snare1.wav
320,192,54823,1,0,0:0:0:60:kick1.wav
448,192,54823,1,0,0:0:0:0:
192,192,54909,128,0,55509:0:0:0:0:
64,192,55252,1,0,0:0:0:50:snare2.wav
320,192,55252,128,0,55509:0:0:0:0:
448,192,55252,1,0,0:0:0:0:
64,192,55595,128,0,55823:0:0:0:60:kick1.wav
192,192,55595,128,0,55766:0:0:0:0:
320,192,55595,128,0,55709:0:0:0:0:
448,192,55766,128,0,55880:0:0:0:0:
320,192,55823,128,0,55938:0:0:0:0:
192,192,55880,128,0,55995:0:0:0:0:
64,192,55938,128,0,56052:0:0:0:0:
448,192,55995,1,0,0:0:0:0:
320,192,56052,1,0,0:0:0:0:
192,192,56109,1,0,0:0:0:0:
448,192,56166,1,0,0:0:0:0:
320,192,56223,1,0,0:0:0:0:
64,192,56280,1,0,0:0:0:70:LR_Snare Pop.wav
192,192,56280,1,0,0:0:0:0:
64,192,56623,128,0,56966:0:0:0:60:kick1.wav
448,192,56623,128,0,56795:0:0:0:0:
320,192,56709,128,0,56880:0:0:0:0:
192,192,56795,128,0,57052:0:0:0:0:
448,192,56880,128,0,57223:0:0:0:0:
320,192,56966,128,0,57138:0:0:0:0:
64,192,57052,128,0,57138:0:0:0:0:
192,192,57138,128,0,57223:0:0:0:0:
320,192,57223,128,0,57309:0:0:0:0:
64,192,57309,128,0,57480:0:0:0:60:kick1.wav
448,192,57309,128,0,57652:0:0:0:0:
192,192,57395,128,0,57566:0:0:0:0:
320,192,57480,128,0,57566:0:0:0:0:
64,192,57566,128,0,57738:0:0:0:0:
192,192,57652,128,0,57823:0:0:0:70:LR_Snare Pop.wav
320,192,57652,128,0,57909:0:0:0:0:
448,192,57738,128,0,57909:0:0:0:0:
64,192,57823,128,0,57909:0:0:0:0:
192,192,57909,128,0,57995:0:0:0:0:
320,192,57995,128,0,58080:0:0:0:60:kick1.wav
448,192,57995,128,0,58080:0:0:0:0:
192,192,58080,128,0,58166:0:0:0:0:
320,192,58166,128,0,58252:0:0:0:60:kick1.wav
448,192,58166,128,0,58252:0:0:0:0:
192,192,58252,128,0,58338:0:0:0:0:
64,192,58338,1,0,0:0:0:60:kick1.wav
448,192,58338,1,0,0:0:0:0:
448,192,58680,128,0,58766:0:0:0:0:
320,192,58702,128,0,58788:0:0:0:0:
192,192,58723,128,0,58809:0:0:0:0:
64,192,58745,128,0,58830:0:0:0:0:
64,192,59023,1,0,0:0:0:70:LR_Snare Pop.wav
320,192,59023,1,0,0:0:0:0:
448,192,59023,1,0,0:0:0:0:
64,192,59366,128,0,59538:0:0:0:60:kick1.wav
448,192,59366,128,0,59709:0:0:0:0:
192,192,59452,128,0,59623:0:0:0:0:
320,192,59538,128,0,59795:0:0:0:0:
64,192,59623,128,0,59966:0:0:0:0:
192,192,59709,128,0,59880:0:0:0:0:
448,192,59795,128,0,59880:0:0:0:0:
320,192,59880,128,0,59966:0:0:0:0:
192,192,59966,128,0,60052:0:0:0:0:
64,192,60052,128,0,60309:0:0:0:60:kick1.wav
448,192,60052,128,0,60223:0:0:0:0:
320,192,60138,128,0,60309:0:0:0:0:
192,192,60223,128,0,60395:0:0:0:0:
448,192,60309,128,0,60395:0:0:0:0:
64,192,60395,128,0,60480:0:0:0:70:LR_Snare Pop.wav
320,192,60395,128,0,60480:0:0:0:0:
192,192,60480,128,0,60566:0:0:0:0:
64,192,60566,128,0,60652:0:0:0:60:kick1.wav
448,192,60566,128,0,60652:0:0:0:0:
320,192,60652,128,0,60738:0:0:0:0:
192,192,60738,128,0,60823:0:0:0:60:kick1.wav
448,192,60738,128,0,60823:0:0:0:0:
64,192,60823,128,0,60909:0:0:0:0:
192,192,60909,128,0,60995:0:0:0:60:kick1.wav
320,192,60909,128,0,60995:0:0:0:0:
448,192,60995,128,0,61080:0:0:0:0:
64,192,61080,128,0,61309:0:0:0:60:kick1.wav
192,192,61080,128,0,61252:0:0:0:0:
320,192,61080,128,0,61195:0:0:0:0:
448,192,61252,128,0,61366:0:0:0:0:
320,192,61309,128,0,61423:0:0:0:0:
192,192,61366,128,0,61480:0:0:0:0:
64,192,61423,128,0,61538:0:0:0:0:
448,192,61480,1,0,0:0:0:0:
320,192,61538,1,0,0:0:0:0:
192,192,61595,1,0,0:0:0:0:
448,192,61652,1,0,0:0:0:0:
320,192,61709,1,0,0:0:0:0:
64,192,61766,1,0,0:0:0:70:LR_Snare Pop.wav
192,192,61766,1,0,0:0:0:0:
64,192,62109,128,0,62452:0:0:0:60:kick1.wav
448,192,62109,128,0,62280:0:0:0:0:
320,192,62195,128,0,62366:0:0:0:0:
192,192,62280,128,0,62538:0:0:0:0:
448,192,62366,128,0,62709:0:0:0:0:
320,192,62452,128,0,62623:0:0:0:0:
64,192,62538,128,0,62623:0:0:0:0:
192,192,62623,128,0,62709:0:0:0:0:
320,192,62709,128,0,62795:0:0:0:0:
64,192,62795,128,0,62966:0:0:0:60:kick1.wav
448,192,62795,128,0,63138:0:0:0:0:
192,192,62880,128,0,63052:0:0:0:0:
320,192,62966,128,0,63052:0:0:0:0:
64,192,63052,128,0,63223:0:0:0:0:
192,192,63138,128,0,63309:0:0:0:70:LR_Snare Pop.wav
320,192,63138,128,0,63395:0:0:0:0:
448,192,63223,128,0,63395:0:0:0:0:
64,192,63309,128,0,63395:0:0:0:0:
192,192,63395,128,0,63480:0:0:0:0:
320,192,63480,128,0,63566:0:0:0:60:kick1.wav
448,192,63480,128,0,63566:0:0:0:0:
192,192,63566,128,0,63652:0:0:0:0:
320,192,63652,128,0,63738:0:0:0:60:kick1.wav
448,192,63652,128,0,63738:0:0:0:0:
192,192,63738,128,0,63823:0:0:0:0:
64,192,63823,1,0,0:0:0:60:kick1.wav
448,192,63823,1,0,0:0:0:0:
448,192,64166,128,0,64252:0:0:0:0:
320,192,64188,128,0,64273:0:0:0:0:
192,192,64209,128,0,64295:0:0:0:0:
64,192,64230,128,0,64316:0:0:0:0:
64,192,64509,1,0,0:0:0:70:LR_Snare Pop.wav
320,192,64509,1,0,0:0:0:0:
448,192,64509,1,0,0:0:0:0:
64,192,64852,128,0,65109:0:0:0:60:kick1.wav
448,192,64852,128,0,65023:0:0:0:0:
192,192,64938,128,0,65109:0:0:0:0:
320,192,65023,128,0,65195:0:0:0:0:
448,192,65109,128,0,65280:0:0:0:0:
64,192,65195,128,0,65366:0:0:0:0:
192,192,65195,128,0,65280:0:0:0:0:
320,192,65280,128,0,65366:0:0:0:0:
448,192,65366,128,0,65452:0:0:0:0:
192,192,65452,1,0,0:0:0:0:
64,192,65538,128,0,65623:0:0:0:0:
320,192,65538,1,0,0:0:0:0:
448,192,65623,1,0,0:0:0:0:
192,192,65709,1,0,0:0:0:0:
320,192,65795,1,0,0:0:0:0:
64,192,65880,1,0,0:0:0:0:
64,192,65966,1,0,0:0:0:0:
448,192,66052,1,0,0:0:0:0:
448,192,66138,1,0,0:0:0:0:
64,192,66223,1,0,0:0:0:90:Spark big snare.wav
192,192,66223,1,0,0:0:0:0:
320,192,66223,1,0,0:0:0:0:
64,192,66566,1,0,0:0:0:60:kick1.wav
192,192,66566,1,0,0:0:0:50:LR_DS - Snare Wet High.wav
448,192,66566,1,0,0:0:0:0:
320,192,66652,1,0,0:0:0:0:
64,192,66738,1,0,0:0:0:0:
64,192,66823,1,0,0:0:0:0:
320,192,66909,1,0,0:0:0:60:kick1.wav
448,192,66909,1,0,0:0:0:0:
192,192,66995,1,0,0:0:0:0:
64,192,67080,1,0,0:0:0:50:LR_DS - Snare Wet High.wav
320,192,67080,1,0,0:0:0:0:
320,192,67166,1,0,0:0:0:0:
64,192,67252,1,0,0:0:0:60:kick1.wav
192,192,67252,1,0,0:0:0:0:
448,192,67338,1,0,0:0:0:0:
192,192,67423,1,0,0:0:0:0:
192,192,67509,1,0,0:0:0:0:
320,192,67595,1,0,0:0:0:60:kick1.wav
448,192,67595,1,0,0:0:0:50:LR_DS - Snare Wet High.wav
64,192,67680,1,0,0:0:0:0:
448,192,67766,1,0,0:0:0:0:
448,192,67852,1,0,0:0:0:0:
64,192,67938,1,0,0:0:0:60:kick1.wav
192,192,67938,1,0,0:0:0:0:
320,192,68023,1,0,0:0:0:0:
192,192,68109,1,0,0:0:0:50:LR_DS - Snare Wet High.wav
448,192,68109,1,0,0:0:0:0:
192,192,68195,1,0,0:0:0:0:
320,192,68280,1,0,0:0:0:60:kick1.wav
448,192,68280,1,0,0:0:0:0:
64,192,68366,1,0,0:0:0:0:
320,192,68452,1,0,0:0:0:50:LR_DS - Snare Wet High.wav
448,192,68452,1,0,0:0:0:0:
320,192,68538,1,0,0:0:0:50:LR_DS - Snare Wet High.wav
448,192,68538,1,0,0:0:0:0:
64,192,68623,1,0,0:0:0:60:kick1.wav
192,192,68623,1,0,0:0:0:50:LR_DS - Snare Wet High.wav
192,192,68709,1,0,0:0:0:0:
320,192,68795,1,0,0:0:0:50:LR_DS - Snare Wet High.wav
448,192,68795,1,0,0:0:0:0:
320,192,68880,1,0,0:0:0:0:
64,192,68966,1,0,0:0:0:60:kick1.wav
192,192,68966,1,0,0:0:0:50:LR_DS - Snare Wet High.wav
64,192,69052,1,0,0:0:0:0:
320,192,69138,1,0,0:0:0:50:LR_DS - Snare Wet High.wav
448,192,69138,1,0,0:0:0:0:
448,192,69223,1,0,0:0:0:0:
64,192,69309,1,0,0:0:0:60:kick1.wav
192,192,69309,1,0,0:0:0:50:LR_DS - Snare Wet High.wav
320,192,69395,1,0,0:0:0:0:
192,192,69480,1,0,0:0:0:0:
192,192,69566,1,0,0:0:0:0:
320,192,69652,1,0,0:0:0:60:kick1.wav
448,192,69652,1,0,0:0:0:0:
64,192,69738,1,0,0:0:0:0:
192,192,69823,1,0,0:0:0:50:LR_DS - Snare Wet High.wav
448,192,69823,1,0,0:0:0:0:
448,192,69909,1,0,0:0:0:0:
64,192,69995,1,0,0:0:0:60:kick1.wav
192,192,69995,1,0,0:0:0:0:
320,192,70080,1,0,0:0:0:0:
64,192,70166,1,0,0:0:0:0:
64,192,70252,1,0,0:0:0:0:
320,192,70338,1,0,0:0:0:60:kick1.wav
448,192,70338,1,0,0:0:0:50:LR_DS - Snare Wet High.wav
192,192,70423,1,0,0:0:0:0:
320,192,70509,1,0,0:0:0:0:
320,192,70595,1,0,0:0:0:0:
64,192,70680,1,0,0:0:0:60:kick1.wav
192,192,70680,1,0,0:0:0:0:
448,192,70766,1,0,0:0:0:0:
64,192,70852,1,0,0:0:0:50:LR_DS - Snare Wet High.wav
320,192,70852,1,0,0:0:0:0:
64,192,70938,1,0,0:0:0:0:
320,192,71023,1,0,0:0:0:60:kick1.wav
448,192,71023,1,0,0:0:0:0:
192,192,71109,1,0,0:0:0:0:
320,192,71195,1,0,0:0:0:50:LR_DS - Snare Wet High.wav
448,192,71195,1,0,0:0:0:0:
320,192,71280,1,0,0:0:0:50:LR_DS - Snare Wet High.wav
448,192,71280,1,0,0:0:0:0:
64,192,71366,1,0,0:0:0:60:kick1.wav
192,192,71366,1,0,0:0:0:50:LR_DS - Snare Wet High.wav
448,192,71452,1,0,0:0:0:0:
192,192,71538,1,0,0:0:0:0:
192,192,71623,1,0,0:0:0:0:
448,192,71709,1,0,0:0:0:50:LR_Kick Beat Drop.wav
320,192,71752,1,0,0:0:0:50:LR_Kick Beat Drop.wav
192,192,71795,1,0,0:0:0:50:LR_Kick Beat Drop.wav
64,192,71838,1,0,0:0:0:50:LR_Kick Beat Drop.wav
448,192,71880,1,0,0:0:0:50:LR_Kick Beat Drop.wav
448,192,71966,1,0,0:0:0:50:LR_Kick Beat Drop.wav
64,192,72052,1,0,0:0:0:60:kick1.wav
192,192,72052,1,0,0:0:0:50:LR_DS - Snare Wet High.wav
192,192,72138,1,0,0:0:0:0:
64,192,72223,1,0,0:0:0:50:LR_DS - Snare Wet High.wav
448,192,72223,1,0,0:0:0:0:
320,192,72309,1,0,0:0:0:0:
192,192,72395,1,0,0:0:0:60:kick1.wav
448,192,72395,1,0,0:0:0:50:LR_DS - Snare Wet High.wav
192,192,72480,1,0,0:0:0:0:
64,192,72566,1,0,0:0:0:50:LR_DS - Snare Wet High.wav
320,192,72566,1,0,0:0:0:0:
448,192,72652,1,0,0:0:0:0:
64,192,72738,1,0,0:0:0:60:kick1.wav
192,192,72738,1,0,0:0:0:50:LR_DS - Snare Wet High.wav
64,192,72823,1,0,0:0:0:0:
192,192,72909,1,0,0:0:0:50:LR_DS - Snare Wet High.wav
448,192,72909,1,0,0:0:0:0:
320,192,72995,1,0,0:0:0:0:
64,192,73080,1,0,0:0:0:60:kick1.wav
448,192,73080,1,0,0:0:0:50:LR_DS - Snare Wet High.wav
64,192,73166,1,0,0:0:0:0:
192,192,73252,1,0,0:0:0:50:LR_DS - Snare Wet High.wav
448,192,73252,1,0,0:0:0:0:
320,192,73338,1,0,0:0:0:0:
64,192,73423,1,0,0:0:0:60:kick1.wav
448,192,73423,1,0,0:0:0:50:LR_DS - Snare Wet High.wav
448,192,73509,1,0,0:0:0:0:
64,192,73595,1,0,0:0:0:50:LR_DS - Snare Wet High.wav
192,192,73595,1,0,0:0:0:0:
320,192,73680,1,0,0:0:0:0:
192,192,73766,1,0,0:0:0:60:kick1.wav
448,192,73766,1,0,0:0:0:50:LR_DS - Snare Wet High.wav
448,192,73852,1,0,0:0:0:0:
64,192,73938,1,0,0:0:0:50:LR_DS - Snare Wet High.wav
192,192,73938,1,0,0:0:0:0:
448,192,74023,1,0,0:0:0:0:
64,192,74109,1,0,0:0:0:60:kick1.wav
320,192,74109,1,0,0:0:0:50:LR_DS - Snare Wet High.wav
320,192,74195,1,0,0:0:0:0:
192,192,74280,1,0,0:0:0:50:LR_DS - Snare Wet High.wav
448,192,74280,1,0,0:0:0:0:
64,192,74366,1,0,0:0:0:0:
320,192,74452,1,0,0:0:0:60:kick1.wav
448,192,74452,1,0,0:0:0:50:LR_DS - Snare Wet High.wav
320,192,74538,1,0,0:0:0:0:
64,192,74623,1,0,0:0:0:50:LR_DS - Snare Wet High.wav
192,192,74623,1,0,0:0:0:0:
448,192,74709,1,0,0:0:0:0:
64,192,74795,1,0,0:0:0:60:kick1.wav
192,192,74795,1,0,0:0:0:40:snare1.wav
192,192,74880,1,0,0:0:0:0:
320,192,74966,1,0,0:0:0:60:kick1.wav
448,192,74966,1,0,0:0:0:40:snare1.wav
320,192,75052,1,0,0:0:0:0:
64,192,75138,1,0,0:0:0:60:kick1.wav
192,192,75138,1,0,0:0:0:40:snare1.wav
64,192,75223,1,0,0:0:0:0:
320,192,75309,1,0,0:0:0:60:kick1.wav
448,192,75309,1,0,0:0:0:40:snare1.wav
448,192,75395,1,0,0:0:0:0:
64,192,75480,1,0,0:0:0:60:kick1.wav
192,192,75480,1,0,0:0:0:40:snare1.wav
320,192,75566,1,0,0:0:0:60:kick1.wav
448,192,75566,1,0,0:0:0:40:snare1.wav
64,192,75652,1,0,0:0:0:60:kick1.wav
192,192,75652,1,0,0:0:0:40:snare1.wav
320,192,75738,1,0,0:0:0:60:kick1.wav
448,192,75738,1,0,0:0:0:40:snare1.wav
64,192,75823,1,0,0:0:0:60:kick1.wav
192,192,75823,1,0,0:0:0:40:snare1.wav
64,192,75909,1,0,0:0:0:60:kick1.wav
192,192,75909,1,0,0:0:0:40:snare1.wav
320,192,75995,1,0,0:0:0:60:kick1.wav
448,192,75995,1,0,0:0:0:40:snare1.wav
320,192,76080,1,0,0:0:0:60:kick1.wav
448,192,76080,1,0,0:0:0:40:snare1.wav
64,192,76166,1,0,0:0:0:60:kick1.wav
192,192,76166,1,0,0:0:0:100:hip hop 808 snare.wav
320,192,76338,1,0,0:0:0:100:hip hop 808 snare.wav
320,192,76423,1,0,0:0:0:100:hip hop 808 snare.wav
64,192,76509,1,0,0:0:0:100:hip hop 808 snare.wav
192,192,76680,1,0,0:0:0:100:hip hop 808 snare.wav
320,192,76766,1,0,0:0:0:100:hip hop 808 snare.wav
64,192,76938,1,0,0:0:0:100:hip hop 808 snare.wav
448,192,77023,1,0,0:0:0:100:hip hop 808 snare.wav
192,192,77195,128,0,77538:0:0:0:0:
64,192,77538,128,0,78223:0:0:0:40:BassKickReverb.wav
320,192,77538,1,0,0:0:0:0:
448,192,77538,128,0,77880:0:0:0:0:
192,192,77709,1,0,0:0:0:0:
192,192,77880,128,0,78223:0:0:0:0:
448,192,78052,1,0,0:0:0:0:
320,192,78223,1,0,0:0:0:0:
448,192,78223,128,0,78566:0:0:0:0:
320,192,78395,128,0,78566:0:0:0:0:
64,192,78566,1,0,0:0:0:0:
192,192,78566,128,0,79080:0:0:0:0:
320,192,78738,128,0,78909:0:0:0:0:
448,192,78909,1,0,0:0:0:0:
64,192,79080,128,0,79423:0:0:0:0:
320,192,79252,1,0,0:0:0:0:
320,192,79423,128,0,79595:0:0:0:0:
448,192,79595,1,0,0:0:0:0:
64,192,79766,128,0,80109:0:0:0:0:
320,192,79938,1,0,0:0:0:0:
320,192,80109,128,0,80280:0:0:0:0:
64,192,80280,128,0,80966:0:0:0:0:
192,192,80280,128,0,80623:0:0:0:0:
448,192,80452,1,0,0:0:0:0:
448,192,80623,128,0,80966:0:0:0:0:
192,192,80795,1,0,0:0:0:0:
192,192,80966,128,0,81309:0:0:0:0:
320,192,80966,1,0,0:0:0:0:
320,192,81138,128,0,81309:0:0:0:0:
64,192,81309,1,0,0:0:0:0:
448,192,81309,128,0,81823:0:0:0:0:
192,192,81480,128,0,81652:0:0:0:0:
320,192,81652,1,0,0:0:0:0:
64,192,81823,128,0,82166:0:0:0:0:
320,192,81995,1,0,0:0:0:0:
320,192,82166,128,0,82338:0:0:0:0:
192,192,82338,1,0,0:0:0:0:
64,192,82509,128,0,82852:0:0:0:0:
320,192,82680,1,0,0:0:0:0:
320,192,82852,128,0,83023:0:0:0:0:
64,192,83023,128,0,83709:0:0:0:0:
448,192,83023,128,0,83366:0:0:0:0:
192,192,83195,1,0,0:0:0:0:
192,192,83366,128,0,83709:0:0:0:0:
448,192,83538,1,0,0:0:0:0:
320,192,83709,1,0,0:0:0:0:
448,192,83709,128,0,84052:0:0:0:0:
320,192,83880,128,0,84052:0:0:0:0:
64,192,84052,1,0,0:0:0:0:
192,192,84052,128,0,84566:0:0:0:0:
448,192,84223,128,0,84395:0:0:0:0:
320,192,84566,128,0,84909:0:0:0:0:
64,192,84738,1,0,0:0:0:0:
64,192,84909,128,0,85080:0:0:0:0:
448,192,85080,1,0,0:0:0:0:
320,192,85252,128,0,85595:0:0:0:0:
64,192,85423,1,0,0:0:0:0:
64,192,85595,128,0,85766:0:0:0:0:
192,192,85766,128,0,86109:0:0:0:0:
448,192,85766,128,0,86280:0:0:0:0:
320,192,85938,1,0,0:0:0:0:
320,192,86109,128,0,86452:0:0:0:0:
64,192,86280,128,0,86795:0:0:0:0:
192,192,86280,1,0,0:0:0:0:
192,192,86452,128,0,86795:0:0:0:0:
448,192,86623,1,0,0:0:0:0:
320,192,86795,128,0,87138:0:0:0:0:
448,192,86795,128,0,86966:0:0:0:0:
192,192,86966,128,0,87138:0:0:0:0:
64,192,87138,128,0,87395:0:0:0:0:
320,192,87309,128,0,87652:0:0:0:0:
448,192,87309,128,0,87480:0:0:0:0:
192,192,87395,128,0,87652:0:0:0:0:
64,192,87652,128,0,88166:0:0:0:0:
320,192,87823,128,0,87995:0:0:0:0:
448,192,87823,128,0,88166:0:0:0:0:
192,192,88166,1,0,0:0:0:0:
320,192,88195,1,0,0:0:0:0:
192,192,88309,1,0,0:0:0:0:
320,192,88366,1,0,0:0:0:0:
64,192,88509,1,0,0:0:0:60:kick1.wav
320,192,88509,128,0,89195:0:0:0:70:cymhicrsh.wav
448,192,88509,128,0,89195:0:0:0:0:
64,192,88852,128,0,89109:0:0:0:0:
64,192,89195,128,0,89538:0:0:0:50:LR_Kick Beat Drop.wav
192,192,89195,1,0,0:0:0:0:
320,192,89366,1,0,0:0:0:50:LR_Kick Beat Drop.wav
448,192,89366,1,0,0:0:0:0:
192,192,89538,1,0,0:0:0:60:kick1.wav
448,192,89538,1,0,0:0:0:0:
64,192,89709,1,0,0:0:0:60:kick1.wav
320,192,89709,1,0,0:0:0:0:
64,192,89880,128,0,90823:0:0:0:60:kick1.wav
192,192,89880,128,0,90823:0:0:0:70:cymhicrsh.wav
448,192,89880,1,0,0:0:0:0:
320,192,90052,1,0,0:0:0:0:
320,192,90223,1,0,0:0:0:0:
448,192,90395,1,0,0:0:0:0:
448,192,90566,128,0,90738:0:0:0:0:
320,192,90823,128,0,91166:0:0:0:0:
64,192,90909,128,0,91166:0:0:0:0:
192,192,90909,128,0,91166:0:0:0:0:
64,192,91252,1,0,0:0:0:60:kick1.wav
320,192,91252,128,0,91938:0:0:0:70:cymhicrsh.wav
448,192,91252,128,0,91938:0:0:0:0:
64,192,91595,128,0,91852:0:0:0:0:
64,192,91938,128,0,92280:0:0:0:50:LR_Kick Beat Drop.wav
192,192,91938,1,0,0:0:0:0:
192,192,92109,1,0,0:0:0:50:LR_Kick Beat Drop.wav
448,192,92109,1,0,0:0:0:0:
320,192,92280,1,0,0:0:0:50:LR_Kick Beat Drop.wav
448,192,92280,1,0,0:0:0:0:
64,192,92452,1,0,0:0:0:50:LR_Kick Beat Drop.wav
320,192,92452,1,0,0:0:0:0:
64,192,92623,128,0,93566:0:0:0:60:kick1.wav
192,192,92623,128,0,93566:0:0:0:70:cymhicrsh.wav
448,192,92623,1,0,0:0:0:0:
320,192,92795,1,0,0:0:0:0:
320,192,92966,1,0,0:0:0:0:
448,192,93138,1,0,0:0:0:0:
448,192,93309,128,0,93480:0:0:0:0:
320,192,93566,128,0,93738:0:0:0:0:
192,192,93652,128,0,93738:0:0:0:0:
192,192,93823,128,0,93995:0:0:0:0:
64,192,93995,1,0,0:0:0:60:kick1.wav
320,192,93995,128,0,94680:0:0:0:70:cymhicrsh.wav
448,192,93995,128,0,94680:0:0:0:0:
64,192,94338,128,0,94595:0:0:0:0:
64,192,94680,128,0,95023:0:0:0:50:LR_Kick Beat Drop.wav
192,192,94680,1,0,0:0:0:0:
320,192,94852,1,0,0:0:0:50:LR_Kick Beat Drop.wav
448,192,94852,1,0,0:0:0:0:
192,192,95023,1,0,0:0:0:60:kick1.wav
448,192,95023,1,0,0:0:0:0:
64,192,95195,1,0,0:0:0:60:kick1.wav
320,192,95195,1,0,0:0:0:0:
64,192,95366,128,0,96309:0:0:0:60:kick1.wav
192,192,95366,128,0,96309:0:0:0:70:cymhicrsh.wav
448,192,95366,1,0,0:0:0:0:
320,192,95538,1,0,0:0:0:0:
320,192,95709,128,0,95966:0:0:0:0:
448,192,95966,128,0,96138:0:0:0:0:
448,192,96223,128,0,96395:0:0:0:0:
64,192,96395,128,0,96480:0:0:0:0:
192,192,96395,128,0,96480:0:0:0:0:
320,192,96566,1,0,0:0:0:0:
192,192,96738,128,0,96823:0:0:0:60:kick1.wav
320,192,96738,128,0,97080:0:0:0:70:cymhicrsh.wav
448,192,96738,128,0,97252:0:0:0:0:
192,192,96909,128,0,97080:0:0:0:0:
64,192,97080,128,0,97166:0:0:0:0:
64,192,97252,128,0,97766:0:0:0:60:kick1.wav
192,192,97252,128,0,97595:0:0:0:70:cymhicrsh.wav
320,192,97252,128,0,97338:0:0:0:0:
320,192,97423,128,0,97595:0:0:0:0:
448,192,97595,128,0,97680:0:0:0:0:
192,192,97766,128,0,97852:0:0:0:60:kick1.wav
320,192,97766,128,0,98109:0:0:0:70:cymhicrsh.wav
448,192,97766,128,0,98195:0:0:0:0:
192,192,97938,128,0,98109:0:0:0:0:
64,192,98109,128,0,98280:0:0:0:0:
192,192,98280,128,0,98366:0:0:0:60:kick1.wav
320,192,98280,128,0,98452:0:0:0:70:cymhicrsh.wav
448,192,98280,128,0,98709:0:0:0:0:
64,192,98366,128,0,98538:0:0:0:0:
64,192,98623,128,0,99138:0:0:0:0:
192,192,98623,128,0,98709:0:0:0:0:
192,192,98795,128,0,99052:0:0:0:60:kick1.wav
320,192,98795,128,0,98966:0:0:0:70:cymhicrsh.wav
448,192,98795,128,0,98880:0:0:0:0:
448,192,99138,1,0,0:0:0:0:
320,192,99166,1,0,0:0:0:0:
448,192,99280,1,0,0:0:0:0:
320,192,99338,1,0,0:0:0:0:
64,192,99480,1,0,0:0:0:60:kick1.wav
192,192,99480,128,0,99652:0:0:0:40:snare1.wav
320,192,99480,128,0,99823:0:0:0:70:cymhicrsh.wav
64,192,99823,1,0,0:0:0:40:snare1.wav
192,192,99823,128,0,99995:0:0:0:0:
448,192,99823,1,0,0:0:0:0:
320,192,99995,128,0,100338:0:0:0:0:
64,192,100166,1,0,0:0:0:40:snare1.wav
192,192,100166,128,0,100338:0:0:0:0:
448,192,100166,1,0,0:0:0:0:
64,192,100509,1,0,0:0:0:40:snare1.wav
192,192,100509,128,0,100680:0:0:0:0:
320,192,100509,128,0,100852:0:0:0:0:
64,192,100852,1,0,0:0:0:60:kick1.wav
192,192,100852,128,0,101023:0:0:0:40:snare1.wav
448,192,100852,128,0,101195:0:0:0:0:
64,192,101195,1,0,0:0:0:40:snare1.wav
192,192,101195,128,0,101366:0:0:0:0:
320,192,101195,1,0,0:0:0:0:
448,192,101366,128,0,101709:0:0:0:0:
64,192,101538,1,0,0:0:0:40:snare1.wav
192,192,101538,128,0,101709:0:0:0:0:
320,192,101538,1,0,0:0:0:0:
192,192,101795,128,0,101880:0:0:0:0:
64,192,101880,1,0,0:0:0:40:snare1.wav
320,192,101880,1,0,0:0:0:0:
448,192,101880,128,0,102223:0:0:0:0:
192,192,102052,128,0,102138:0:0:0:0:
64,192,102223,128,0,102566:0:0:0:60:kick1.wav
192,192,102223,128,0,102395:0:0:0:40:snare1.wav
320,192,102223,1,0,0:0:0:70:cymhicrsh.wav
192,192,102566,128,0,102738:0:0:0:40:snare1.wav
320,192,102566,1,0,0:0:0:0:
448,192,102566,1,0,0:0:0:0:
64,192,102738,128,0,103080:0:0:0:0:
192,192,102909,128,0,103080:0:0:0:40:snare1.wav
320,192,102909,1,0,0:0:0:0:
448,192,102909,1,0,0:0:0:0:
64,192,103252,128,0,103595:0:0:0:40:snare1.wav
192,192,103252,128,0,103423:0:0:0:0:
448,192,103252,1,0,0:0:0:0:
192,192,103595,128,0,103766:0:0:0:60:kick1.wav
320,192,103595,128,0,103938:0:0:0:40:snare1.wav
448,192,103595,1,0,0:0:0:0:
64,192,103938,1,0,0:0:0:40:snare1.wav
192,192,103938,128,0,104109:0:0:0:0:
448,192,103938,1,0,0:0:0:0:
320,192,104109,128,0,104452:0:0:0:0:
64,192,104280,1,0,0:0:0:40:snare1.wav
192,192,104280,128,0,104452:0:0:0:0:
448,192,104280,1,0,0:0:0:0:
192,192,104538,128,0,104623:0:0:0:0:
64,192,104623,1,0,0:0:0:40:snare1.wav
320,192,104623,128,0,104966:0:0:0:0:
448,192,104623,1,0,0:0:0:0:
192,192,104795,128,0,104880:0:0:0:0:
64,192,104966,1,0,0:0:0:60:kick1.wav
192,192,104966,1,0,0:0:0:40:snare1.wav
448,192,104966,128,0,105309:0:0:0:70:cymhicrsh.wav
64,192,105138,1,0,0:0:0:40:snare1.wav
192,192,105138,1,0,0:0:0:0:
64,192,105309,1,0,0:0:0:60:kick1.wav
192,192,105309,1,0,0:0:0:40:snare1.wav
320,192,105480,1,0,0:0:0:40:snare1.wav
448,192,105480,128,0,105823:0:0:0:0:
64,192,105652,1,0,0:0:0:60:kick1.wav
192,192,105652,1,0,0:0:0:40:snare1.wav
64,192,105823,1,0,0:0:0:40:snare1.wav
192,192,105823,1,0,0:0:0:0:
320,192,105995,1,0,0:0:0:60:kick1.wav
448,192,105995,128,0,106338:0:0:0:40:snare1.wav
64,192,106166,1,0,0:0:0:40:snare1.wav
192,192,106166,1,0,0:0:0:0:
64,192,106338,128,0,106680:0:0:0:60:kick1.wav
192,192,106338,1,0,0:0:0:40:snare1.wav
320,192,106338,1,0,0:0:0:70:cymhicrsh.wav
320,192,106509,1,0,0:0:0:40:snare1.wav
448,192,106509,1,0,0:0:0:0:
320,192,106680,1,0,0:0:0:60:kick1.wav
448,192,106680,1,0,0:0:0:40:snare1.wav
64,192,106852,128,0,107195:0:0:0:40:snare1.wav
192,192,106852,1,0,0:0:0:0:
320,192,107023,1,0,0:0:0:60:kick1.wav
448,192,107023,1,0,0:0:0:40:snare1.wav
320,192,107195,1,0,0:0:0:40:snare1.wav
448,192,107195,1,0,0:0:0:0:
64,192,107366,128,0,107709:0:0:0:60:kick1.wav
192,192,107366,1,0,0:0:0:40:snare1.wav
320,192,107538,1,0,0:0:0:40:snare1.wav
448,192,107538,1,0,0:0:0:0:
192,192,107709,1,0,0:0:0:60:kick1.wav
320,192,107709,1,0,0:0:0:40:snare1.wav
448,192,107709,1,0,0:0:0:70:cymhicrsh.wav
64,192,107795,1,0,0:0:0:40:snare1.wav
192,192,107880,1,0,0:0:0:60:kick1.wav
448,192,107880,1,0,0:0:0:40:snare1.wav
320,192,107966,1,0,0:0:0:40:snare1.wav
64,192,108052,1,0,0:0:0:60:kick1.wav
192,192,108052,1,0,0:0:0:40:snare1.wav
320,192,108138,1,0,0:0:0:40:snare1.wav
64,192,108223,1,0,0:0:0:60:kick1.wav
448,192,108223,1,0,0:0:0:40:snare1.wav
192,192,108309,1,0,0:0:0:40:snare1.wav
64,192,108395,1,0,0:0:0:60:kick1.wav
320,192,108395,1,0,0:0:0:40:snare1.wav
448,192,108395,1,0,0:0:0:70:cymhicrsh.wav
192,192,108480,1,0,0:0:0:40:snare1.wav
320,192,108566,1,0,0:0:0:60:kick1.wav
448,192,108566,1,0,0:0:0:40:snare1.wav
192,192,108652,1,0,0:0:0:40:snare1.wav
64,192,108738,1,0,0:0:0:60:kick1.wav
320,192,108738,1,0,0:0:0:40:snare1.wav
448,192,108823,1,0,0:0:0:40:snare1.wav
64,192,108909,1,0,0:0:0:60:kick1.wav
192,192,108909,1,0,0:0:0:40:snare1.wav
448,192,108995,1,0,0:0:0:40:snare1.wav
64,192,109080,1,0,0:0:0:50:LR_Kick Beat Drop.wav
320,192,109080,1,0,0:0:0:0:
192,192,109252,1,0,0:0:0:50:LR_Kick Beat Drop.wav
320,192,109252,1,0,0:0:0:0:
448,192,109338,1,0,0:0:0:0:
64,192,109423,1,0,0:0:0:0:
192,192,109423,1,0,0:0:0:0:
320,192,109595,1,0,0:0:0:60:kick1.wav
448,192,109595,1,0,0:0:0:0:
64,192,109766,1,0,0:0:0:50:LR_Kick Beat Drop.wav
192,192,109766,1,0,0:0:0:0:
320,192,109852,1,0,0:0:0:50:LR_Kick Beat Drop.wav
64,192,109938,1,0,0:0:0:50:LR_Kick Beat Drop.wav
192,192,109938,1,0,0:0:0:0:
448,192,110023,1,0,0:0:0:50:LR_Kick Beat Drop.wav
192,192,110109,1,0,0:0:0:50:snare2.wav
320,192,110109,1,0,0:0:0:0:
64,192,110152,1,0,0:0:0:0:
448,192,110195,1,0,0:0:0:0:
320,192,110238,1,0,0:0:0:0:
192,192,110280,1,0,0:0:0:0:
64,192,110323,1,0,0:0:0:0:
448,192,110366,1,0,0:0:0:0:
320,192,110409,1,0,0:0:0:0:
192,192,110452,128,0,110623:0:0:0:0:
64,192,110795,1,0,0:0:0:60:kick1.wav
320,192,110795,128,0,110966:0:0:0:70:cymhicrsh.wav
448,192,110795,128,0,111138:0:0:0:0:
64,192,110966,128,0,111138:0:0:0:0:
192,192,110966,1,0,0:0:0:0:
192,192,111138,128,0,111480:0:0:0:60:kick1.wav
320,192,111138,128,0,111309:0:0:0:0:
64,192,111309,128,0,111480:0:0:0:0:
448,192,111309,1,0,0:0:0:0:
320,192,111480,128,0,111652:0:0:0:60:kick1.wav
448,192,111480,128,0,111823:0:0:0:0:
64,192,111652,1,0,0:0:0:0:
192,192,111652,128,0,111823:0:0:0:0:
64,192,111823,128,0,111995:0:0:0:60:kick1.wav
320,192,111823,128,0,111995:0:0:0:0:
192,192,111995,1,0,0:0:0:0:
448,192,111995,128,0,112166:0:0:0:0:
320,192,112080,1,0,0:0:0:0:
64,192,112166,128,0,112338:0:0:0:60:kick1.wav
192,192,112166,128,0,112509:0:0:0:0:
320,192,112338,1,0,0:0:0:0:
448,192,112338,128,0,112509:0:0:0:0:
64,192,112509,128,0,112680:0:0:0:60:kick1.wav
320,192,112509,128,0,112852:0:0:0:0:
192,192,112680,128,0,112852:0:0:0:0:
448,192,112680,1,0,0:0:0:0:
64,192,112852,128,0,113023:0:0:0:60:kick1.wav
448,192,112852,128,0,113195:0:0:0:0:
192,192,113023,128,0,113195:0:0:0:0:
320,192,113023,1,0,0:0:0:0:
64,192,113195,128,0,113366:0:0:0:60:kick1.wav
320,192,113195,128,0,113366:0:0:0:0:
192,192,113366,128,0,113538:0:0:0:0:
448,192,113366,1,0,0:0:0:0:
320,192,113452,1,0,0:0:0:0:
64,192,113538,128,0,113709:0:0:0:60:kick1.wav
448,192,113538,128,0,113880:0:0:0:0:
192,192,113709,1,0,0:0:0:0:
320,192,113709,128,0,113880:0:0:0:0:
64,192,113880,128,0,114223:0:0:0:60:kick1.wav
192,192,113880,128,0,114052:0:0:0:0:
320,192,114052,128,0,114223:0:0:0:0:
448,192,114052,1,0,0:0:0:0:
192,192,114223,128,0,114395:0:0:0:60:kick1.wav
448,192,114223,128,0,114566:0:0:0:0:
64,192,114395,128,0,114566:0:0:0:0:
320,192,114395,1,0,0:0:0:0:
192,192,114566,128,0,114738:0:0:0:60:kick1.wav
320,192,114566,128,0,114738:0:0:0:0:
64,192,114738,1,0,0:0:0:0:
448,192,114738,128,0,114909:0:0:0:0:
192,192,114823,1,0,0:0:0:0:
64,192,114909,128,0,115252:0:0:0:60:kick1.wav
320,192,114909,128,0,115080:0:0:0:0:
192,192,115080,128,0,115252:0:0:0:0:
448,192,115080,1,0,0:0:0:0:
320,192,115252,128,0,115423:0:0:0:60:kick1.wav
448,192,115252,128,0,115595:0:0:0:0:
64,192,115423,1,0,0:0:0:0:
192,192,115423,128,0,115595:0:0:0:0:
64,192,115595,128,0,115938:0:0:0:60:kick1.wav
320,192,115595,128,0,115766:0:0:0:0:
192,192,115766,1,0,0:0:0:0:
448,192,115766,128,0,115938:0:0:0:0:
320,192,115938,128,0,116109:0:0:0:0:
192,192,116109,1,0,0:0:0:0:
320,192,116195,1,0,0:0:0:0:
64,192,116280,128,0,116366:0:0:0:60:kick1.wav
192,192,116280,1,0,0:0:0:70:cymhicrsh.wav
448,192,116280,128,0,116452:0:0:0:0:
64,192,116452,128,0,116538:0:0:0:60:kick1.wav
320,192,116452,128,0,116623:0:0:0:0:
64,192,116623,128,0,116966:0:0:0:60:kick1.wav
192,192,116623,128,0,116795:0:0:0:0:
320,192,116795,1,0,0:0:0:0:
448,192,116795,128,0,116966:0:0:0:0:
192,192,116966,128,0,117138:0:0:0:60:kick1.wav
320,192,116966,128,0,117309:0:0:0:0:
64,192,117138,128,0,117309:0:0:0:0:
448,192,117138,1,0,0:0:0:0:
192,192,117309,128,0,117480:0:0:0:60:kick1.wav
448,192,117309,128,0,117480:0:0:0:0:
64,192,117480,1,0,0:0:0:0:
320,192,117480,128,0,117652:0:0:0:0:
192,192,117566,1,0,0:0:0:0:
64,192,117652,128,0,117995:0:0:0:60:kick1.wav
448,192,117652,128,0,117823:0:0:0:0:
192,192,117823,128,0,117995:0:0:0:0:
320,192,117823,1,0,0:0:0:0:
320,192,117995,128,0,118338:0:0:0:60:kick1.wav
448,192,117995,128,0,118166:0:0:0:0:
64,192,118166,128,0,118338:0:0:0:0:
192,192,118166,1,0,0:0:0:0:
192,192,118338,128,0,118680:0:0:0:60:kick1.wav
448,192,118338,128,0,118509:0:0:0:0:
64,192,118509,1,0,0:0:0:0:
320,192,118509,128,0,118680:0:0:0:0:
64,192,118680,128,0,118852:0:0:0:60:kick1.wav
448,192,118680,128,0,118852:0:0:0:70:cymhicrsh.wav
192,192,118852,1,0,0:0:0:60:kick1.wav
320,192,118852,1,0,0:0:0:0:
64,192,118938,1,0,0:0:0:0:
320,192,119023,128,0,119109:0:0:0:60:kick1.wav
448,192,119023,128,0,119195:0:0:0:0:
64,192,119195,128,0,119280:0:0:0:60:kick1.wav
320,192,119195,128,0,119366:0:0:0:0:
64,192,119366,128,0,119538:0:0:0:60:kick1.wav
192,192,119366,128,0,119452:0:0:0:70:cymhicrsh.wav
448,192,119366,1,0,0:0:0:0:
320,192,119538,128,0,119623:0:0:0:60:kick1.wav
448,192,119538,128,0,119709:0:0:0:0:
192,192,119623,1,0,0:0:0:60:kick1.wav
64,192,119709,128,0,119795:0:0:0:60:kick1.wav
320,192,119709,128,0,119880:0:0:0:0:
64,192,119880,128,0,120052:0:0:0:60:kick1.wav
448,192,119880,128,0,119966:0:0:0:0:
192,192,120052,128,0,120223:0:0:0:60:kick1.wav
320,192,120052,128,0,120138:0:0:0:70:cymhicrsh.wav
448,192,120052,1,0,0:0:0:0:
64,192,120223,128,0,120309:0:0:0:0:
192,192,120309,1,0,0:0:0:60:kick1.wav
320,192,120309,128,0,120395:0:0:0:0:
448,192,120309,128,0,120480:0:0:0:0:
64,192,120395,128,0,120566:0:0:0:0:
192,192,120566,128,0,120738:0:0:0:60:kick1.wav
320,192,120566,128,0,120652:0:0:0:0:
448,192,120566,1,0,0:0:0:0:
448,192,120738,128,0,120823:0:0:0:0:
64,192,120823,128,0,120995:0:0:0:60:kick1.wav
192,192,120823,128,0,120909:0:0:0:0:
320,192,120823,1,0,0:0:0:0:
448,192,120909,128,0,121080:0:0:0:0:
64,192,121080,1,0,0:0:0:50:snare2.wav
192,192,121080,1,0,0:0:0:0:
320,192,121080,1,0,0:0:0:0:
448,192,121166,1,0,0:0:0:0:
64,192,121209,1,0,0:0:0:0:
192,192,121252,1,0,0:0:0:0:
320,192,121295,1,0,0:0:0:0:
448,192,121338,1,0,0:0:0:0:
64,192,121380,1,0,0:0:0:0:
192,192,121423,1,0,0:0:0:60:kick1.wav
320,192,121423,128,0,121595:0:0:0:70:cymhicrsh.wav
448,192,121423,128,0,121766:0:0:0:0:
64,192,121595,1,0,0:0:0:0:
192,192,121595,128,0,121766:0:0:0:0:
64,192,121766,128,0,122109:0:0:0:60:kick1.wav
320,192,121766,128,0,121938:0:0:0:50:LR_DS - Snare Wet High.wav
192,192,121938,128,0,122109:0:0:0:0:
448,192,121938,1,0,0:0:0:0:
320,192,122109,128,0,122195:0:0:0:60:kick1.wav
448,192,122109,128,0,122452:0:0:0:0:
64,192,122280,1,0,0:0:0:0:
320,192,122280,128,0,122452:0:0:0:0:
64,192,122452,128,0,122795:0:0:0:60:kick1.wav
192,192,122452,128,0,122538:0:0:0:50:LR_DS - Snare Wet High.wav
192,192,122623,128,0,122795:0:0:0:0:
448,192,122623,1,0,0:0:0:0:
320,192,122795,128,0,122966:0:0:0:60:kick1.wav
448,192,122795,128,0,123138:0:0:0:0:
64,192,122966,128,0,123138:0:0:0:0:
192,192,122966,128,0,123052:0:0:0:0:
192,192,123138,128,0,123309:0:0:0:60:kick1.wav
320,192,123138,128,0,123309:0:0:0:50:LR_DS - Snare Wet High.wav
64,192,123309,128,0,123480:0:0:0:0:
448,192,123309,1,0,0:0:0:0:
192,192,123480,1,0,0:0:0:60:kick1.wav
320,192,123480,128,0,123652:0:0:0:50:snare2.wav
448,192,123480,128,0,123652:0:0:0:0:
192,192,123652,128,0,123738:0:0:0:0:
64,192,123738,1,0,0:0:0:60:kick1.wav
320,192,123738,128,0,123909:0:0:0:50:snare2.wav
448,192,123738,128,0,123909:0:0:0:0:
192,192,123823,128,0,123995:0:0:0:0:
64,192,123995,1,0,0:0:0:60:kick1.wav
320,192,123995,128,0,124166:0:0:0:50:snare2.wav
448,192,123995,128,0,124166:0:0:0:0:
64,192,124166,128,0,124509:0:0:0:60:kick1.wav
192,192,124166,128,0,124338:0:0:0:0:
320,192,124338,1,0,0:0:0:0:
448,192,124338,128,0,124509:0:0:0:0:
192,192,124509,128,0,124680:0:0:0:60:kick1.wav
320,192,124509,128,0,124852:0:0:0:50:LR_DS - Snare Wet High.wav
64,192,124680,1,0,0:0:0:0:
448,192,124680,128,0,124852:0:0:0:0:
64,192,124852,128,0,125195:0:0:0:60:kick1.wav
192,192,124852,128,0,124938:0:0:0:0:
192,192,125023,128,0,125195:0:0:0:0:
448,192,125023,1,0,0:0:0:0:
320,192,125195,128,0,125280:0:0:0:60:kick1.wav
448,192,125195,128,0,125538:0:0:0:50:LR_DS - Snare Wet High.wav
64,192,125366,1,0,0:0:0:0:
320,192,125366,128,0,125538:0:0:0:0:
64,192,125538,128,0,125880:0:0:0:60:kick1.wav
192,192,125538,128,0,125709:0:0:0:0:
320,192,125709,128,0,125795:0:0:0:0:
448,192,125709,128,0,125880:0:0:0:0:
192,192,125880,128,0,126052:0:0:0:60:kick1.wav
320,192,125880,128,0,126052:0:0:0:50:LR_DS - Snare Wet High.wav
64,192,126052,1,0,0:0:0:0:
448,192,126052,128,0,126223:0:0:0:0:
64,192,126223,128,0,126395:0:0:0:60:kick1.wav
192,192,126223,128,0,126395:0:0:0:50:snare2.wav
320,192,126223,1,0,0:0:0:0:
320,192,126395,128,0,126480:0:0:0:0:
64,192,126480,128,0,126652:0:0:0:60:kick1.wav
192,192,126480,128,0,126652:0:0:0:50:snare2.wav
448,192,126480,1,0,0:0:0:0:
320,192,126566,128,0,126738:0:0:0:0:
64,192,126738,128,0,126909:0:0:0:60:kick1.wav
192,192,126738,128,0,126909:0:0:0:50:snare2.wav
448,192,126738,1,0,0:0:0:0:
320,192,126909,1,0,0:0:0:0:
448,192,126938,1,0,0:0:0:0:
320,192,127052,1,0,0:0:0:0:
448,192,127109,1,0,0:0:0:0:
64,192,127252,128,0,127338:0:0:0:60:kick1.wav
192,192,127252,1,0,0:0:0:50:LR_DS - Snare Wet High.wav
448,192,127252,128,0,127423:0:0:0:0:
64,192,127423,128,0,127509:0:0:0:60:kick1.wav
320,192,127423,128,0,127595:0:0:0:0:
64,192,127595,128,0,127938:0:0:0:60:kick1.wav
192,192,127595,128,0,127680:0:0:0:0:
192,192,127766,128,0,127938:0:0:0:0:
448,192,127766,1,0,0:0:0:0:
320,192,127938,128,0,128023:0:0:0:60:kick1.wav
448,192,127938,128,0,128280:0:0:0:50:LR_DS - Snare Wet High.wav
64,192,128109,1,0,0:0:0:0:
320,192,128109,128,0,128280:0:0:0:0:
64,192,128280,128,0,128623:0:0:0:60:kick1.wav
192,192,128280,128,0,128452:0:0:0:0:
320,192,128452,1,0,0:0:0:0:
448,192,128452,128,0,128538:0:0:0:0:
192,192,128623,128,0,128966:0:0:0:60:kick1.wav
448,192,128623,128,0,128795:0:0:0:50:LR_DS - Snare Wet High.wav
64,192,128795,1,0,0:0:0:0:
320,192,128795,128,0,128966:0:0:0:0:
64,192,128966,128,0,129309:0:0:0:60:kick1.wav
448,192,128966,128,0,129138:0:0:0:0:
192,192,129138,1,0,0:0:0:0:
320,192,129138,128,0,129223:0:0:0:0:
320,192,129309,128,0,129480:0:0:0:60:kick1.wav
448,192,129309,128,0,129652:0:0:0:50:LR_DS - Snare Wet High.wav
64,192,129480,1,0,0:0:0:0:
192,192,129480,128,0,129652:0:0:0:0:
64,192,129652,128,0,129995:0:0:0:60:kick1.wav
320,192,129652,1,0,0:0:0:40:snare1.wav
192,192,129823,1,0,0:0:0:40:snare1.wav
320,192,129823,128,0,129995:0:0:0:0:
192,192,129995,128,0,130338:0:0:0:60:kick1.wav
448,192,129995,1,0,0:0:0:40:snare1.wav
320,192,130166,1,0,0:0:0:40:snare1.wav
448,192,130166,128,0,130338:0:0:0:0:
64,192,130338,1,0,0:0:0:60:kick1.wav
320,192,130338,1,0,0:0:0:40:snare1.wav
192,192,130423,1,0,0:0:0:40:snare1.wav
64,192,130509,1,0,0:0:0:40:snare1.wav
448,192,130509,1,0,0:0:0:0:
320,192,130595,1,0,0:0:0:40:snare1.wav
192,192,130680,1,0,0:0:0:60:kick1.wav
448,192,130680,1,0,0:0:0:40:snare1.wav
64,192,130766,1,0,0:0:0:40:snare1.wav
192,192,130852,1,0,0:0:0:40:snare1.wav
320,192,130852,1,0,0:0:0:0:
448,192,130938,1,0,0:0:0:40:snare1.wav
64,192,131023,1,0,0:0:0:60:kick1.wav
192,192,131023,1,0,0:0:0:70:cymhicrsh.wav
320,192,131023,1,0,0:0:0:0:
64,192,131195,1,0,0:0:0:0:
320,192,131280,1,0,0:0:0:60:kick1.wav
448,192,131280,1,0,0:0:0:0:
64,192,131538,1,0,0:0:0:60:kick1.wav
320,192,131538,1,0,0:0:0:70:cymhicrsh.wav
448,192,131538,1,0,0:0:0:0:
64,192,131795,1,0,0:0:0:60:kick1.wav
192,192,131795,1,0,0:0:0:0:
448,192,131880,1,0,0:0:0:0:
64,192,132052,1,0,0:0:0:60:kick1.wav
192,192,132052,1,0,0:0:0:0:
448,192,132052,1,0,0:0:0:0:
320,192,132138,1,0,0:0:0:0:
64,192,132223,1,0,0:0:0:60:kick1.wav
192,192,132223,1,0,0:0:0:0:
320,192,132309,1,0,0:0:0:60:kick1.wav
64,192,132395,128,0,132738:0:0:0:60:kick1.wav
192,192,132395,128,0,132738:0:0:0:70:cymhicrsh.wav
448,192,132395,1,0,0:0:0:0:
