osu file format v14

[General]
AudioFilename: audio.mp3
AudioLeadIn: 0
PreviewTime: 208064
Countdown: 0
SampleSet: Soft
StackLeniency: 0.4
Mode: 0
LetterboxInBreaks: 0
EpilepsyWarning: 1
WidescreenStoryboard: 1

[Editor]
DistanceSpacing: 0.4
BeatDivisor: 4
GridSize: 32
TimelineZoom: 1.800001

[Metadata]
Title:Last Words
TitleUnicode:Last Words
Artist:F A K E S
ArtistUnicode:F Λ K E S
Creator:DeviousPanda
Version:PaRaDogi's Hard
Source:
Tags:fakes KACBR3 KawaakariCB Dictate Un3h ✿ham Lucy Will Stetson HIRAGA ☆ り starri english pop jazz waefwerf paradogi xarr shiraya sayuki
BeatmapID:3606783
BeatmapSetID:1497474

[Difficulty]
HPDrainRate:4
CircleSize:3.7
OverallDifficulty:7
ApproachRate:8
SliderMultiplier:1.59999990463257
SliderTickRate:1

[Events]
//Background and Video events
Video,0,"last_words_video.avi"
0,0,"temp bg.jpg",0,0
//Break Periods
2,145296,148663
//Storyboard Layer 0 (Background)
//Storyboard Layer 1 (Fail)
//Storyboard Layer 2 (Pass)
//Storyboard Layer 3 (Foreground)
//Storyboard Layer 4 (Overlay)
//Storyboard Sound Samples

[TimingPoints]
0,508.474576271186,4,2,1,30,1,0
16271,-133.333333333333,4,2,1,30,0,0
24406,500,4,2,1,35,1,0
24406,-133.333333333333,4,2,1,35,0,0
26406,483.870967741935,4,2,1,35,1,0
26406,-133.333333333333,4,2,1,35,0,0
28340,468.75,4,2,1,40,1,0
28340,-133.333333333333,4,2,1,40,0,0
30215,447.761194029851,4,2,1,45,1,0
30215,-133.333333333333,4,2,1,45,0,0
32003,431.654676258993,4,2,1,55,1,0
32003,-133.333333333333,4,2,1,55,0,0
59628,-133.333333333333,4,2,1,50,0,0
73441,-100,4,2,1,70,0,0
104520,-181.818181818181,4,2,1,35,0,0
112074,-153.846153846153,4,2,1,35,0,0
114017,-133.333333333333,4,2,1,55,0,0
134736,-100,4,2,1,55,0,0
135600,-100,4,2,1,65,0,0
136247,-100,4,2,1,55,0,0
136895,-133.333333333333,4,2,1,55,0,0
142506,-133.333333333333,4,2,1,45,0,0
149413,-153.846153846153,4,2,1,45,0,0
156319,-153.846153846153,4,2,1,40,0,0
163226,-153.846153846153,4,2,1,50,0,0
166679,-153.846153846153,4,2,1,55,0,0
167542,-153.846153846153,4,2,1,60,0,0
168405,-153.846153846153,4,2,1,65,0,0
169269,-153.846153846153,4,2,1,70,0,0
170132,-100,4,2,1,75,0,0
208118,-133.333333333333,4,2,1,70,0,0
211139,-100,4,2,1,70,0,0
211247,-100,4,2,1,55,0,0
211571,-83.3333333333333,4,2,1,85,0,0
239197,-133.333333333333,4,2,1,55,0,0
243082,-133.333333333333,4,2,1,45,0,0
243945,-142.857142857143,4,2,1,40,0,0
246103,-181.818181818181,4,2,1,30,0,0
251499,-181.818181818181,4,2,1,5,0,0

[Colours]
Combo1 : 145,145,255
Combo2 : 255,249,164
Combo3 : 250,183,255
Combo4 : 255,85,85
Combo5 : 251,183,55
Combo6 : 209,209,209
Combo7 : 147,147,147
Combo8 : 151,255,156

[HitObjects]
49,27,15762,69,2,3:2:0:0:
132,80,16016,1,2,0:0:0:0:
223,39,16271,6,0,P|258:56|265:131,1,119.999997425079,6|2,0:0|3:2,0:0:0:0:
189,237,17033,2,0,P|187:282|308:311,1,179.999996137619,2|2,0:0|3:2,0:0:0:0:
413,366,18305,102,0,P|425:327|457:253,2,119.999997425079,2|2|2,3:2|3:2|3:2,0:0:0:0:
512,200,19830,2,0,P|496:169|478:110,1,89.9999980688095,2|2,3:2|0:0,0:0:0:0:
497,67,20338,6,0,P|484:48|414:84,1,119.999997425079,6|2,3:2|3:2,0:0:0:0:
353,127,21101,2,0,P|297:107|233:93,1,119.999997425079,6|2,0:0|0:0,0:0:0:0:
175,48,21864,2,0,P|141:65|90:81,1,89.9999980688095,2|2,3:2|0:0,0:0:0:0:
50,121,22372,102,0,B|28:148|27:178|39:192|74:185|101:144|132:130|152:131|170:147|164:175|144:197|120:216,1,239.999994850159,6|2,3:2|3:2,0:0:0:0:
165,349,23898,2,0,P|192:365|238:333,1,89.9999980688095,2|2,3:2|0:0,0:0:0:0:
276,299,24406,6,0,P|317:278|354:330,1,119.999997425079,6|2,3:2|3:2,0:0:0:0:
423,367,25156,2,0,P|449:381|481:282,1,179.999996137619,6|2,0:0|3:2,0:0:0:0:
416,183,26406,102,0,P|435:158|520:154,2,119.999997425079,2|2|2,3:2|3:2|3:2,0:0:0:0:
299,241,27857,1,2,3:2:0:0:
181,180,28340,6,0,P|161:154|203:84,2,119.999997425079,6|2|2,3:2|3:2|3:2,0:0:0:0:
89,274,29746,1,2,3:2:0:0:
185,363,30215,2,0,P|244:338|295:327,1,89.9999980688095,2|2,3:2|0:0,0:0:0:0:
309,310,30662,2,0,P|345:334|421:357,1,119.999997425079,2|2,3:2|3:2,0:0:0:0:
470,300,31334,2,0,P|488:274|501:270,2,29.9999993562698,2|2|6,0:0|0:0|3:2,0:0:0:0:
394,135,32003,38,0,P|351:88|315:91,1,89.9999980688095,6|8,1:0|3:0,0:0:0:0:
257,26,32542,1,8,1:0:0:0:
264,14,32650,2,0,L|142:47,1,119.999997425079,6|2,1:2|3:2,0:0:0:0:
74,105,33297,1,8,1:0:0:0:
138,173,33513,1,2,3:2:0:0:
88,253,33729,6,0,P|55:268|14:236,2,89.9999980688095,2|4|4,1:3|3:0|1:3,0:0:0:0:
138,173,34592,1,2,1:3:0:0:
218,224,34808,2,0,P|254:207|259:206,1,29.9999993562698,2|8,3:2|3:0,0:0:0:0:
265,175,35024,2,0,P|311:200|343:205,1,59.9999987125397,8|4,1:0|3:0,0:0:0:0:
380,274,35456,102,0,P|421:291|455:243,1,89.9999980688095,6|4,1:2|3:0,0:0:0:0:
512,194,35995,1,8,3:1:0:0:
506,183,36103,2,0,P|493:146|469:63,1,119.999997425079,6|2,1:2|3:2,0:0:0:0:
389,19,36751,1,8,1:0:0:0:
315,80,36967,1,2,3:2:0:0:
231,39,37182,6,0,P|198:44|178:95,1,89.9999980688095,6|0,1:2|1:0,0:0:0:0:
151,111,37614,2,0,P|184:141|176:182,1,89.9999980688095,2|10,3:0|3:0,0:0:0:0:
155,200,38046,1,2,3:0:0:0:
225,270,38261,1,2,3:2:0:0:
218,294,38369,1,4,1:3:0:0:
212,317,38477,2,0,L|121:335,1,89.9999980688095,8|0,1:0|0:0,0:0:0:0:
86,328,38909,102,0,P|53:296|67:244,1,89.9999980688095,6|4,1:2|3:0,0:0:0:0:
73,239,39341,1,2,1:3:0:0:
26,151,39556,2,0,P|46:120|127:115,1,119.999997425079,6|2,1:2|3:2,0:3:0:0:
141,131,40096,1,4,3:0:0:0:
162,148,40204,2,0,P|198:166|229:148,1,59.9999987125397,8|4,1:0|1:3,0:0:0:0:
277,81,40636,2,0,P|310:62|363:41,2,89.9999980688095,6|8|4,1:2|3:0|1:3,0:0:0:0:
358,134,41499,2,0,P|390:147|397:154,2,29.9999993562698,2|8|2,3:0|3:1|3:2,0:0:0:0:
342,227,41931,1,8,1:0:0:0:
409,338,42362,6,0,P|375:364|333:359,1,59.9999987125397,6|2,1:2|3:2,0:0:0:0:
327,364,42686,1,8,1:0:0:0:
214,303,43010,2,0,P|172:301|147:342,1,89.9999980688095,6|0,1:2|3:0,0:0:0:0:
120,351,43441,2,0,L|137:384,2,29.9999993562698,4|8|8,3:0|3:1|1:0,0:0:0:0:
36,309,43873,1,2,3:2:0:0:
96,231,44089,102,0,L|120:130,1,89.9999980688095,2|4,1:3|3:0,0:0:0:0:
108,127,44520,1,2,3:0:0:0:
51,53,44736,1,4,1:3:0:0:
137,9,44952,2,0,L|160:15,8,14.9999996781349,2|2|2|2|2|2|2|0|8,1:2|1:2|1:2|1:2|1:2|1:2|1:2|0:0|1:0,0:0:0:0:
209,77,45600,2,0,L|240:63,1,29.9999993562698,4|8,3:0|3:1,0:0:0:0:
261,26,45815,6,0,P|308:29|332:88,1,89.9999980688095,6|4,1:0|3:0,0:0:0:0:
398,135,46355,1,8,1:3:0:0:
389,144,46463,2,0,P|372:193|349:283,1,119.999997425079,4|2,3:0|3:2,0:0:0:0:
305,347,47110,2,0,P|272:366|246:361,1,59.9999987125397,8|2,1:0|3:2,0:0:0:0:
165,325,47542,102,0,P|143:289|166:247,1,89.9999980688095,2|4,1:3|3:0,0:0:0:0:
180,231,47974,1,2,3:0:0:0:
252,160,48190,1,8,1:3:0:0:
191,87,48405,2,0,P|149:74|108:129,1,119.999997425079,2|8,1:3|1:0,0:0:0:0:
40,197,49053,1,8,1:3:0:0:
90,280,49269,6,0,P|135:254|183:238,1,89.9999980688095,6|4,1:2|3:0,0:0:0:0:
188,247,49700,1,2,1:3:0:0:
252,322,49916,2,0,P|293:335|346:362,1,89.9999980688095,6|8,1:2|3:1,0:0:0:0:
362,351,50348,1,2,3:2:0:0:
427,279,50564,1,8,1:0:0:0:
379,197,50779,1,0,0:0:0:0:
441,123,50995,102,0,P|453:93|468:66,1,59.9999987125397,2|2,1:3|3:2,0:0:0:0:
364,75,51427,2,0,P|358:41|347:13,1,59.9999987125397,2|2,1:3|3:2,0:0:0:0:
272,87,51859,2,0,P|263:120|262:156,1,59.9999987125397,2|2,1:3|3:2,0:0:0:0:
170,111,52290,2,0,P|166:157|181:205,1,89.9999980688095,8|0,1:0|0:0,0:0:0:0:
204,220,52722,5,2,1:3:0:0:
160,307,52938,2,0,L|180:342,2,29.9999993562698,2|8|2,3:2|3:0|3:0,0:0:0:0:
66,283,53369,2,0,P|40:262|58:208,1,89.9999980688095,4|0,1:3|0:0,0:0:0:0:
45,186,53801,1,2,3:2:0:0:
111,112,54017,2,0,P|150:105|182:98,1,59.9999987125397,8|4,1:0|1:3,0:0:0:0:
244,39,54449,102,0,P|275:59|301:70,1,59.9999987125397,8|2,1:3|3:2,0:0:0:0:
327,97,54772,2,0,P|372:77|390:69,1,59.9999987125397,4|8,3:0|3:1,0:0:0:0:
406,49,55096,1,4,1:3:0:0:
498,89,55312,2,0,P|522:126|500:177,1,89.9999980688095,2|8,3:0|3:0,0:0:0:0:
486,190,55744,2,0,P|465:226|479:255,1,59.9999987125397,8|2,1:0|3:2,0:0:0:0:
431,337,56175,6,0,L|355:313,1,59.9999987125397,6|2,1:2|3:2,0:0:0:0:
345,326,56499,1,8,1:0:0:0:
224,379,56823,2,0,P|188:351|193:295,1,89.9999980688095,6|0,1:2|3:0,0:0:0:0:
201,285,57254,1,0,1:0:0:0:
281,220,57470,2,0,P|302:188|279:138,1,89.9999980688095,8|0,1:0|0:0,0:0:0:0:
263,124,57902,101,2,1:3:0:0:
287,26,58118,1,2,3:2:0:0:
301,34,58226,2,0,L|402:10,1,89.9999980688095,4|8,3:0|1:3,0:0:0:0:
476,57,58765,2,0,L|482:82,8,14.9999996781349,2|2|2|2|2|2|2|2|6,1:2|1:2|1:2|1:2|1:2|1:2|1:2|1:2|1:2,0:0:0:0:
414,133,59413,2,0,L|405:171,1,29.9999993562698,4|8,1:3|3:1,0:0:0:0:
425,190,59628,6,0,L|440:303,1,89.9999980688095,6|8,1:0|1:3,0:0:0:0:
371,342,60168,1,8,3:1:0:0:
370,354,60276,1,4,1:3:0:0:
285,319,60492,2,0,P|248:297|244:247,1,89.9999980688095,6|8,3:2|3:0,0:0:0:0:
248,234,60923,1,8,1:0:0:0:
307,159,61139,1,2,3:2:0:0:
238,95,61355,102,0,P|242:66|305:45,2,89.9999980688095,6|8|6,1:2|3:0|1:2,0:0:0:0:
159,154,62218,1,4,3:0:0:0:
179,250,62434,1,2,1:2:0:0:
173,268,62542,1,8,3:0:0:0:
167,286,62650,1,8,1:0:0:0:
84,335,62866,1,4,3:0:0:0:
17,264,63082,6,0,P|10:231|50:190,1,89.9999980688095,6|4,1:2|1:3,0:0:0:0:
1,111,63621,1,8,3:1:0:0:
10,102,63729,2,0,L|116:73,1,89.9999980688095,8|2,3:0|1:2,0:0:0:0:
104,64,64161,1,2,3:2:0:0:
179,122,64377,1,8,1:0:0:0:
261,75,64592,1,2,3:2:0:0:
336,132,64808,102,0,L|400:113,1,59.9999987125397,6|2,1:2|3:2,0:0:0:0:
436,120,65132,2,0,P|469:150|461:198,1,89.9999980688095,4|2,3:0|1:2,0:0:0:0:
403,265,65672,1,2,3:2:0:0:
460,342,65887,1,2,3:2:0:0:
446,355,65995,1,4,3:0:0:0:
431,372,66103,2,0,L|354:353,1,59.9999987125397,8|0,1:0|0:0,0:0:0:0:
289,307,66535,6,0,L|193:337,1,89.9999980688095,6|8,1:2|3:1,0:0:0:0:
187,360,66967,1,0,1:0:0:0:
93,330,67182,1,4,1:3:0:0:
98,236,67398,2,0,P|119:200|183:203,1,89.9999980688095,6|8,1:2|3:1,0:0:0:0:
183,205,67830,1,8,1:0:0:0:
270,168,68046,1,2,3:2:0:0:
303,80,68261,102,0,B|283:59|283:59|246:63,1,59.9999987125397,6|2,1:2|3:2,0:0:0:0:
213,71,68585,2,0,L|111:52,1,89.9999980688095,2|6,0:0|1:2,0:0:0:0:
33,99,69125,2,0,L|14:167,1,59.9999987125397,2|2,1:2|1:2,0:0:0:0:
64,243,69556,2,0,L|95:254,1,29.9999993562698,6|8,1:2|3:1,0:0:0:0:
122,280,69772,2,0,L|155:278,1,29.9999993562698,4|8,1:3|3:1,0:0:0:0:
186,305,69988,6,0,B|245:274|245:274|285:284|285:284|361:248,1,179.999996137619,6|2,1:2|3:2,0:0:0:0:
453,262,70851,2,0,L|464:210,1,29.9999993562698,0|8,1:0|3:1,0:0:0:0:
481,210,71067,2,0,L|469:169,1,29.9999993562698,2|8,3:2|1:0,0:0:0:0:
441,155,71283,2,0,L|453:91,1,59.9999987125397,4|2,1:3|3:2,0:0:0:0:
378,33,71715,102,0,P|338:34|312:105,1,119.999997425079,6|2,1:2|3:2,0:0:0:0:
249,169,72362,1,2,3:2:0:0:
257,179,72470,1,8,1:0:0:0:
92,61,73010,5,8,3:1:0:0:
86,91,73118,1,8,3:1:0:0:
25,171,73333,1,8,3:1:0:0:
29,192,73441,2,0,L|60:336,1,119.999992847443,6|4,1:0|3:0,0:0:0:0:
163,371,73981,1,8,1:3:0:0:
181,355,74089,2,0,P|236:339|253:370,1,79.9999952316285,6|2,1:2|3:0,0:0:0:0:
359,290,74520,2,0,L|390:299,2,19.9999988079071,2|0|8,1:2|3:0|3:0,0:0:0:0:
331,257,74736,2,0,L|315:160,1,79.9999952316285,8|2,1:0|3:2,0:0:0:0:
382,70,75168,6,0,P|428:50|477:91,1,119.999992847443,2|4,1:3|1:3,0:0:0:0:
488,121,75600,1,2,3:0:0:0:
415,228,75815,2,0,L|429:317,1,79.9999952316285,4|2,3:0|1:3,0:0:0:0:
315,377,76247,1,8,1:3:0:0:
289,370,76355,1,0,3:0:0:0:
268,362,76463,1,8,1:0:0:0:
170,273,76679,1,8,1:3:0:0:
66,350,76895,6,0,B|29:329|29:329|9:242,1,119.999992847443,6|4,1:2|3:0,0:0:0:0:
24,232,77326,1,2,1:3:0:0:
95,127,77542,2,0,P|133:112|186:165,1,119.999992847443,0|2,1:0|3:2,0:0:0:0:
185,178,77974,1,6,1:2:0:0:
296,242,78190,1,8,1:0:0:0:
398,158,78405,1,2,1:2:0:0:
333,42,78621,102,0,B|300:18|300:18|257:39,1,79.9999952316285,2|2,1:3|3:2,0:0:0:0:
243,57,78945,2,0,L|119:32,1,119.999992847443,4|6,3:0|1:2,0:0:0:0:
26,126,79485,1,2,3:2:0:0:
111,232,79700,1,8,1:3:0:0:
230,178,79916,2,0,P|269:192|286:234,1,79.9999952316285,8|2,1:0|3:2,0:0:0:0:
330,348,80348,5,6,1:2:0:0:
452,300,80564,2,0,L|466:325,2,19.9999988079071,4|8|8,1:3|1:3|1:0,0:0:0:0:
503,185,80887,1,2,1:2:0:0:
498,159,80995,2,0,B|459:132|459:132|387:171,1,119.999992847443,6|0,1:0|0:0,0:0:0:0:
370,191,81427,2,0,L|370:239,2,39.9999976158142,0|8|8,1:0|3:1|1:0,0:0:0:0:
271,112,81859,1,2,3:2:0:0:
164,183,82074,102,0,P|133:227|174:273,1,119.999992847443,6|8,1:2|3:0,0:0:0:0:
185,289,82506,1,2,1:3:0:0:
75,370,82722,1,4,1:3:0:0:
11,256,82938,2,0,P|10:205|40:186,1,79.9999952316285,2|4,1:3|1:3,0:0:0:0:
95,75,83369,1,8,1:0:0:0:
213,125,83585,1,4,1:3:0:0:
323,52,83801,6,0,P|389:73|397:125,1,119.999992847443,6|4,1:2|3:0,0:0:0:0:
430,139,84233,2,0,P|408:185|404:214,1,79.9999952316285,2|4,1:3|1:3,0:0:0:0:
445,333,84664,2,0,L|489:350,2,39.9999976158142,2|4|2,1:3|3:0|1:2,0:0:0:0:
317,367,85096,2,0,B|273:355|273:355|261:312,1,79.9999952316285,8|0,1:0|1:0,0:0:0:0:
146,272,85528,102,0,B|173:241|173:241|157:154,1,119.999992847443,6|8,1:2|3:0,0:0:0:0:
169,140,85959,1,2,1:2:0:0:
221,25,86175,1,2,1:2:0:0:
88,15,86391,2,0,L|59:-3,6,19.9999988079071,0|0|0|0|2|2|2,1:0|1:0|1:0|1:0|1:2|1:2|1:2,0:0:0:0:
106,35,86823,2,0,P|101:78|72:109,1,79.9999952316285,8|4,1:0|1:3,0:0:0:0:
29,226,87254,6,0,P|40:272|90:286,1,79.9999952316285,6|2,1:0|3:2,0:0:0:0:
84,317,87578,2,0,L|172:296,1,79.9999952316285,4|8,1:3|1:0,0:0:0:0:
189,317,87902,1,6,1:2:0:0:
304,378,88118,1,2,3:2:0:0:
410,298,88333,1,8,3:0:0:0:
415,270,88441,1,4,1:3:0:0:
421,242,88549,2,0,B|390:211|390:211|351:222,1,79.9999952316285,8|2,1:0|3:2,0:0:0:0:
234,171,88981,102,0,P|196:123|236:72,1,119.999992847443,2|4,1:3|3:0,0:0:0:0:
235,60,89413,1,2,1:3:0:0:
351,3,89628,2,0,L|428:30,1,79.9999952316285,4|2,1:3|1:3,0:0:0:0:
502,134,90060,1,8,1:3:0:0:
495,159,90168,1,0,3:0:0:0:
489,189,90276,1,8,1:0:0:0:
512,317,90492,1,8,1:3:0:0:
389,358,90708,6,0,P|332:333|334:270,1,119.999992847443,6|8,1:2|3:0,0:0:0:0:
343,259,91139,1,2,1:3:0:0:
327,133,91355,2,0,P|291:104|250:113,1,79.9999952316285,8|2,1:3|1:3,0:0:0:0:
175,208,91787,1,8,3:0:0:0:
51,178,92003,2,0,B|16:147|16:147|28:69,1,119.999992847443,8|2,1:0|0:0,0:0:0:0:
52,51,92434,101,2,1:3:0:0:
186,10,92650,1,8,1:3:0:0:
206,22,92758,1,4,1:3:0:0:
227,36,92866,1,2,1:3:0:0:
358,17,93082,1,6,1:2:0:0:
428,122,93297,2,0,L|416:205,1,79.9999952316285,2|8,3:0|1:3,0:0:0:0:
322,297,93729,1,8,1:0:0:0:
210,236,93945,2,0,L|197:191,1,39.9999976158142,2|0,1:2|0:0,0:0:0:0:
191,169,94161,5,6,1:2:0:0:
88,92,94377,2,0,L|61:88,2,19.9999988079071,4|8|8,1:3|1:3|1:0,0:0:0:0:
108,72,94592,1,2,1:2:0:0:
218,1,94808,2,2,P|266:6|286:74,1,119.999992847443,6|0,1:0|0:0,0:1:0:0:
272,102,95240,2,0,L|219:91,2,39.9999976158142,2|8|8,1:2|3:1|1:0,0:0:0:0:
390,53,95672,1,2,1:2:0:0:
485,143,95887,102,0,L|499:189,1,39.9999976158142,6|0,1:2|0:0,0:0:0:0:
477,198,96103,2,0,L|461:297,1,79.9999952316285,2|2,1:2|1:3,0:0:0:0:
373,365,96535,2,0,P|325:353|317:310,1,79.9999952316285,4|0,1:3|1:0,0:0:0:0:
228,232,96967,1,4,3:0:0:0:
115,297,97182,1,8,1:0:0:0:
13,214,97398,2,0,L|-2:168,1,39.9999976158142,0|2,1:0|3:2,0:0:0:0:
30,160,97614,6,0,P|49:114|103:108,1,79.9999952316285,6|2,1:2|3:2,0:0:0:0:
104,78,97938,2,0,P|160:78|177:141,1,119.999992847443,0|4,1:0|1:3,0:0:0:0:
293,231,98477,1,2,1:2:0:0:
299,243,98585,1,8,3:1:0:0:
304,253,98693,2,0,L|349:239,1,39.9999976158142,6|4,1:2|3:0,0:0:0:0:
366,258,98909,2,0,L|456:269,1,79.9999952316285,8|2,1:0|3:2,0:0:0:0:
510,158,99341,102,0,P|488:104|447:91,1,79.9999952316285,6|2,1:2|3:2,0:0:0:0:
373,12,99772,2,0,L|330:28,1,39.9999976158142,0|4,1:0|3:0,0:0:0:0:
314,36,99988,1,4,1:3:0:0:
221,121,100204,2,0,L|189:112,6,19.9999988079071,2|2|2|2|2|2|2,1:2|1:2|1:2|1:2|1:2|1:2|1:2,0:0:0:0:
181,110,100636,1,8,1:0:0:0:
58,161,100851,2,0,L|52:205,1,39.9999976158142,4|8,1:3|3:1,0:0:0:0:
57,228,101067,22,0,B|47:272|78:318|147:320|181:276|179:242|176:220|176:220|168:169|213:131|291:110|323:190|333:239|263:274,1,479.999971389771,6|2,0:0|0:0,0:0:0:0:
378,358,102794,5,2,0:0:0:0:
467,152,103657,1,2,0:0:0:0:
254,119,104520,102,0,P|211:119|180:73,1,87.9999974403381,6|0,3:2|0:0,0:0:0:0:
113,120,105168,2,0,B|79:104|65:108|36:115|3:139|5:197|26:251|81:249|120:220|132:204|144:187|199:168|234:191|256:283|221:318|173:321|140:336|110:294,1,483.99998592186,2|0,0:0|0:0,0:0:0:0:
313,378,107974,6,0,P|349:355|401:361,1,87.9999974403381,2|0,0:0|0:0,0:0:0:0:
468,384,108621,2,0,P|485:300|513:202,1,175.999994880676,2|0,3:0|0:0,0:0:0:0:
497,133,109700,102,0,B|503:116|517:67|479:56|442:58|430:78|424:104|424:104|413:128|390:132|368:132|350:113|344:96|354:60,1,263.999992321014,2|0,3:0|1:0,0:0:0:0:
209,35,111427,6,0,P|181:34|162:88,1,87.9999974403381,2|0,3:0|0:0,0:0:0:0:
64,149,112074,2,0,B|76:118|121:117|144:173|155:202|107:230|90:220|74:201|17:227|13:284|35:332|74:368|137:373|172:339|199:274|161:255,1,415.999956161501,2|0,0:0|0:0,0:0:0:0:
241,359,114017,38,0,L|226:355,6,14.9999996781349,2|2|2|2|2|2|2,1:2|1:2|1:2|1:2|1:2|1:2|1:2,0:0:0:0:
264,372,114449,2,0,L|308:357,1,29.9999993562698,0|8,1:0|3:2,0:0:0:0:
321,327,114664,2,0,L|375:346,1,29.9999993562698,8|8,3:0|3:1,0:0:0:0:
387,368,114880,6,0,B|423:356|423:356|442:269,1,119.999997425079,6|0,1:0|0:0,0:0:0:0:
358,216,115528,2,0,B|338:189|338:189|377:104,1,119.999997425079,6|2,1:2|3:2,0:0:0:0:
333,26,116175,1,8,1:0:0:0:
257,78,116391,1,2,3:2:0:0:
165,68,116607,102,0,P|143:34|173:-1,2,89.9999980688095,8|4|4,1:3|3:0|1:3,0:0:0:0:
210,152,117470,2,0,L|245:250,1,89.9999980688095,2|4,3:2|3:0,0:0:0:0:
229,257,117902,1,8,1:0:0:0:
139,298,118118,1,4,1:3:0:0:
199,374,118333,6,0,L|275:355,1,59.9999987125397,6|2,1:2|3:2,0:0:0:0:
290,326,118657,2,0,L|356:346,1,59.9999987125397,4|2,1:3|3:2,0:0:0:0:
380,370,118981,2,0,B|410:353|410:353|389:263,1,119.999997425079,6|2,1:2|3:2,0:0:0:0:
318,212,119628,1,8,1:0:0:0:
377,136,119844,1,2,3:2:0:0:
298,87,120060,102,0,L|240:75,1,59.9999987125397,6|2,1:2|3:2,0:0:0:0:
212,165,120492,2,0,L|153:177,1,59.9999987125397,2|2,3:2|3:2,0:0:0:0:
168,267,120923,2,0,L|120:303,1,59.9999987125397,2|2,1:2|3:2,0:0:0:0:
28,272,121355,2,0,L|17:239,1,29.9999993562698,8|8,3:1|1:0,0:0:0:0:
27,213,121571,2,0,L|34:178,1,29.9999993562698,0|8,1:0|3:1,0:0:0:0:
12,158,121787,6,0,B|1:128|1:128|74:72,1,119.999997425079,6|2,1:0|3:2,0:0:0:0:
138,8,122434,2,0,B|185:33|185:33|251:-2,1,119.999997425079,6|2,1:2|3:2,0:0:0:0:
315,63,123082,1,8,1:0:0:0:
396,17,123297,1,2,3:2:0:0:
480,63,123513,102,0,L|490:129,1,59.9999987125397,2|2,1:2|3:2,0:0:0:0:
410,174,123945,2,0,L|389:243,1,59.9999987125397,2|8,3:2|1:3,0:0:0:0:
449,308,124377,2,0,B|428:333|428:333|362:312,1,89.9999980688095,2|4,3:2|3:0,0:0:0:0:
361,313,124808,1,8,1:0:0:0:
280,367,125024,1,4,1:3:0:0:
199,325,125240,6,0,B|152:336|139:317|141:299|128:292|73:295,1,119.999997425079,6|2,1:2|1:2,0:0:0:0:
18,227,125887,2,0,P|22:187|94:169,1,119.999997425079,6|2,1:2|3:2,0:0:0:0:
172,125,126535,2,0,P|206:141|234:133,1,59.9999987125397,8|0,1:0|0:0,0:0:0:0:
313,171,126967,2,0,L|343:266,2,89.9999980688095,6|8|2,1:2|3:0|3:2,0:0:0:0:
340,85,127830,102,0,L|362:78,6,14.9999996781349,8|2|2|2|2|2|2,1:0|1:2|1:2|1:2|1:2|1:2|1:2,0:0:0:0:
308,54,128261,2,0,L|260:43,1,29.9999993562698,2|8,1:2|3:2,0:0:0:0:
241,24,128477,2,0,L|206:34,1,29.9999993562698,8|8,3:0|3:1,0:0:0:0:
164,34,128693,6,0,B|138:59|138:59|162:129,1,89.9999980688095,6|6,1:0|1:2,0:0:0:0:
90,175,129233,1,8,1:0:0:0:
93,187,129341,1,0,1:0:0:0:
46,305,129772,2,0,L|12:316,2,29.9999993562698,6|8|8,3:2|1:3|3:1,0:0:0:0:
111,372,130204,1,2,3:2:0:0:
193,321,130420,102,0,L|284:362,2,89.9999980688095,0|0|6,1:3|1:0|1:2,0:0:0:0:
142,195,131499,1,2,1:2:0:0:
140,182,131607,1,4,1:3:0:0:
141,169,131715,1,8,1:0:0:0:
200,95,131931,1,4,1:3:0:0:
268,157,132146,6,0,B|312:139|312:139|311:83,2,89.9999980688095,8|8|0,3:0|1:3|1:0,0:0:0:0:
206,267,133118,1,8,3:1:0:0:
204,280,133226,1,2,3:2:0:0:
251,365,133441,2,0,L|318:382,1,59.9999987125397,8|2,1:0|3:2,0:0:0:0:
394,331,133873,102,0,B|427:324|427:324|464:235,1,119.999997425079,6|0,1:2|1:0,0:0:0:0:
443,223,134413,1,6,1:2:0:0:
489,144,134628,1,4,3:0:0:0:
493,128,134736,2,0,L|502:92,6,19.9999988079071,2|2|2|2|2|2|2,1:2|1:2|1:2|1:2|1:2|1:2|1:2,0:0:0:0:
469,89,135168,2,0,L|432:76,1,39.9999976158142,6|8,1:2|3:2,0:0:0:0:
391,105,135384,2,0,L|337:117,1,39.9999976158142,8|8,1:3|3:1,0:0:0:0:
302,136,135600,6,8,P|268:163|281:238,2,119.999992847443,6|8|6,1:0|1:3|1:2,0:0:0:0:
215,33,136679,1,8,3:0:0:0:
191,23,136787,1,4,1:3:0:0:
168,13,136895,2,0,L|101:30,1,59.9999987125397,8|2,1:0|3:2,0:0:0:0:
61,112,137326,102,0,B|28:111|28:111|5:48,2,89.9999980688095,6|8|6,1:2|1:3|1:2,0:0:0:0:
189,151,138405,1,2,3:2:0:0:
181,168,138513,1,8,1:3:0:0:
173,185,138621,1,8,1:0:0:0:
198,280,138837,1,8,1:3:0:0:
292,248,139053,6,0,L|328:337,2,89.9999980688095,6|2|8,1:2|1:2|1:3,0:0:0:0:
360,185,139916,1,2,3:2:0:0:
305,107,140132,1,8,3:1:0:0:
382,52,140348,2,0,P|432:55|445:72,1,59.9999987125397,8|2,1:0|3:2,0:0:0:0:
512,5,140779,1,6,1:2:0:0:
512,97,140995,2,0,L|495:166,1,59.9999987125397,2|4,3:2|3:0,0:0:0:0:
461,200,141319,2,0,L|474:252,1,29.9999993562698,6|0,1:2|0:0,0:0:0:0:
478,306,141643,102,0,L|468:324,6,14.9999996781349,2|2|2|2|2|2|2,1:2|1:2|1:2|1:2|1:2|1:2|1:2,0:0:0:0:
442,349,142074,2,0,L|400:340,1,29.9999993562698,6|10,1:2|1:2,0:0:0:0:
384,327,142290,2,0,L|351:335,1,29.9999993562698,4|8,1:3|1:0,0:0:0:0:
336,354,142506,53,6,0:2:0:0:
256,192,142722,12,0,145096,0:0:0:0:
19,53,149413,6,0,L|82:35,1,51.9999945201877,2|0,0:0|0:0,0:0:0:0:
92,34,149736,1,2,0:0:0:0:
199,110,150276,2,0,L|254:125,1,51.9999945201877,2|0,0:0|0:0,0:0:0:0:
272,130,150600,1,2,0:0:0:0:
378,52,151139,101,2,0:0:0:0:
492,212,151787,2,0,L|480:267,1,51.9999945201877,2|0,0:0|0:0,0:0:0:0:
476,290,152110,1,2,0:0:0:0:
387,379,152434,2,0,L|302:349,1,77.9999917802815,2|0,0:0|0:0,0:0:0:0:
288,344,152866,5,2,0:0:0:0:
160,370,153190,2,0,P|137:343|163:283,1,103.999989040375,2|0,0:0|0:0,0:0:0:0:
183,268,153729,1,2,0:0:0:0:
283,184,154053,1,2,0:0:0:0:
280,169,154161,2,0,L|265:104,1,51.9999945201877,2|0,0:0|0:0,0:0:0:0:
361,157,154592,2,0,B|392:145|392:145|398:145|398:145|436:133,4,77.9999917802815,2|0|0|0|0,0:0|0:0|0:0|0:0|0:0,0:0:0:0:
251,113,156319,102,0,L|255:26,1,77.9999917802815,14|2,1:2|0:0,0:0:0:0:
256,18,156751,1,10,3:2:0:0:
332,6,156967,1,2,0:0:0:0:
368,76,157182,2,0,L|439:32,1,77.9999917802815,10|2,1:2|0:0,0:0:0:0:
457,77,157614,1,10,3:2:0:0:
448,152,157830,1,2,0:0:0:0:
385,203,158046,6,0,L|426:273,1,77.9999917802815,10|2,1:2|0:0,0:0:0:0:
433,286,158477,1,10,3:2:0:0:
362,318,158693,1,2,3:2:0:0:
283,314,158909,2,0,L|271:368,1,51.9999945201877,10|2,1:2|0:0,0:0:0:0:
204,307,159341,2,0,L|179:361,1,51.9999945201877,10|2,3:2|0:2,0:0:0:0:
121,280,159772,102,0,L|39:349,2,103.999989040375,14|10|10,1:2|3:2|1:2,0:0:0:0:
95,201,160851,2,0,L|62:198,1,25.9999972600938,2|2,0:0|0:0,0:0:0:0:
45,174,161067,2,0,L|102:158,1,51.9999945201877,10|2,3:2|3:2,0:0:0:0:
145,97,161499,2,0,B|68:67|68:67|166:53|166:53|101:-7|101:-7,1,259.999972600938,10|2,1:2|0:0,0:0:0:0:
108,0,162794,1,10,3:2:0:0:
316,27,163226,6,0,L|371:-4,1,51.9999945201877,14|2,1:2|3:2,0:0:0:0:
402,67,163657,2,0,L|460:70,1,51.9999945201877,10|2,1:2|3:2,0:0:0:0:
429,145,164089,2,0,L|539:199,2,103.999989040375,10|10|10,1:2|1:2|1:2,0:0:0:0:
381,208,165168,102,0,L|396:237,1,25.9999972600938,2|2,3:2|3:2,0:0:0:0:
386,264,165384,2,0,L|452:278,1,51.9999945201877,0|2,0:0|3:2,0:0:0:0:
332,329,165815,2,0,L|364:378,1,51.9999945201877,10|2,1:2|3:2,0:0:0:0:
248,328,166247,2,0,L|234:391,1,51.9999945201877,10|2,1:2|3:2,0:0:0:0:
172,288,166679,6,0,B|128:360|128:360|95:295|95:295|133:244|133:244|101:216|101:216|60:263|60:263|28:226,1,363.999961641314,10|2,1:2|3:2,0:0:0:0:
91,137,168405,102,0,L|-10:107,2,103.999989040375,10|10|2,1:2|3:2|0:0,0:0:0:0:
188,29,169700,53,8,3:1:0:0:
181,46,169808,1,8,3:1:0:0:
226,131,170024,1,8,3:1:0:0:
233,146,170132,86,0,L|357:174,1,119.999992847443,6|4,1:0|3:0,0:0:0:0:
460,243,170672,1,8,3:1:0:0:
474,253,170779,2,0,P|462:320|412:319,1,119.999992847443,6|8,1:2|3:0,0:0:0:0:
371,331,171211,2,0,L|366:380,2,39.9999976158142,4|4|8,1:3|3:0|1:0,0:0:0:0:
272,250,171643,1,2,3:2:0:0:
340,145,171859,6,0,L|362:27,1,119.999992847443,2|8,1:3|1:3,0:0:0:0:
351,3,172290,1,2,3:0:0:0:
245,73,172506,2,0,B|211:46|211:46|119:74,1,119.999992847443,8|0,1:3|0:0,0:0:0:0:
98,77,172938,2,0,L|70:35,2,39.9999976158142,8|0|8,1:3|3:0|1:0,0:0:0:0:
24,183,173369,2,0,L|50:219,1,39.9999976158142,8|2,3:0|3:2,0:0:0:0:
61,242,173585,102,0,L|181:203,1,119.999992847443,2|8,1:3|3:0,0:0:0:0:
199,195,174017,1,2,1:3:0:0:
284,99,174233,2,0,P|339:86|360:177,1,159.999990463257,0|4,1:0|1:3,0:0:0:0:
435,277,174880,1,8,1:0:0:0:
335,362,175096,1,2,3:2:0:0:
221,301,175312,6,0,B|185:278|192:231|213:222|227:188|178:126,1,159.999990463257,2|2,1:3|1:3,0:0:0:0:
104,67,175959,2,0,B|125:28|125:28|245:50,1,159.999990463257,6|8,1:2|1:3,0:0:0:0:
362,5,176607,2,0,L|403:47,1,39.9999976158142,8|0,1:0|0:0,0:0:0:0:
422,37,176823,2,0,L|465:75,1,39.9999976158142,2|0,3:2|0:0,0:0:0:0:
493,75,177038,101,6,1:2:0:0:
444,194,177254,2,0,L|467:204,2,19.9999988079071,8|4|8,3:0|3:0|1:0,0:0:0:0:
422,184,177470,1,2,1:2:0:0:
465,308,177686,2,0,B|448:344|448:344|400:345,1,79.9999952316285,6|0,1:0|0:0,0:0:0:0:
297,290,178118,1,2,1:2:0:0:
291,267,178226,1,8,3:1:0:0:
288,248,178333,1,8,1:0:0:0:
200,155,178549,2,0,L|213:110,1,39.9999976158142,2|8,3:2|3:0,0:0:0:0:
248,82,178765,6,0,B|225:48|225:48|95:34,1,159.999990463257,6|2,1:2|1:3,0:0:0:0:
21,129,179413,2,0,L|34:183,1,39.9999976158142,6|0,1:2|0:0,0:0:0:0:
57,189,179628,2,0,L|42:231,1,39.9999976158142,2|0,1:3|0:0,0:0:0:0:
15,255,179844,1,8,1:3:0:0:
91,355,180060,1,8,1:0:0:0:
202,282,180276,2,0,L|248:300,1,39.9999976158142,8|4,1:3|3:0,0:0:0:0:
260,332,180492,102,0,L|378:298,1,119.999992847443,2|8,1:3|1:3,0:0:0:0:
400,310,180923,1,2,1:3:0:0:
494,221,181139,1,2,3:2:0:0:
405,129,181355,2,0,B|422:90|422:90|375:57,1,79.9999952316285,2|2,1:3|1:2,0:0:0:0:
277,14,181787,2,0,L|255:108,1,79.9999952316285,8|0,1:0|1:0,0:0:0:0:
170,185,182218,6,0,B|197:218|197:218|166:296,1,119.999992847443,6|4,1:2|3:0,0:0:0:0:
168,317,182650,2,0,L|197:354,2,39.9999976158142,2|2|2,1:3|3:2|1:2,0:0:0:0:
37,365,183082,2,0,L|29:337,6,19.9999988079071,2|2|2|2|2|2|2,1:2|1:2|1:2|1:2|1:2|1:2|1:2,0:0:0:0:
45,336,183513,2,0,L|53:291,1,39.9999976158142,8|8,1:0|1:3,0:0:0:0:
44,262,183729,2,0,L|29:217,1,39.9999976158142,4|8,1:3|3:1,0:0:0:0:
42,177,183945,102,0,B|82:178|97:155|88:133|103:108|174:112,1,119.999992847443,6|8,1:0|3:0,0:0:0:0:
149,95,184377,1,2,1:3:0:0:
250,10,184592,2,0,L|374:61,1,119.999992847443,6|2,1:2|1:2,0:0:0:0:
388,53,185024,2,0,L|410:42,4,19.9999988079071,8|0|0|0|8,1:3|3:0|3:0|3:0|1:0,0:0:0:0:
314,160,185456,1,2,1:2:0:0:
421,232,185672,6,0,P|448:271|400:337,1,119.999992847443,6|8,1:2|3:0,0:0:0:0:
406,358,186103,1,2,3:3:0:0:
279,375,186319,2,0,L|235:362,1,39.9999976158142,8|0,1:3|0:0,0:0:0:0:
207,357,186535,1,2,1:3:0:0:
149,246,186751,1,2,1:2:0:0:
154,232,186859,1,8,3:0:0:0:
159,215,186967,2,0,L|183:133,1,79.9999952316285,8|8,1:0|1:3,0:0:0:0:
282,54,187398,102,0,B|255:10|255:10|166:23,1,119.999992847443,6|4,1:2|3:0,0:0:0:0:
173,35,187830,1,2,1:3:0:0:
46,8,188046,2,0,L|17:135,1,119.999992847443,6|2,1:2|3:2,0:0:0:0:
14,142,188477,1,2,1:2:0:0:
91,247,188693,2,0,L|110:333,1,79.9999952316285,8|2,1:0|3:2,0:0:0:0:
225,377,189125,6,0,P|266:366|264:286,1,119.999992847443,6|8,1:2|1:3,0:0:0:0:
200,193,189664,1,8,3:3:0:0:
186,181,189772,2,0,B|222:190|249:173|240:146|266:129|318:123,1,119.999992847443,8|2,1:0|1:2,0:0:0:0:
306,101,190204,2,0,L|356:113,1,39.9999976158142,8|0,1:3|0:0,0:0:0:0:
381,90,190420,1,8,1:0:0:0:
485,169,190636,1,2,3:2:0:0:
400,274,190851,102,0,L|355:258,2,39.9999976158142,6|0|4,1:2|3:0|1:3,0:0:0:0:
443,296,191175,2,0,L|340:332,1,79.9999952316285,8|0,1:0|0:0,0:0:0:0:
347,365,191499,2,0,B|295:346|295:346|289:334|289:334|208:303,1,119.999992847443,8|0,1:3|0:0,0:0:0:0:
214,327,191931,1,8,3:0:0:0:
101,261,192146,2,0,B|73:228|73:228|111:150,1,119.999992847443,8|2,1:0|3:2,0:0:0:0:
97,141,192578,5,2,1:3:0:0:
200,61,192794,1,2,3:2:0:0:
310,129,193010,2,0,B|338:100|338:100|316:50,2,79.9999952316285,2|8|2,3:0|1:3|1:3,0:0:0:0:
212,213,193657,2,0,L|228:262,1,39.9999976158142,8|0,1:3|0:0,0:0:0:0:
217,271,193873,1,8,1:0:0:0:
313,365,194089,1,2,1:2:0:0:
437,332,194305,102,0,L|461:251,1,79.9999952316285,6|2,1:2|3:2,0:0:0:0:
445,232,194628,1,8,1:3:0:0:
432,208,194736,2,0,L|461:126,1,79.9999952316285,2|0,1:3|1:3,0:0:0:0:
376,32,195168,2,0,L|333:20,1,39.9999976158142,2|2,1:3|3:2,0:0:0:0:
306,35,195384,2,0,L|264:41,1,39.9999976158142,8|8,3:1|3:0,0:0:0:0:
228,25,195600,1,8,1:0:0:0:
122,94,195815,1,2,3:2:0:0:
183,209,196031,6,0,P|165:253|90:248,1,119.999992847443,6|8,1:2|1:3,0:0:0:0:
60,255,196463,2,0,P|26:285|33:329,1,79.9999952316285,2|2,1:3|1:2,0:0:0:0:
149,369,196895,2,0,L|181:359,6,19.9999988079071,2|2|2|2|2|2|2,1:2|1:2|1:2|1:2|1:2|1:2|1:2,0:0:0:0:
170,340,197326,2,0,L|219:354,1,39.9999976158142,6|10,1:2|1:2,0:0:0:0:
238,370,197542,2,0,L|290:359,1,39.9999976158142,4|8,1:3|3:1,0:0:0:0:
322,373,197758,38,0,B|350:344|350:344|315:237,1,119.999992847443,6|8,1:0|3:0,0:0:0:0:
339,241,198190,2,0,L|381:253,2,39.9999976158142,2|8|0,1:2|3:1|1:0,0:0:0:0:
240,159,198621,1,2,1:3:0:0:
315,53,198837,1,2,1:2:0:0:
429,124,199053,2,0,B|458:153|458:153|445:194,1,79.9999952316285,8|2,1:0|1:2,0:0:0:0:
497,310,199485,6,0,B|476:344|476:344|391:323,1,119.999992847443,6|8,1:2|1:3,0:0:0:0:
373,341,199916,1,2,1:3:0:0:
256,279,200132,2,2,L|91:320,1,159.999990463257,6|2,1:2|3:2,0:1:0:0:
0,241,200779,1,8,1:0:0:0:
80,138,200995,2,0,L|68:95,1,39.9999976158142,8|0,1:3|1:0,0:0:0:0:
74,59,201211,102,0,P|114:23|178:40,1,119.999992847443,6|8,1:2|1:3,0:0:0:0:
184,57,201643,1,2,1:3:0:0:
299,0,201859,1,2,1:2:0:0:
407,74,202074,1,2,3:3:0:0:
416,91,202182,1,4,3:0:0:0:
426,112,202290,1,0,1:0:0:0:
355,218,202506,2,0,B|320:241|320:241|282:226,1,79.9999952316285,8|2,1:0|1:2,0:0:0:0:
170,162,202938,6,0,P|125:174|111:243,1,119.999992847443,6|8,1:2|1:3,0:0:0:0:
197,340,203477,2,0,L|179:384,2,39.9999976158142,8|2|4,1:3|1:2|3:3,0:0:0:0:
210,311,203801,1,2,1:3:0:0:
327,260,204017,1,2,3:2:0:0:
348,267,204125,1,2,1:2:0:0:
370,275,204233,2,0,L|453:302,1,79.9999952316285,8|2,1:0|1:2,0:0:0:0:
505,184,204664,2,0,B|487:146|487:146|390:155,1,119.999992847443,6|4,1:2|1:3,0:0:0:0:
305,79,205204,1,8,3:1:0:0:
290,87,205312,2,0,B|237:95|244:119|223:141|164:142,1,119.999992847443,8|0,1:3|0:0,0:0:0:0:
85,226,205851,1,8,1:3:0:0:
68,241,205959,2,0,L|37:159,1,79.9999952316285,8|2,1:0|3:2,0:0:0:0:
114,62,206391,102,0,B|96:2|19:10|9:40,2,119.999992847443,6|4|2,1:2|1:3|1:2,0:0:0:0:
203,202,207470,2,0,L|255:189,1,39.9999976158142,8|0,1:0|0:0,0:0:0:0:
269,183,207686,1,8,1:0:0:0:
380,250,207902,1,8,1:0:0:0:
475,160,208118,22,0,P|498:123|421:95,1,149.999996781349,6|0,0:0|0:0,0:0:0:0:
401,110,208765,2,0,B|373:84|352:77|343:99|309:98|275:63,1,119.999997425079,2|0,0:0|0:0,0:0:0:0:
234,24,209413,1,2,0:0:0:0:
219,11,209520,2,0,P|172:29|166:48,1,59.9999987125397
148,53,209844,5,6,0:0:0:0:
34,167,210168,1,2,0:0:0:0:
47,179,210276,1,0,0:0:0:0:
12,252,210492,1,2,0:0:0:0:
64,311,210708,2,0,L|131:327,1,59.9999987125397,2|2,3:0|3:0,0:0:0:0:
244,373,211139,102,0,L|279:363,6,19.9999988079071,2|0|8|8|8|4|4,1:3|0:0|1:3|1:3|1:3|1:3|1:3,0:0:0:0:
229,342,211571,86,0,L|376:381,1,143.9999870224,6|8,1:0|1:3,0:0:0:0:
403,357,212003,2,0,L|436:382,2,23.9999978370667,4|0|8,1:3|3:0|3:1,0:0:0:0:
414,314,212218,2,0,B|444:275|444:275|413:195,1,95.9999913482669,6|2,1:2|1:2,0:0:0:0:
399,107,212650,1,8,1:3:0:0:
379,96,212758,1,0,3:0:0:0:
359,83,212866,2,0,L|262:111,1,95.9999913482669,8|2,1:0|1:2,0:0:0:0:
154,173,213297,6,0,L|54:144,1,95.9999913482669,6|2,1:2|3:2,0:0:0:0:
18,175,213621,2,0,L|3:224,1,47.9999956741335,8|2,1:3|1:3,0:0:0:0:
65,341,213945,2,0,B|127:318|127:318|135:320|135:320|234:285,1,143.9999870224,8|2,1:3|1:2,0:0:0:0:
237,304,214377,2,0,L|247:335,2,23.9999978370667,8|0|0,1:3|3:0|0:0,0:0:0:0:
263,283,214592,2,0,L|367:305,1,95.9999913482669,8|2,1:0|1:2,0:0:0:0:
462,225,215024,70,0,P|503:190|446:130,1,143.9999870224,6|8,1:2|1:3,0:0:0:0:
442,118,215456,1,2,1:3:0:0:
322,173,215672,1,4,1:3:0:0:
213,99,215887,1,2,1:3:0:0:
210,80,215995,1,8,3:1:0:0:
208,60,216103,1,8,1:3:0:0:
85,16,216319,2,0,L|59:60,1,47.9999956741335,8|0,1:0|0:0,0:0:0:0:
30,76,216535,2,0,L|47:131,1,47.9999956741335,2|0,3:2|0:0,0:0:0:0:
77,145,216751,86,0,B|56:203|56:203|61:221|61:221|37:296,1,143.9999870224,6|8,1:2|1:3,0:0:0:0:
51,309,217182,1,2,1:3:0:0:
166,370,217398,1,6,1:2:0:0:
185,361,217506,1,0,3:0:0:0:
206,352,217614,1,2,1:3:0:0:
304,261,217830,2,0,L|289:205,1,47.9999956741335,0|0,1:0|0:0,0:0:0:0:
307,182,218046,2,0,L|321:85,1,95.9999913482669,8|2,1:0|1:2,0:0:0:0:
433,17,218477,6,0,L|438:56,4,23.9999978370667,6|0|0|0|8,1:2|3:0|3:0|3:0|1:3,0:0:0:0:
455,5,218801,2,0,L|508:23,1,47.9999956741335,8|8,1:0|1:3,0:0:0:0:
426,123,219125,2,0,B|394:166|394:166|427:263,1,143.9999870224,6|2,1:0|3:2,0:0:0:0:
413,283,219556,2,0,L|467:306,2,47.9999956741335,2|8|8,1:2|3:1|1:0,0:0:0:0:
321,370,219988,2,0,L|268:359,1,47.9999956741335,2|8,3:2|3:0,0:0:0:0:
248,331,220204,22,0,L|146:365,1,95.9999913482669,6|2,1:2|1:2,0:0:0:0:
44,296,220636,1,2,1:3:0:0:
117,188,220851,1,8,1:3:0:0:
36,89,221067,1,2,1:3:0:0:
135,9,221283,2,0,L|186:32,1,47.9999956741335,8|0,1:3|3:0,0:0:0:0:
197,63,221499,2,0,L|302:38,1,95.9999913482669,8|2,1:0|1:2,0:0:0:0:
424,18,221931,6,0,B|458:58|458:58|403:137,1,143.9999870224,6|2,1:2|1:2,0:0:0:0:
393,164,222362,2,0,L|285:127,1,95.9999913482669,2|2,1:3|1:2,0:0:0:0:
182,182,222794,2,0,P|145:221|159:261,1,95.9999913482669,2|0,1:3|1:0,0:0:0:0:
247,360,223226,1,8,1:0:0:0:
365,307,223441,1,4,1:3:0:0:
489,364,223657,6,0,B|521:329|521:329|480:214,1,143.9999870224,6|8,1:2|1:3,0:0:0:0:
487,205,224089,2,0,L|525:176,2,47.9999956741335,2|8|2,1:3|1:3|1:2,0:0:0:0:
382,129,224520,2,0,L|346:123,6,23.9999978370667,2|2|2|2|2|2|2,1:2|1:2|1:2|1:2|1:2|1:2|1:2,0:0:0:0:
351,148,224952,2,0,L|295:156,1,47.9999956741335,8|8,1:0|1:3,0:0:0:0:
290,184,225168,2,0,L|229:167,1,47.9999956741335,4|8,1:3|1:0,0:0:0:0:
213,194,225384,70,0,L|74:239,1,143.9999870224,6|8,1:0|1:3,0:0:0:0:
48,263,225815,2,0,L|33:310,2,47.9999956741335,4|8|6,1:3|3:1|1:2,0:0:0:0:
17,141,226247,1,2,1:3:0:0:
114,49,226463,1,8,1:3:0:0:
138,56,226571,1,0,3:0:0:0:
162,64,226679,2,0,L|257:40,1,95.9999913482669,8|2,1:0|1:2,0:0:0:0:
386,6,227110,85,6,1:2:0:0:
481,96,227326,2,0,L|518:82,2,23.9999978370667,8|0|4,1:3|3:0|1:3,0:0:0:0:
461,103,227542,1,2,1:3:0:0:
387,205,227758,2,0,B|339:235|339:235|346:294,1,95.9999913482669,4|2,1:3|1:3,0:0:0:0:
429,375,228190,2,0,L|473:363,2,23.9999978370667,8|0|0,1:3|3:0|0:0,0:0:0:0:
397,382,228405,2,0,L|293:359,1,95.9999913482669,8|4,1:0|1:3,0:0:0:0:
197,287,228837,6,0,L|44:345,1,143.9999870224,6|8,1:2|1:3,0:0:0:0:
40,349,229269,1,2,1:3:0:0:
9,221,229485,2,0,B|38:184|38:184|94:182,1,95.9999913482669,4|2,1:3|1:3,0:0:0:0:
183,93,229916,1,4,1:3:0:0:
293,168,230132,1,8,1:0:0:0:
423,152,230348,2,0,L|440:104,1,47.9999956741335,2|8,1:2|3:0,0:0:0:0:
482,93,230564,22,0,B|457:48|457:48|343:25,1,143.9999870224,2|4,1:3|1:3,0:0:0:0:
354,13,230995,1,2,1:3:0:0:
239,69,231211,2,0,B|194:98|194:98|145:81,1,95.9999913482669,6|2,1:2|1:3,0:0:0:0:
29,112,231643,2,0,L|3:61,2,47.9999956741335,8|0|8,1:3|3:0|1:0,0:0:0:0:
117,211,232074,1,2,1:2:0:0:
42,322,232290,6,0,L|10:317,2,23.9999978370667,6|0|0,1:2|3:0|3:0,0:0:0:0:
162,376,232614,1,8,1:0:0:0:
176,371,232722,2,0,L|225:356,1,47.9999956741335,2|2,1:2|1:2,0:0:0:0:
250,328,232938,2,0,L|368:368,1,95.9999913482669,6|0,1:0|0:0,0:0:0:0:
437,272,233369,2,0,L|484:293,2,47.9999956741335,8|8|8,1:3|3:1|1:0,0:0:0:0:
352,175,233801,1,2,1:2:0:0:
237,237,234017,6,0,P|186:220|186:135,1,143.9999870224,6|0,1:2|1:0,0:0:0:0:
201,125,234449,1,2,1:3:0:0:
253,7,234664,2,0,L|309:17,1,47.9999956741335,2|8,1:2|3:0,0:0:0:0:
330,39,234880,2,0,L|426:22,1,95.9999913482669,2|8,1:3|1:3,0:0:0:0:
509,119,235312,1,8,1:0:0:0:
420,209,235528,1,8,1:3:0:0:
474,330,235744,70,0,P|434:368|353:319,1,143.9999870224,2|8,1:3|1:3,0:0:0:0:
337,312,236175,2,0,P|281:273|246:287,1,95.9999913482669,2|4,1:3|1:3,0:0:0:0:
156,363,236607,1,2,1:3:0:0:
40,310,236823,2,0,L|22:257,1,47.9999956741335,4|2,1:3|1:2,0:0:0:0:
6,249,237038,2,0,L|24:146,1,95.9999913482669,8|2,1:0|1:2,0:0:0:0:
3,31,237470,85,6,1:2:0:0:
134,26,237686,2,0,L|141:-8,2,23.9999978370667,8|4|8,3:0|3:0|1:0,0:0:0:0:
133,46,237902,1,0,1:0:0:0:
208,152,238118,2,0,P|270:149|292:106,1,95.9999913482669,4|2,1:3|1:2,0:0:0:0:
298,104,238441,1,8,3:1:0:0:
405,24,238657,1,4,1:3:0:0:
427,17,238765,2,0,L|442:72,1,47.9999956741335,0|8,1:0|1:0,0:0:0:0:
482,83,238981,2,0,L|472:135,1,47.9999956741335,4|8,1:3|1:0,0:0:0:0:
440,152,239197,86,0,P|396:188|411:256,1,119.999997425079,6|0,0:2|0:0,0:0:0:0:
382,319,239844,2,0,P|350:355|282:343,1,119.999997425079,6|0,0:2|0:0,0:0:0:0:
207,323,240492,2,0,L|169:185,1,119.999997425079,6|0,0:0|0:0,0:0:0:0:
240,163,241139,6,0,L|265:42,1,119.999997425079,6|0,0:0|0:0,0:0:0:0:
193,10,241787,2,0,P|141:10|118:70,1,119.999997425079,6|0,0:0|0:0,0:0:0:0:
52,116,242434,2,0,P|86:146|70:219,1,119.999997425079,6|0,0:0|0:0,0:0:0:0:
116,281,243082,102,0,B|174:275|197:296|189:337|215:366|289:346,1,179.999996137619,6|0,0:0|0:0,0:0:0:0:
344,366,243945,2,0,B|376:380|410:352|426:315|420:270|354:232|350:251|339:274|270:295|243:255|211:151|258:70|344:72|415:101|435:152|419:198,1,503.999954578401
351,187,246103,5,0,0:0:0:0:
256,192,246319,12,0,251499,0:0:0:0:
