osu file format v14

[General]
AudioFilename: audio.mp3
AudioLeadIn: 0
PreviewTime: -1
Countdown: 1
SampleSet: Soft
StackLeniency: 0.7
Mode: 0
LetterboxInBreaks: 0
WidescreenStoryboard: 0

[Editor]
DistanceSpacing: 2.7
BeatDivisor: 4
GridSize: 32
TimelineZoom: 1

[Metadata]
Title:Fav f
TitleUnicode:Fav f
Artist:F
ArtistUnicode:F
Creator:gladiore
Version:
Source:
Tags:
BeatmapID:1943755
BeatmapSetID:930827

[Difficulty]
HPDrainRate:7
CircleSize:3.8
OverallDifficulty:8
ApproachRate:9.3
SliderMultiplier:2
SliderTickRate:1

[Events]
//Background and Video events
//Break Periods
//Storyboard Layer 0 (Background)
//Storyboard Layer 1 (Fail)
//Storyboard Layer 2 (Pass)
//Storyboard Layer 3 (Foreground)
//Storyboard Sound Samples

[TimingPoints]
965,315.789473684211,4,2,0,40,1,0
965,-133.333333333333,4,2,0,40,0,0
6017,-133.333333333333,4,2,1,50,0,0
11070,-133.333333333333,4,2,1,80,0,0
21175,-133.333333333333,4,2,1,50,0,0
43912,-133.333333333333,4,2,0,40,0,0
51491,-133.333333333333,4,2,1,50,0,0
54017,-133.333333333333,4,2,1,80,0,1
67754,-133.333333333333,4,2,1,60,0,1
67912,-133.333333333333,4,2,1,30,0,1
68859,-133.333333333333,4,2,1,70,0,1
69175,-133.333333333333,4,2,1,80,0,1
74228,-133.333333333333,4,2,1,60,0,0
104070,-133.333333333333,4,2,1,40,0,0
104543,-133.333333333333,4,2,1,80,0,1
118438,-133.333333333333,4,2,1,30,0,1
119386,-133.333333333333,4,2,1,70,0,1
122228,-133.333333333333,4,2,1,80,0,1
124754,-133.333333333333,4,2,0,40,0,0
132333,-133.333333333333,4,2,1,60,0,0
156333,-133.333333333333,4,2,0,40,0,0
174017,-133.333333333333,4,2,1,50,0,0
176859,-133.333333333333,4,2,1,40,0,0
177807,-133.333333333333,4,2,1,80,0,1
191543,-133.333333333333,4,2,1,60,0,1
191701,-133.333333333333,4,2,1,30,0,1
192649,-133.333333333333,4,2,1,70,0,1
192965,-133.333333333333,4,2,1,80,0,1
196754,-133.333333333333,4,2,1,80,0,0
208122,-133.333333333333,4,2,1,80,0,1
216807,-133.333333333333,4,2,1,80,0,0
223280,-133.333333333333,4,2,1,20,0,0

[HitObjects]
96,167,965,6,0,L|157:223,1,75.0000028610231
290,245,1280,1,0,0:0:0:0:
198,74,1438,1,0,0:0:0:0:
375,66,1596,2,0,L|311:113,1,75.0000028610231
233,216,1912,1,0,0:0:0:0:
280,57,2070,1,0,0:0:0:0:
89,123,2228,2,0,L|171:129,1,75.0000028610231
145,311,2543,1,0,0:0:0:0:
261,183,2701,1,0,0:0:0:0:
463,249,2859,6,0,P|439:153|326:88,1,225.000008583069
130,251,3491,2,0,P|135:178|254:92,1,225.000008583069
250,319,4122,2,0,L|167:327,1,75.0000028610231
116,238,4438,1,0,0:0:0:0:
257,221,4596,1,0,0:0:0:0:
151,103,4754,2,0,L|205:163,1,75.0000028610231
352,86,5070,2,0,L|317:161,1,75.0000028610231
361,316,5386,1,0,0:0:0:0:
205,92,5543,1,0,0:0:0:0:
469,210,5701,1,0,0:0:0:0:
165,276,5859,1,0,0:0:0:0:
337,77,6017,2,0,L|417:97,1,75.0000028610231
259,88,6333,5,0,0:0:0:0:
430,197,6491,1,0,0:0:0:0:
148,113,6649,2,0,L|70:131,1,75.0000028610231
84,266,6965,2,0,L|180:234,1,75.0000028610231
347,108,7280,2,0,L|333:181,1,75.0000028610231
144,325,7596,2,0,L|222:305,1,75.0000028610231
348,239,7912,1,0,0:0:0:0:
78,281,8070,1,0,0:0:0:0:
308,89,8228,2,0,L|234:132,1,75.0000028610231
64,158,8543,2,0,P|141:178|202:255,1,150.000005722046
316,321,9017,6,0,P|402:182|306:131,1,300.000011444092
421,92,9807,1,0,0:0:0:0:
391,69,9885,1,0,0:0:0:0:
356,54,9964,1,0,0:0:0:0:
319,48,10043,1,0,0:0:0:0:
282,52,10122,1,0,0:0:0:0:
247,64,10201,1,0,0:0:0:0:
215,84,10280,1,0,0:0:0:0:
190,111,10359,1,0,0:0:0:0:
163,141,10438,2,0,P|97:212|56:354,1,225.000008583069
37,22,11070,6,0,L|99:85,1,75.0000028610231
259,176,11386,1,0,0:0:0:0:
464,47,11543,2,0,L|406:98,1,75.0000028610231
207,173,11859,1,0,0:0:0:0:
438,304,12017,2,0,L|369:261,1,75.0000028610231
269,182,12333,1,0,0:0:0:0:
58,330,12491,2,0,L|125:282,1,75.0000028610231
479,300,12807,1,0,0:0:0:0:
297,378,12965,1,0,0:0:0:0:
402,117,13122,1,0,0:0:0:0:
219,195,13280,1,0,0:0:0:0:
376,296,13438,5,0,0:0:0:0:
257,184,13596,2,0,L|333:243,1,75.0000028610231
71,45,13912,1,0,0:0:0:0:
207,173,14070,2,0,L|147:264,1,75.0000028610231
441,59,14386,1,0,0:0:0:0:
269,182,14543,2,0,L|211:106,1,75.0000028610231
457,338,14859,1,0,0:0:0:0:
255,197,15017,2,0,L|326:114,1,75.0000028610231
77,335,15333,1,0,0:0:0:0:
161,134,15491,1,0,0:0:0:0:
266,273,15649,1,0,0:0:0:0:
27,228,15807,1,0,0:0:0:0:
217,340,15965,1,0,0:0:0:0:
305,96,16122,6,0,L|393:96,1,75.0000028610231
159,265,16438,1,0,0:0:0:0:
158,96,16596,2,0,L|83:100,1,75.0000028610231
370,245,16912,1,0,0:0:0:0:
159,265,17070,2,0,L|52:267,1,75.0000028610231
253,170,17386,1,0,0:0:0:0:
345,272,17543,2,0,L|444:276,1,75.0000028610231
378,119,17859,1,0,0:0:0:0:
285,298,18017,1,0,0:0:0:0:
191,140,18175,1,0,0:0:0:0:
159,322,18333,1,0,0:0:0:0:
47,152,18491,1,0,0:0:0:0:
201,284,18649,6,0,P|278:293|374:251,1,150.000005722046
336,70,19122,2,0,P|247:49|178:79,1,150.000005722046
432,212,19596,1,0,0:0:0:0:
204,210,19754,1,0,0:0:0:0:
424,81,19912,1,0,0:0:0:0:
328,271,20070,1,0,0:0:0:0:
227,80,20228,1,0,0:0:0:0:
140,269,20386,1,0,0:0:0:0:
140,269,20465,1,0,0:0:0:0:
140,269,20543,2,0,L|96:177,1,75.0000028610231
351,58,20859,5,0,0:0:0:0:
257,223,21017,1,0,0:0:0:0:
67,86,21175,1,0,0:0:0:0:
275,130,21333,1,0,0:0:0:0:
52,235,21491,1,0,0:0:0:0:
236,363,21649,1,0,0:0:0:0:
49,368,21807,1,0,0:0:0:0:
257,223,21965,1,0,0:0:0:0:
54,119,22122,1,0,0:0:0:0:
340,121,22280,2,0,L|425:133,1,75.0000028610231
411,308,22596,5,0,0:0:0:0:
252,143,22754,1,0,0:0:0:0:
415,297,23859,6,0,L|365:219,1,75.0000028610231
459,105,24175,1,0,0:0:0:0:
349,259,24333,1,0,0:0:0:0:
253,112,24491,1,0,0:0:0:0:
263,304,24649,1,0,0:0:0:0:
408,227,24807,1,0,0:0:0:0:
