osu file format v14

[General]
AudioFilename: Eyes of Providence - Renegade (Dub Elements Remix).mp3
AudioLeadIn: 0
PreviewTime: 35895
Countdown: 0
SampleSet: None
StackLeniency: 0.7
Mode: 0
LetterboxInBreaks: 1
WidescreenStoryboard: 1

[Editor]
Bookmarks: 22188,33223,44257,88395
DistanceSpacing: 1
BeatDivisor: 4
GridSize: 8
TimelineZoom: 1.5

[Metadata]
Title:Renegade (Dub Elements Remix)
TitleUnicode:Renegade (Dub Elements Remix)
Artist:Eyes of Providence
ArtistUnicode:Eyes of Providence
Creator:Tsusumu
Version:Easy Collab
Source:
Tags:Desperate-kun Garven pishifat UnitedWeSin
BeatmapID:2574631
BeatmapSetID:365461

[Difficulty]
HPDrainRate:2
CircleSize:2.8
OverallDifficulty:3
ApproachRate:3
SliderMultiplier:0.799999999999999
SliderTickRate:1

[Events]
//Background and Video events
0,0,"Bg.jpg",0,0
//Break Periods
//Storyboard Layer 0 (Background)
//Storyboard Layer 1 (Fail)
//Storyboard Layer 2 (Pass)
//Storyboard Layer 3 (Foreground)
//Storyboard Layer 4 (Overlay)
//Storyboard Sound Samples

[TimingPoints]
120,344.827586206897,4,1,0,40,1,0
9775,-100,4,2,0,5,0,0
11154,-100,4,1,0,45,0,0
42878,-100,4,2,0,5,0,0
44257,-100,4,1,0,40,0,1
88395,-100,4,1,0,40,0,0
91499,-100,4,2,0,5,0,0

[Colours]
Combo1 : 255,192,0
Combo2 : 231,123,58
Combo3 : 220,113,232
Combo4 : 78,200,4

[HitObjects]
256,192,5637,12,0,9775,0:0:0:0:
401,241,11154,6,0,L|474:282,2,79.9999999999999
329,204,12188,1,0,0:0:0:0:
248,200,12533,2,0,B|191:192|191:192|147:198|147:198|77:186,1,160
220,95,13913,6,0,L|317:107,1,79.9999999999999
378,114,14602,1,0,0:0:0:0:
360,192,14947,2,0,L|263:204,1,79.9999999999999
202,211,15637,1,0,0:0:0:0:
124,188,15982,2,0,L|33:168,2,79.9999999999999
130,267,17016,6,0,L|51:284,2,79.9999999999999
199,226,18051,2,0,L|278:209,1,79.9999999999999
354,188,18740,1,0,0:0:0:0:
425,223,19085,1,0,0:0:0:0:
360,270,19430,6,0,L|408:343,2,79.9999999999999
313,204,20464,1,0,0:0:0:0:
324,315,22188,6,0,B|429:284|429:284|484:282,1,160,0|12,0:0|0:0,0:0:0:0:
464,122,23568,2,0,L|382:126,1,79.9999999999999
307,101,24257,2,0,L|225:105,1,79.9999999999999,12|0,0:0|0:0,0:0:0:0:
146,105,24947,6,0,P|82:113|37:167,2,120,0|12|0,0:0|0:0|0:0,0:0:0:0:
223,84,26326,1,0,0:0:0:0:
201,162,26671,1,0,0:0:0:0:
125,194,27016,2,0,L|165:270,1,79.9999999999999,12|0,0:0|0:0,0:0:0:0:
242,272,27706,6,0,L|288:359,2,79.9999999999999,0|0|12,0:0|0:0|0:0,0:0:0:0:
178,125,29085,1,0,0:0:0:0:
118,71,29430,1,0,0:0:0:0:
193,45,29775,2,0,L|284:38,1,79.9999999999999
337,87,30464,6,0,P|358:151|348:211,2,120
228,35,32016,1,0,0:0:0:0:
238,154,32533,2,0,L|214:231,1,79.9999999999999
283,271,33223,6,0,L|259:348,2,79.9999999999999
410,173,34602,2,0,L|434:96,2,79.9999999999999
276,261,35982,6,0,L|193:222,1,79.9999999999999
244,158,36671,2,0,L|171:123,1,79.9999999999999
211,54,37361,2,0,L|283:88,1,79.9999999999999
323,18,38051,2,0,L|395:52,1,79.9999999999999
256,192,38740,12,0,42878,0:0:0:0:
52,116,44257,6,0,B|56:226|56:226|45:280,1,160,6|0,0:0|0:0,0:0:0:0:
16,349,45292,1,8,0:0:0:0:
91,375,45637,2,0,P|128:377|181:358,2,79.9999999999999,6|8|0,0:0|0:0|0:0,0:0:0:0:
144,223,47016,6,0,P|211:207|309:211,1,160,6|0,0:0|0:0,0:0:0:0:
378,240,48051,1,8,0:0:0:0:
401,320,48395,2,0,P|443:291|441:187,1,160,6|0,0:0|0:0,0:0:0:0:
300,114,49775,6,0,B|249:120|249:120|130:104,1,160,6|0,0:0|0:0,0:0:0:0:
71,65,50809,1,8,0:0:0:0:
16,123,51154,2,0,P|4:172|13:216,1,79.9999999999999,6|8,0:0|0:0,0:0:0:0:
60,260,51844,1,0,0:0:0:0:
199,181,52533,6,0,P|259:165|346:227,1,160,6|0,0:0|0:0,0:0:0:0:
328,292,53568,1,8,0:0:0:0:
365,362,53913,2,0,L|447:368,2,79.9999999999999,6|8|0,0:0|0:0|0:0,0:0:0:0:
216,300,55292,6,0,B|159:292|159:292|115:298|115:298|45:286,1,160,6|0,0:0|0:0,0:0:0:0:
11,222,56326,1,8,0:0:0:0:
38,146,56671,2,0,P|81:132|126:141,1,79.9999999999999,6|8,0:0|0:0,0:0:0:0:
179,183,57361,1,0,0:0:0:0:
319,106,58051,6,0,L|324:20,2,79.9999999999999,6|8|0,0:0|0:0|0:0,0:0:0:0:
337,184,59085,1,8,0:0:0:0:
413,159,59430,2,0,L|418:73,2,79.9999999999999,6|8|0,0:0|0:0|0:0,0:0:0:0:
290,265,60809,6,0,P|233:306|144:324,1,160,6|0,0:0|0:0,0:0:0:0:
69,299,61844,1,8,0:0:0:0:
114,233,62188,2,0,P|116:169|107:138,2,79.9999999999999,6|8|0,0:0|0:0|0:0,0:0:0:0:
30,95,63568,6,0,P|100:56|183:80,1,160,6|0,0:0|0:0,0:0:0:0:
219,140,64602,1,8,0:0:0:0:
288,180,64947,2,0,L|460:169,1,160,6|0,0:0|0:0,0:0:0:0:
317,262,66326,6,0,L|226:271,1,79.9999999999999,6|8,0:0|0:0,0:0:0:0:
169,227,67016,2,0,P|127:209|88:205,1,79.9999999999999,0|8,0:0|0:0,0:0:0:0:
21,241,67706,2,0,L|12:326,2,79.9999999999999,6|8|0,0:0|0:0|0:0,0:0:0:0:
68,88,69085,6,0,B|125:78|125:78|235:89,1,160,4|0,0:0|0:0,0:0:0:0:
291,135,70120,1,8,0:0:0:0:
360,95,70464,2,0,P|407:80|447:79,2,79.9999999999999,6|8|0,0:0|0:0|0:0,0:0:0:0:
319,250,71844,6,0,B|260:257|260:257|218:247|218:247|149:254,1,160,6|0,0:0|0:0,0:0:0:0:
82,237,72878,1,8,0:0:0:0:
34,172,73223,2,0,P|34:129|46:93,1,79.9999999999999,6|8,0:0|0:0,0:0:0:0:
101,36,73913,1,0,0:0:0:0:
246,103,74602,6,0,L|344:98,2,79.9999999999999,6|8|0,0:0|0:0|0:0,0:0:0:0:
168,125,75637,1,8,0:0:0:0:
115,185,75982,2,0,P|101:247|159:323,1,160,6|0,0:0|0:0,0:0:0:0:
314,328,77361,6,0,L|307:167,1,160,6|0,0:0|0:0,0:0:0:0:
318,89,78395,1,8,0:0:0:0:
274,22,78740,2,0,P|234:11|184:18,2,79.9999999999999,6|8|0,0:0|0:0|0:0,0:0:0:0:
258,181,80120,6,0,L|165:187,1,79.9999999999999,6|8,0:0|0:0,0:0:0:0:
105,221,80809,1,0,0:0:0:0:
64,67,81499,2,0,B|118:62|118:62|225:83,1,160,6|0,0:0|0:0,0:0:0:0:
329,200,82878,6,0,P|388:248|480:223,1,160,6|0,0:0|0:0,0:0:0:0:
500,163,83913,1,8,0:0:0:0:
475,88,84257,2,0,L|478:5,2,79.9999999999999,6|8|0,0:0|0:0|0:0,0:0:0:0:
314,86,85637,6,0,P|273:83|222:97,1,79.9999999999999,6|8,0:0|0:0,0:0:0:0:
184,154,86326,2,0,L|178:239,1,79.9999999999999,0|8,0:0|0:0,0:0:0:0:
111,279,87016,2,0,P|69:313|55:340,2,79.9999999999999,6|8|0,0:0|0:0|0:0,0:0:0:0:
182,314,88051,1,0,0:0:0:0:
256,192,88395,12,0,91499,0:0:0:0:
