osu file format v14

[General]
AudioFilename: Eyes of Providence - Renegade (Dub Elements Remix).mp3
AudioLeadIn: 0
PreviewTime: -1
Countdown: 0
SampleSet: Normal
StackLeniency: 0.7
Mode: 0
LetterboxInBreaks: 1
WidescreenStoryboard: 1

[Editor]
DistanceSpacing: 1.1
BeatDivisor: 4
GridSize: 8
TimelineZoom: 1.5

[Metadata]
Title:Renegade (Dub Elements Remix)
TitleUnicode:Renegade (Dub Elements Remix)
Artist:Eyes of Providence
ArtistUnicode:Eyes of Providence
Creator:Tsusumu
Version:Insane
Source:
Tags:Desperate-kun Garven pishifat UnitedWeSin
BeatmapID:2574633
BeatmapSetID:365461

[Difficulty]
HPDrainRate:6
CircleSize:4
OverallDifficulty:8
ApproachRate:9
SliderMultiplier:1.7
SliderTickRate:1

[Events]
//Background and Video events
0,0,"Bg.jpg",0,0
//Break Periods
//Storyboard Layer 0 (Background)
//Storyboard Layer 1 (Fail)
//Storyboard Layer 2 (Pass)
//Storyboard Layer 3 (Foreground)
//Storyboard Layer 4 (Overlay)
//Storyboard Sound Samples

[TimingPoints]
120,344.827586206897,4,1,0,100,1,0
10809,-100,4,2,0,5,0,0
11154,-100,4,1,0,45,0,0
21671,-100,4,2,0,5,0,0
21844,-100,4,1,0,45,0,0
22533,-133.333333333333,4,1,0,45,0,0
33223,-100,4,1,0,45,0,0
44257,-100,4,1,0,45,0,1
53568,-80,4,1,0,45,0,1
54085,-100,4,1,0,45,0,1
88395,-100,4,1,0,45,0,0
91499,-100,4,2,0,5,0,0

[Colours]
Combo1 : 255,192,0
Combo2 : 231,123,58
Combo3 : 220,113,232
Combo4 : 78,200,4

[HitObjects]
256,192,5637,12,0,10809,0:0:0:0:
430,312,11154,6,0,L|392:226,1,85,8|0,0:3|0:0,0:0:0:0:
446,146,11499,1,0,0:0:0:0:
446,146,11671,2,0,P|413:106|364:100,1,85
302,157,12016,1,8,0:3:0:0:
302,157,12188,2,0,P|266:179|250:218,1,85
368,321,12533,6,0,L|334:244,1,85,8|0,0:3|0:0,0:0:0:0:
302,157,12878,1,0,0:0:0:0:
302,157,13050,2,0,P|276:123|240:103,1,85
152,89,13395,1,8,0:3:0:0:
152,89,13568,2,0,P|129:124|95:149,1,85
66,239,13913,5,8,0:3:0:0:
5,178,14085,1,0,0:0:0:0:
94,149,14257,1,0,0:0:0:0:
94,149,14430,2,0,P|127:174|149:210,1,85
223,292,14775,1,8,0:3:0:0:
223,292,14947,2,0,L|260:216,1,85
358,139,15292,5,8,0:3:0:0:
404,225,15464,1,0,0:0:0:0:
453,150,15637,1,0,0:0:0:0:
453,150,15809,2,0,P|449:108|419:74,1,85
263,81,16154,1,8,0:3:0:0:
239,82,16240,1,0,0:0:0:0:
217,89,16326,1,0,0:0:0:0:
196,102,16412,1,0,0:0:0:0:
179,118,16499,1,0,0:0:0:0:
167,139,16585,1,0,0:0:0:0:
160,161,16671,5,0,0:0:0:0:
204,247,16844,1,0,0:0:0:0:
258,172,17016,1,0,0:0:0:0:
258,172,17188,2,0,P|292:195|334:197,1,85
435,131,17533,1,8,0:3:0:0:
435,131,17706,2,0,P|402:104|360:101,1,85
258,172,18051,6,0,L|223:249,1,85,8|0,0:3|0:0,0:0:0:0:
148,326,18396,1,0,0:0:0:0:
148,326,18568,2,0,P|109:345|64:348,1,85
43,245,18913,1,8,0:3:0:0:
43,245,19085,2,0,P|64:200|111:181,1,85
176,118,19430,5,8,0:3:0:0:
179,214,19602,1,0,0:0:0:0:
176,118,19775,2,0,P|199:72|244:54,1,85
339,65,20120,1,0,0:0:0:0:
358,144,20292,1,8,0:3:0:0:
293,196,20464,1,0,0:0:0:0:
256,192,20809,12,0,21671,0:0:0:0:
136,131,21844,5,0,0:0:0:0:
128,112,21930,1,0,0:0:0:0:
120,93,22016,1,0,0:0:0:0:
111,73,22102,1,0,0:0:0:0:
103,54,22188,1,0,0:0:0:0:
177,236,22533,6,0,P|228:275|295:250,1,127.500004863739,0|8,0:0|0:0,0:0:0:0:
340,189,23051,1,0,0:0:0:0:
405,128,23223,2,0,L|369:71,1,63.7500024318696
340,189,23568,6,0,L|374:242,1,63.7500024318696
479,266,23913,2,0,L|443:209,1,63.7500024318696
405,128,24257,2,0,P|372:74|314:51,1,127.500004863739,8|0,0:0|0:0,0:0:0:0:
224,51,24775,1,0,0:0:0:0:
163,211,24947,6,0,P|228:187|258:132,1,127.500004863739,8|0,0:3|0:0,0:0:0:0:
224,51,25464,1,0,0:0:0:0:
163,114,25637,2,0,L|119:67,1,63.7500024318696,8|0,0:0|0:0,0:0:0:0:
27,87,25982,2,0,L|70:133,1,63.7500024318696
120,210,26326,5,0,0:0:0:0:
146,300,26499,1,0,0:0:0:0:
323,284,26671,2,0,P|290:230|233:204,1,127.500004863739,8|8,0:3|0:0,0:0:0:0:
90,258,27188,1,0,0:0:0:0:
163,114,27361,1,0,0:0:0:0:
40,186,27533,1,0,0:0:0:0:
196,185,27706,5,8,0:3:0:0:
373,340,28051,2,0,P|414:301|395:213,1,127.500004863739,0|8,0:0|0:0,0:0:0:0:
374,147,28569,1,0,0:0:0:0:
309,66,28741,2,0,L|273:123,1,63.7500024318696
195,152,29086,6,0,L|229:205,1,63.7500024318696
185,304,29430,2,0,L|149:247,1,63.7500024318696,0|0,0:3|0:0,0:0:0:0:
114,172,29775,2,0,P|125:109|175:71,1,127.500004863739,8|0,0:0|0:0,0:0:0:0:
266,47,30293,1,0,0:0:0:0:
276,134,30464,6,0,P|265:197|215:235,1,127.500004863739,8|0,0:3|0:0,0:0:0:0:
125,252,30982,1,0,0:0:0:0:
52,168,31155,2,0,L|96:121,1,63.7500024318696,8|0,0:0|0:0,0:0:0:0:
171,164,31500,2,0,L|214:118,1,63.7500024318696
277,58,31844,5,0,0:0:0:0:
348,128,32016,2,0,P|323:187|256:204,1,127.500004863739
171,164,32533,2,0,L|133:91,1,63.7500024318696,8|0,0:0|0:0,0:0:0:0:
187,32,32878,1,0,0:0:0:0:
187,32,33051,1,0,0:0:0:0:
343,66,33223,5,0,0:0:0:0:
278,153,33395,1,0,0:0:0:0:
362,90,33568,1,0,0:0:0:0:
257,129,33740,1,0,0:0:0:0:
382,120,33913,1,0,0:0:0:0:
236,101,34085,1,0,0:0:0:0:
396,154,34258,1,0,0:0:0:0:
221,72,34430,1,0,0:0:0:0:
334,201,34602,5,0,0:0:0:0:
258,327,34775,1,0,0:0:0:0:
300,187,34947,1,0,0:0:0:0:
284,350,35120,1,0,0:0:0:0:
262,199,35292,1,0,0:0:0:0:
324,346,35464,1,0,0:0:0:0:
228,222,35637,1,0,0:0:0:0:
352,336,35809,1,0,0:0:0:0:
209,261,35982,5,0,0:0:0:0:
140,104,36326,1,0,0:0:0:0:
217,281,36671,1,0,0:0:0:0:
149,125,37015,1,0,0:0:0:0:
275,160,37361,5,0,0:0:0:0:
98,228,37705,1,0,0:0:0:0:
298,151,38051,1,0,0:0:0:0:
128,220,38395,1,0,0:0:0:0:
298,151,38740,6,0,P|334:170|365:212,1,85
225,209,39085,2,0,P|187:189|161:155,1,85
234,97,39430,2,0,P|270:116|301:158,1,85
161,156,39775,2,0,P|123:136|97:102,1,85
198,26,40120,5,0,0:0:0:0:
161,156,40292,1,0,0:0:0:0:
285,83,40464,1,0,0:0:0:0:
138,169,40637,1,0,0:0:0:0:
352,174,40809,1,0,0:0:0:0:
136,206,40982,1,0,0:0:0:0:
289,283,41154,1,0,0:0:0:0:
180,136,41326,1,0,0:0:0:0:
130,277,41499,5,0,0:0:0:0:
148,314,41585,1,0,0:0:0:0:
185,337,41671,1,0,0:0:0:0:
228,339,41757,1,0,0:0:0:0:
266,319,41844,1,0,0:0:0:0:
289,283,41930,1,0,0:0:0:0:
290,240,42016,1,0,0:0:0:0:
311,203,42102,1,0,0:0:0:0:
308,153,42188,1,0,0:0:0:0:
284,117,42275,1,0,0:0:0:0:
244,100,42361,1,0,0:0:0:0:
201,107,42447,1,0,0:0:0:0:
157,109,42533,2,0,L|90:91,1,42.5
102,73,42706,2,0,L|55:66,1,42.5
33,82,42878,5,0,0:0:0:0:
284,203,43568,2,0,L|236:209,1,42.5
390,186,43740,2,0,L|434:179,1,42.5
344,118,43913,1,0,0:0:0:0:
351,263,44085,1,0,0:0:0:0:
237,137,44257,6,0,P|208:90|170:66,1,85,8|0,0:3|0:0,0:0:0:0:
90,111,44602,1,2,0:3:0:0:
176,190,44775,2,0,P|211:216|278:208,1,85
401,145,45120,1,8,0:3:0:0:
332,248,45292,1,2,0:3:0:0:
310,120,45464,1,0,0:0:0:0:
332,248,45637,6,0,P|306:296|319:350,1,85,8|0,0:3|0:0,0:0:0:0:
401,145,45982,2,0,P|426:96|414:43,1,85,2|0,0:3|0:0,0:0:0:0:
302,79,46326,1,0,0:0:0:0:
401,145,46499,1,8,0:3:0:0:
332,248,46671,2,0,P|290:242|257:216,1,85,2|0,0:3|0:0,0:0:0:0:
60,141,47016,6,0,P|54:223|109:285,1,170,2|0,0:0|0:0,0:0:0:0:
202,63,47533,2,0,P|146:129|153:209,1,170,2|0,0:0|0:0,0:0:0:0:
282,110,48051,2,0,P|236:221|324:303,1,255,2|0,0:0|0:0,0:0:0:0:
434,192,48740,6,0,L|372:105,1,85,2|0,0:0|0:0,0:0:0:0:
232,40,49085,2,0,L|294:127,1,85,2|0,0:0|0:0,0:0:0:0:
252,257,49430,2,0,L|190:170,1,85,2|0,0:0|0:0,0:0:0:0:
97,76,49775,6,0,P|60:97|36:131,1,85,8|0,0:3|0:0,0:0:0:0:
120,198,50120,1,2,0:3:0:0:
115,314,50293,2,0,P|81:339|40:348,1,85
225,251,50637,1,8,0:3:0:0:
135,178,50809,1,2,3:0:0:0:
119,280,50982,1,0,0:0:0:0:
225,251,51155,6,0,P|279:243|315:201,1,85,8|0,0:3|0:0,0:0:0:0:
386,289,51500,2,0,P|411:240|399:187,1,85,2|0,0:3|0:0,0:0:0:0:
288,137,51844,1,0,0:0:0:0:
403,196,52016,1,8,0:3:0:0:
286,161,52189,2,0,L|190:132,1,85,2|0,0:3|0:0,0:0:0:0:
60,220,52533,6,0,P|121:299|185:263,1,170,2|0,0:0|0:0,0:0:0:0:
221,117,53051,2,0,P|146:147|134:245,1,170,2|0,0:0|0:0,0:0:0:0:
263,365,53568,2,0,B|297:341|281:295|281:295|313:279|313:279|281:263|281:263|314:251|314:251|293:189|245:185|191:199,1,318.75,2|0,0:0|0:0,0:0:0:0:
123,315,54257,6,0,P|170:289|210:288,1,85,2|0,0:0|0:0,0:0:0:0:
395,236,54602,1,4,0:3:0:0:
392,214,54688,1,4,0:3:0:0:
388,191,54775,1,4,0:3:0:0:
385,168,54861,1,4,0:3:0:0:
380,145,54947,2,0,L|302:30,1,127.5,2|0,0:3|0:0,0:0:0:0:
279,45,55292,6,0,P|239:31|198:41,1,85,8|0,0:3|0:0,0:0:0:0:
87,140,55637,2,0,L|63:227,1,85,2|0,0:3|0:0,0:0:0:0:
119,324,55982,1,0,0:0:0:0:
28,327,56154,1,8,0:3:0:0:
149,237,56326,1,2,0:3:0:0:
64,221,56499,1,0,0:0:0:0:
133,141,56671,6,0,P|156:106|194:88,1,85,8|0,0:3|0:0,0:0:0:0:
295,50,57016,1,2,0:3:0:0:
221,202,57188,1,0,0:0:0:0:
384,86,57361,2,0,P|392:45|380:5,1,85,0|8,0:0|0:3,0:0:0:0:
311,198,57706,2,0,P|302:239|315:279,1,85,2|0,0:3|0:0,0:0:0:0:
221,109,58051,6,0,P|179:118|146:143,1,85,8|0,0:3|0:0,0:0:0:0:
58,225,58395,1,2,0:3:0:0:
236,233,58568,2,0,P|277:223|310:198,1,85
388,121,58914,1,8,0:3:0:0:
388,257,59085,1,2,0:3:0:0:
281,121,59258,1,0,0:0:0:0:
309,285,59430,6,0,P|335:319|373:338,1,85,8|0,0:3|0:0,0:0:0:0:
185,263,59775,2,0,P|159:229|122:211,1,85,2|0,0:3|0:0,0:0:0:0:
244,356,60120,1,0,0:0:0:0:
244,159,60292,1,8,0:3:0:0:
244,137,60378,1,0,0:0:0:0:
244,112,60464,1,2,0:3:0:0:
378,23,60637,1,0,0:0:0:0:
215,35,60809,6,0,P|180:60|161:115,1,85,8|0,0:3|0:0,0:0:0:0:
275,248,61154,2,0,P|310:223|329:168,1,85,2|0,0:3|0:0,0:0:0:0:
360,81,61499,1,0,0:0:0:0:
244,112,61671,1,8,0:3:0:0:
275,248,61844,2,0,P|307:279|378:282,1,85,2|0,0:3|0:0,0:0:0:0:
244,112,62188,6,0,P|210:86|169:78,1,85,8|0,0:3|0:0,0:0:0:0:
64,114,62533,1,2,0:3:0:0:
58,232,62705,2,0,P|99:222|132:197,1,85
244,112,63051,1,8,0:3:0:0:
132,196,63223,1,2,0:3:0:0:
247,225,63395,1,0,0:0:0:0:
244,112,63568,6,0,P|286:108|360:123,1,85,4|0,0:3|0:0,0:0:0:0:
303,30,63913,2,0,P|345:26|419:41,1,85,4|0,0:3|0:0,0:0:0:0:
394,205,64257,2,0,P|351:210|309:206,1,85,4|0,0:3|0:0,0:0:0:0:
165,259,64602,1,4,0:3:0:0:
217,181,64775,1,2,0:3:0:0:
89,322,64947,6,0,P|70:277|75:238,1,85,4|0,0:3|0:0,0:0:0:0:
120,84,65292,1,2,0:3:0:0:
45,159,65464,1,2,0:3:0:0:
181,195,65637,1,0,0:0:0:0:
217,213,65723,1,0,0:0:0:0:
257,216,65809,1,0,0:0:0:0:
295,203,65895,1,0,0:0:0:0:
334,218,65982,1,0,0:0:0:0:
384,118,66154,1,0,0:0:0:0:
465,208,66326,5,8,0:3:0:0:
334,218,66499,1,0,0:0:0:0:
465,208,66671,2,0,P|444:247|411:270,1,85,2|0,0:3|0:0,0:0:0:0:
384,118,67016,2,0,P|403:81|437:56,1,85,0|8,0:0|0:3,0:0:0:0:
334,218,67361,1,2,0:3:0:0:
272,119,67533,1,0,0:0:0:0:
234,209,67706,6,0,P|195:236|152:242,1,85,8|0,0:3|0:0,0:0:0:0:
75,239,68051,1,2,0:3:0:0:
158,242,68223,1,0,0:0:0:0:
133,328,68395,1,0,0:0:0:0:
28,327,68567,1,8,0:3:0:0:
75,239,68740,2,0,P|73:196|88:158,1,85,2|0,0:3|0:0,0:0:0:0:
305,79,69085,6,0,P|271:154|194:184,1,170,2|0,0:0|0:0,0:0:0:0:
215,91,69602,2,0,P|134:122|107:198,1,170,2|0,0:0|0:0,0:0:0:0:
174,350,70120,2,0,B|269:298|257:192|257:192|193:183,1,255,2|0,0:0|0:0,0:0:0:0:
313,109,70809,6,0,P|342:136|362:178,1,85,2|0,0:0|0:0,0:0:0:0:
397,67,71154,2,0,P|428:96|446:135,1,85,2|0,0:0|0:0,0:0:0:0:
316,260,71499,2,0,P|287:233|267:191,1,85,2|0,0:0|0:0,0:0:0:0:
188,76,71844,6,0,P|178:116|149:146,1,85,8|0,0:3|0:0,0:0:0:0:
19,192,72188,2,0,P|28:151|57:121,1,85,2|0,0:3|0:0,0:0:0:0:
188,76,72533,1,0,0:0:0:0:
101,34,72706,1,8,0:3:0:0:
148,146,72878,2,0,P|177:171|192:218,1,85,2|0,0:3|0:0,0:0:0:0:
95,294,73223,5,8,0:3:0:0:
199,337,73395,1,0,0:0:0:0:
297,263,73568,2,0,P|301:220|261:161,1,85,2|0,0:3|0:0,0:0:0:0:
285,98,73913,1,0,0:0:0:0:
385,154,74085,1,8,0:3:0:0:
303,290,74257,2,0,P|307:247|267:188,1,85,2|0,0:3|0:0,0:0:0:0:
124,246,74602,6,0,L|290:209,1,170,2|0,0:0|0:0,0:0:0:0:
195,142,75120,2,0,L|25:182,1,170,2|0,0:0|0:0,0:0:0:0:
130,74,75637,2,0,P|247:62|280:175,1,255,2|0,0:0|0:0,0:0:0:0:
195,142,76326,6,0,P|162:168|121:178,1,85,2|0,0:0|0:0,0:0:0:0:
285,34,76671,1,0,0:0:0:0:
302,129,76844,1,0,0:0:0:0:
317,148,76930,1,0,0:0:0:0:
304,169,77016,1,0,0:0:0:0:
319,189,77102,1,0,0:0:0:0:
311,209,77188,1,0,0:0:0:0:
331,229,77275,1,0,0:0:0:0:
319,252,77361,5,8,0:3:0:0:
220,336,77533,1,0,0:0:0:0:
318,290,77706,1,2,0:3:0:0:
304,169,77879,2,0,P|321:121|338:91,1,85
459,53,78224,1,8,0:3:0:0:
337,91,78396,1,2,0:3:0:0:
414,196,78568,1,0,0:0:0:0:
276,247,78741,6,0,P|234:255|195:242,1,85,8|0,0:3|0:0,0:0:0:0:
256,85,79085,2,0,P|297:76|336:89,1,85,8|0,0:3|0:0,0:0:0:0:
414,196,79430,1,0,0:0:0:0:
276,247,79602,1,8,0:3:0:0:
175,170,79775,2,0,L|134:96,1,85,2|0,0:3|0:0,0:0:0:0:
106,15,80120,5,8,0:3:0:0:
32,155,80292,1,0,0:0:0:0:
172,113,80464,1,2,0:3:0:0:
32,184,80636,1,0,0:0:0:0:
210,208,80809,2,0,P|251:227|314:224,1,85,0|8,0:0|0:3,0:0:0:0:
410,157,81154,2,0,P|369:138|305:140,1,85,2|0,0:3|0:0,0:0:0:0:
180,132,81499,5,8,0:3:0:0:
290,229,81671,1,0,0:0:0:0:
102,261,81844,2,0,P|160:262|216:234,1,85,2|0,0:3|0:0,0:0:0:0:
290,229,82188,1,0,0:0:0:0:
180,132,82361,1,0,0:0:0:0:
165,112,82447,1,0,0:0:0:0:
147,91,82533,1,0,0:0:0:0:
123,78,82620,1,0,0:0:0:0:
102,67,82706,1,0,0:0:0:0:
70,57,82792,1,0,0:0:0:0:
43,56,82878,5,8,0:3:0:0:
84,174,83051,1,0,0:0:0:0:
228,70,83223,2,0,P|248:99|257:149,1,85,2|0,0:3|0:0,0:0:0:0:
182,258,83568,1,0,0:0:0:0:
301,225,83740,1,8,0:3:0:0:
352,118,83913,2,0,P|341:71|318:40,1,85,2|0,0:3|0:0,0:0:0:0:
204,47,84257,5,8,0:3:0:0:
119,148,84430,1,0,0:0:0:0:
243,175,84602,2,0,P|281:218|289:264,1,85,2|0,0:3|0:0,0:0:0:0:
225,349,84947,1,0,0:0:0:0:
101,227,85120,2,0,P|99:186|135:134,1,85,8|2,0:3|0:3,0:0:0:0:
215,58,85464,1,0,0:0:0:0:
243,175,85637,5,4,0:3:0:0:
112,326,85809,1,0,0:3:0:0:
316,260,85982,5,4,0:3:0:0:
94,153,86154,1,0,0:3:0:0:
213,346,86326,5,4,0:3:0:0:
154,82,86499,1,0,0:3:0:0:
46,274,86671,5,4,0:3:0:0:
277,127,86844,1,0,0:0:0:0:
173,267,87016,5,4,0:3:0:0:
393,181,87188,5,0,0:3:0:0:
430,162,87274,1,0,0:3:0:0:
453,133,87361,1,0,0:3:0:0:
324,237,87533,5,0,0:3:0:0:
287,256,87619,1,0,0:3:0:0:
264,285,87706,1,0,0:3:0:0:
277,127,87878,5,0,0:3:0:0:
253,97,87965,1,0,0:3:0:0:
217,78,88051,2,0,B|167:85|167:85|126:138,1,85
108,218,88395,5,4,0:0:0:0:
256,192,88740,12,0,91499,0:0:0:0:
