osu file format v14

[General]
AudioFilename: audio.mp3
AudioLeadIn: 0
PreviewTime: 66316
Countdown: 0
SampleSet: Soft
StackLeniency: 0.7
Mode: 3
LetterboxInBreaks: 0
SpecialStyle: 0
WidescreenStoryboard: 1

[Editor]
DistanceSpacing: 0.8
BeatDivisor: 4
GridSize: 16
TimelineZoom: 1

[Metadata]
Title:Violet
TitleUnicode:Violet
Artist:Eyemedia
ArtistUnicode:Eyemedia
Creator:2583695
Version:Easy
Source:cytus
Tags:
BeatmapID:1884029
BeatmapSetID:902386

[Difficulty]
HPDrainRate:7
CircleSize:4
OverallDifficulty:5
ApproachRate:5
SliderMultiplier:1.4
SliderTickRate:1

[Events]
//Background and Video events
0,0,"0-9.png",0,0
//Break Periods
//Storyboard Layer 0 (Background)
//Storyboard Layer 1 (Fail)
//Storyboard Layer 2 (Pass)
//Storyboard Layer 3 (Foreground)
//Storyboard Sound Samples

[TimingPoints]
0,394.736842105263,4,2,0,100,1,0

[HitObjects]
64,192,1578,128,0,3157:0:0:0:0:
448,192,3157,1,0,0:0:0:0:
320,192,3157,1,0,0:0:0:0:
64,192,3355,1,0,0:0:0:0:
64,192,3749,1,0,0:0:0:0:
64,192,4144,1,0,0:0:0:0:
64,192,4539,1,0,0:0:0:0:
448,192,4934,1,0,0:0:0:0:
448,192,5328,1,0,0:0:0:0:
448,192,5723,1,0,0:0:0:0:
448,192,6118,1,0,0:0:0:0:
64,192,6315,1,0,0:0:0:0:
320,192,6315,1,0,0:0:0:0:
192,192,6513,1,0,0:0:0:0:
192,192,6907,1,0,0:0:0:0:
192,192,7302,1,0,0:0:0:0:
192,192,7697,1,0,0:0:0:0:
320,192,8092,1,0,0:0:0:0:
320,192,8486,1,0,0:0:0:0:
320,192,8881,1,0,0:0:0:0:
192,192,8881,1,0,0:0:0:0:
64,192,9276,1,0,0:0:0:0:
192,192,9276,1,0,0:0:0:0:
320,192,9473,1,0,0:0:0:0:
448,192,9473,1,0,0:0:0:0:
64,192,9671,128,0,9769:0:0:0:0:
64,192,10065,128,0,10164:0:0:0:0:
64,192,10460,128,0,10559:0:0:0:0:
64,192,10855,128,0,10953:0:0:0:0:
448,192,11249,128,0,11348:0:0:0:0:
448,192,11644,128,0,11743:0:0:0:0:
448,192,12039,128,0,12138:0:0:0:0:
448,192,12434,128,0,12532:0:0:0:0:
64,192,12631,1,0,0:0:0:0:
192,192,12631,1,0,0:0:0:0:
320,192,12828,128,0,12927:0:0:0:0:
320,192,13223,128,0,13322:0:0:0:0:
320,192,13618,128,0,13717:0:0:0:0:
320,192,14013,128,0,14111:0:0:0:0:
64,192,14210,1,0,0:0:0:0:
448,192,14407,1,0,0:0:0:0:
64,192,14605,1,0,0:0:0:0:
448,192,14802,1,0,0:0:0:0:
192,192,14999,128,0,15789:0:0:0:0:
320,192,15789,1,0,0:0:0:0:
448,192,15789,1,0,0:0:0:0:
448,192,16085,1,0,0:0:0:0:
448,192,16381,1,0,0:0:0:0:
64,192,16578,1,0,0:0:0:0:
192,192,16874,1,0,0:0:0:0:
320,192,17171,1,0,0:0:0:0:
64,192,17368,1,0,0:0:0:0:
64,192,17664,1,0,0:0:0:0:
320,192,17960,1,0,0:0:0:0:
192,192,18157,1,0,0:0:0:0:
448,192,18355,128,0,18749:0:0:0:0:
320,192,18749,1,0,0:0:0:0:
64,192,18947,1,0,0:0:0:0:
64,192,19243,1,0,0:0:0:0:
64,192,19539,1,0,0:0:0:0:
448,192,19736,1,0,0:0:0:0:
320,192,20032,1,0,0:0:0:0:
192,192,20328,1,0,0:0:0:0:
64,192,20526,128,0,20822:0:0:0:0:
448,192,20822,128,0,21118:0:0:0:0:
192,192,21118,1,0,0:0:0:0:
320,192,21315,128,0,21611:0:0:0:0:
192,192,21611,128,0,21907:0:0:0:0:
320,192,21907,1,0,0:0:0:0:
64,192,22105,1,0,0:0:0:0:
64,192,22401,1,0,0:0:0:0:
64,192,22697,1,0,0:0:0:0:
448,192,22894,1,0,0:0:0:0:
320,192,23190,1,0,0:0:0:0:
192,192,23486,1,0,0:0:0:0:
448,192,23684,1,0,0:0:0:0:
448,192,23980,1,0,0:0:0:0:
448,192,24276,1,0,0:0:0:0:
64,192,24473,1,0,0:0:0:0:
192,192,24671,128,0,25065:0:0:0:0:
320,192,25065,1,0,0:0:0:0:
64,192,25263,1,0,0:0:0:0:
448,192,25559,1,0,0:0:0:0:
64,192,25855,1,0,0:0:0:0:
320,192,26052,1,0,0:0:0:0:
192,192,26348,1,0,0:0:0:0:
320,192,26644,1,0,0:0:0:0:
64,192,26842,128,0,27631:0:0:0:0:
192,192,27138,128,0,27631:0:0:0:0:
320,192,27434,128,0,27631:0:0:0:0:
448,192,27631,128,0,28421:0:0:0:0:
64,192,28421,1,0,0:0:0:0:
192,192,28421,1,0,0:0:0:0:
64,192,28618,1,0,0:0:0:0:
192,192,28815,1,0,0:0:0:0:
320,192,29013,1,0,0:0:0:0:
448,192,29210,128,0,29999:0:0:0:0:
64,192,29407,1,0,0:0:0:0:
192,192,29605,1,0,0:0:0:0:
320,192,29802,1,0,0:0:0:0:
448,192,30197,1,0,0:0:0:0:
320,192,30394,1,0,0:0:0:0:
192,192,30592,1,0,0:0:0:0:
64,192,30789,128,0,31578:0:0:0:0:
448,192,30986,1,0,0:0:0:0:
192,192,31085,1,0,0:0:0:0:
320,192,31184,1,0,0:0:0:0:
192,192,31381,1,0,0:0:0:0:
64,192,31776,1,0,0:0:0:0:
192,192,31973,1,0,0:0:0:0:
64,192,32171,1,0,0:0:0:0:
448,192,32368,128,0,33157:0:0:0:0:
320,192,32565,1,0,0:0:0:0:
192,192,32763,1,0,0:0:0:0:
64,192,32960,1,0,0:0:0:0:
64,192,33157,128,0,33947:0:0:0:0:
320,192,33355,1,0,0:0:0:0:
192,192,33552,1,0,0:0:0:0:
320,192,33749,1,0,0:0:0:0:
448,192,33947,128,0,34736:0:0:0:0:
192,192,34144,1,0,0:0:0:0:
64,192,34243,1,0,0:0:0:0:
320,192,34342,1,0,0:0:0:0:
192,192,34539,1,0,0:0:0:0:
64,192,34934,1,0,0:0:0:0:
192,192,35131,1,0,0:0:0:0:
320,192,35328,1,0,0:0:0:0:
448,192,35526,128,0,36315:0:0:0:0:
64,192,35723,1,0,0:0:0:0:
192,192,35921,1,0,0:0:0:0:
320,192,36118,1,0,0:0:0:0:
448,192,36513,1,0,0:0:0:0:
320,192,36710,1,0,0:0:0:0:
192,192,36907,1,0,0:0:0:0:
64,192,37105,128,0,37894:0:0:0:0:
448,192,37302,1,0,0:0:0:0:
192,192,37401,1,0,0:0:0:0:
320,192,37499,1,0,0:0:0:0:
192,192,37697,1,0,0:0:0:0:
192,192,38092,1,0,0:0:0:0:
320,192,38289,1,0,0:0:0:0:
192,192,38486,1,0,0:0:0:0:
448,192,38684,128,0,39473:0:0:0:0:
320,192,38881,1,0,0:0:0:0:
192,192,39078,1,0,0:0:0:0:
320,192,39276,1,0,0:0:0:0:
64,192,39473,128,0,41052:0:0:0:0:
192,192,39671,1,0,0:0:0:0:
320,192,39868,1,0,0:0:0:0:
192,192,40065,1,0,0:0:0:0:
448,192,40263,128,0,41052:0:0:0:0:
192,192,41052,1,0,0:0:0:0:
192,192,41249,1,0,0:0:0:0:
192,192,41447,1,0,0:0:0:0:
192,192,41644,1,0,0:0:0:0:
64,192,41842,128,0,42631:0:0:0:0:
448,192,42039,1,0,0:0:0:0:
320,192,42236,1,0,0:0:0:0:
448,192,42434,1,0,0:0:0:0:
320,192,42631,1,0,0:0:0:0:
320,192,42828,1,0,0:0:0:0:
320,192,43026,1,0,0:0:0:0:
320,192,43223,1,0,0:0:0:0:
448,192,43421,128,0,44210:0:0:0:0:
64,192,43618,1,0,0:0:0:0:
192,192,43815,1,0,0:0:0:0:
64,192,44013,1,0,0:0:0:0:
320,192,44210,1,0,0:0:0:0:
192,192,44407,1,0,0:0:0:0:
320,192,44605,1,0,0:0:0:0:
192,192,44802,1,0,0:0:0:0:
64,192,44999,128,0,45789:0:0:0:0:
448,192,45197,1,0,0:0:0:0:
320,192,45394,1,0,0:0:0:0:
448,192,45592,1,0,0:0:0:0:
448,192,45789,128,0,46578:0:0:0:0:
64,192,45986,1,0,0:0:0:0:
320,192,46085,1,0,0:0:0:0:
192,192,46184,1,0,0:0:0:0:
320,192,46381,1,0,0:0:0:0:
64,192,46578,128,0,47368:0:0:0:0:
448,192,46776,1,0,0:0:0:0:
192,192,46874,1,0,0:0:0:0:
320,192,46973,1,0,0:0:0:0:
192,192,47171,1,0,0:0:0:0:
320,192,47368,1,0,0:0:0:0:
320,192,47565,1,0,0:0:0:0:
320,192,47763,1,0,0:0:0:0:
320,192,47960,1,0,0:0:0:0:
64,192,48157,128,0,48947:0:0:0:0:
448,192,48355,1,0,0:0:0:0:
320,192,48552,1,0,0:0:0:0:
448,192,48749,1,0,0:0:0:0:
192,192,48947,1,0,0:0:0:0:
192,192,49144,1,0,0:0:0:0:
192,192,49342,1,0,0:0:0:0:
192,192,49539,1,0,0:0:0:0:
448,192,49736,128,0,50526:0:0:0:0:
64,192,49934,1,0,0:0:0:0:
192,192,50131,1,0,0:0:0:0:
64,192,50328,1,0,0:0:0:0:
192,192,50526,1,0,0:0:0:0:
320,192,50723,1,0,0:0:0:0:
192,192,50921,1,0,0:0:0:0:
320,192,51118,1,0,0:0:0:0:
64,192,51315,128,0,52105:0:0:0:0:
448,192,51513,1,0,0:0:0:0:
320,192,51710,1,0,0:0:0:0:
448,192,51907,1,0,0:0:0:0:
192,192,52105,1,0,0:0:0:0:
320,192,52203,1,0,0:0:0:0:
448,192,52302,1,0,0:0:0:0:
192,192,52499,1,0,0:0:0:0:
320,192,52598,1,0,0:0:0:0:
448,192,52697,1,0,0:0:0:0:
320,192,52894,1,0,0:0:0:0:
192,192,52993,1,0,0:0:0:0:
64,192,53092,1,0,0:0:0:0:
320,192,53289,1,0,0:0:0:0:
192,192,53388,1,0,0:0:0:0:
64,192,53486,1,0,0:0:0:0:
320,192,53684,1,0,0:0:0:0:
448,192,53684,1,0,0:0:0:0:
64,192,53881,128,0,53980:0:0:0:0:
64,192,54276,128,0,54374:0:0:0:0:
64,192,54671,128,0,54769:0:0:0:0:
64,192,55065,128,0,55164:0:0:0:0:
64,192,55460,128,0,55559:0:0:0:0:
64,192,55855,128,0,55953:0:0:0:0:
320,192,56249,128,0,56348:0:0:0:0:
192,192,56644,128,0,56743:0:0:0:0:
448,192,57039,128,0,57138:0:0:0:0:
448,192,57434,128,0,57532:0:0:0:0:
448,192,57828,128,0,57927:0:0:0:0:
192,192,58223,128,0,58322:0:0:0:0:
320,192,58618,128,0,58717:0:0:0:0:
320,192,59013,128,0,59111:0:0:0:0:
320,192,59407,128,0,59506:0:0:0:0:
64,192,59605,128,0,59703:0:0:0:0:
448,192,59802,128,0,59901:0:0:0:0:
64,192,59999,1,0,0:0:0:0:
192,192,59999,1,0,0:0:0:0:
448,192,60197,128,0,60296:0:0:0:0:
448,192,60592,128,0,60690:0:0:0:0:
448,192,60986,128,0,61085:0:0:0:0:
448,192,61381,128,0,61480:0:0:0:0:
448,192,61776,128,0,61874:0:0:0:0:
448,192,62171,128,0,62269:0:0:0:0:
192,192,62565,128,0,62664:0:0:0:0:
320,192,62960,128,0,63059:0:0:0:0:
64,192,63355,128,0,63453:0:0:0:0:
64,192,63749,128,0,63848:0:0:0:0:
64,192,64144,128,0,64243:0:0:0:0:
320,192,64539,128,0,64638:0:0:0:0:
448,192,64934,1,0,0:0:0:0:
320,192,65131,1,0,0:0:0:0:
192,192,65328,1,0,0:0:0:0:
64,192,65526,128,0,66118:0:0:0:0:
192,192,65723,128,0,66118:0:0:0:0:
320,192,65921,128,0,66118:0:0:0:0:
448,192,66118,1,0,0:0:0:0:
64,192,66315,128,0,66611:0:0:0:0:
192,192,66611,128,0,66907:0:0:0:0:
320,192,66907,128,0,67894:0:0:0:0:
192,192,67894,128,0,68190:0:0:0:0:
320,192,68190,128,0,68486:0:0:0:0:
448,192,68486,128,0,68881:0:0:0:0:
320,192,68881,128,0,69473:0:0:0:0:
192,192,69473,128,0,69769:0:0:0:0:
448,192,69769,128,0,70065:0:0:0:0:
64,192,70065,128,0,71052:0:0:0:0:
192,192,71052,128,0,71348:0:0:0:0:
448,192,71348,128,0,71644:0:0:0:0:
320,192,71644,128,0,72631:0:0:0:0:
64,192,72631,128,0,72927:0:0:0:0:
192,192,72927,128,0,73223:0:0:0:0:
320,192,73223,128,0,74210:0:0:0:0:
192,192,74210,128,0,74506:0:0:0:0:
320,192,74506,128,0,74802:0:0:0:0:
448,192,74802,128,0,75197:0:0:0:0:
320,192,75197,128,0,75789:0:0:0:0:
448,192,75789,128,0,76085:0:0:0:0:
192,192,76085,128,0,76381:0:0:0:0:
64,192,76381,128,0,76578:0:0:0:0:
320,192,76578,128,0,76874:0:0:0:0:
192,192,76874,128,0,77171:0:0:0:0:
64,192,77171,128,0,77368:0:0:0:0:
448,192,77368,128,0,78947:0:0:0:0:
64,192,78947,1,0,0:0:0:0:
64,192,79243,1,0,0:0:0:0:
320,192,79539,1,0,0:0:0:0:
192,192,79736,1,0,0:0:0:0:
320,192,80032,1,0,0:0:0:0:
64,192,80328,1,0,0:0:0:0:
448,192,80526,1,0,0:0:0:0:
448,192,80822,1,0,0:0:0:0:
320,192,81118,1,0,0:0:0:0:
192,192,81315,1,0,0:0:0:0:
320,192,81513,128,0,81907:0:0:0:0:
192,192,81907,1,0,0:0:0:0:
64,192,82105,1,0,0:0:0:0:
64,192,82401,1,0,0:0:0:0:
192,192,82697,1,0,0:0:0:0:
448,192,82894,1,0,0:0:0:0:
448,192,83190,1,0,0:0:0:0:
320,192,83486,1,0,0:0:0:0:
64,192,83684,1,0,0:0:0:0:
192,192,83980,1,0,0:0:0:0:
320,192,84276,1,0,0:0:0:0:
448,192,84473,128,0,85263:0:0:0:0:
64,192,85263,1,0,0:0:0:0:
64,192,85559,1,0,0:0:0:0:
192,192,85855,1,0,0:0:0:0:
448,192,86052,1,0,0:0:0:0:
448,192,86348,1,0,0:0:0:0:
320,192,86644,1,0,0:0:0:0:
64,192,86842,1,0,0:0:0:0:
64,192,87138,1,0,0:0:0:0:
192,192,87434,1,0,0:0:0:0:
448,192,87631,1,0,0:0:0:0:
320,192,87828,128,0,88223:0:0:0:0:
192,192,88223,1,0,0:0:0:0:
64,192,88421,1,0,0:0:0:0:
64,192,88717,1,0,0:0:0:0:
192,192,89013,1,0,0:0:0:0:
448,192,89210,1,0,0:0:0:0:
448,192,89506,1,0,0:0:0:0:
320,192,89802,1,0,0:0:0:0:
192,192,89999,1,0,0:0:0:0:
192,192,90197,1,0,0:0:0:0:
64,192,90394,1,0,0:0:0:0:
64,192,90592,1,0,0:0:0:0:
320,192,90789,1,0,0:0:0:0:
448,192,90789,1,0,0:0:0:0:
320,192,90986,1,0,0:0:0:0:
448,192,90986,1,0,0:0:0:0:
64,192,91184,1,0,0:0:0:0:
192,192,91184,1,0,0:0:0:0:
64,192,91381,1,0,0:0:0:0:
192,192,91381,1,0,0:0:0:0:
64,192,91578,1,0,0:0:0:0:
448,192,91578,1,0,0:0:0:0:
