osu file format v14

[General]
AudioFilename: audio.mp3
AudioLeadIn: 0
PreviewTime: 50263
Countdown: 0
SampleSet: Soft
StackLeniency: 0.4
Mode: 0
LetterboxInBreaks: 0
WidescreenStoryboard: 1

[Editor]
Bookmarks: 5360,27038,39425,51812,78134,90522,102909,130780
DistanceSpacing: 0.6
BeatDivisor: 4
GridSize: 32
TimelineZoom: 2.4

[Metadata]
Title:Holy Knight
TitleUnicode:Holy Knight
Artist:Eyemedia
ArtistUnicode:Eyemedia
Creator:Kloyd
Version:Insane
Source:Cytus
Tags:mozarc deemo voez rayark chapter v Hindsight instrumental video game
BeatmapID:2235499
BeatmapSetID:1064207

[Difficulty]
HPDrainRate:6
CircleSize:4
OverallDifficulty:8
ApproachRate:9
SliderMultiplier:1.54
SliderTickRate:1

[Events]
//Background and Video events
0,0,"BG.png",0,0
//Break Periods
//Storyboard Layer 0 (Background)
//Storyboard Layer 1 (Fail)
//Storyboard Layer 2 (Pass)
//Storyboard Layer 3 (Foreground)
//Storyboard Layer 4 (Overlay)
//Storyboard Sound Samples

[TimingPoints]
1684,387.096774193548,4,2,1,60,1,0
2264,387.096774193548,4,2,1,60,1,0
14651,-100,4,2,1,80,0,0
25489,-100,4,2,1,60,0,0
26263,-100,4,2,1,70,0,0
27038,-100,4,2,1,60,0,0
39425,-100,4,2,1,66,0,0
51812,-83.3333333333333,4,2,1,80,0,1
75038,-166.666666666667,4,2,1,80,0,1
77360,-125,4,2,1,60,0,0
87522,-125,4,2,1,66,0,0
90522,-111.111111111111,4,2,1,70,0,0
101360,-100,4,2,1,75,0,0
102909,-83.3333333333333,4,2,1,80,0,1
117618,-100,4,2,1,80,0,1
118393,-83.3333333333333,4,2,1,80,0,1
126134,-83.3333333333333,4,2,1,75,0,0
130780,-83.3333333333333,4,2,1,70,0,0

[Colours]
Combo1 : 77,77,255
Combo2 : 255,153,153
Combo3 : 153,199,255
Combo4 : 255,64,64

[HitObjects]
83,49,1684,5,2,0:0:0:0:
83,49,1781,1,0,0:0:0:0:
83,49,1878,1,2,0:0:0:0:
47,117,2071,1,2,0:0:0:0:
87,182,2264,5,6,0:0:0:0:
87,182,3038,1,2,0:0:0:0:
157,45,3426,1,2,0:0:0:0:
240,174,3813,1,2,0:0:0:0:
172,309,4200,1,2,0:0:0:0:
172,309,4393,1,0,0:0:0:0:
172,309,5361,5,2,0:0:0:0:
24,354,5748,1,2,0:0:0:0:
40,278,5942,1,0,0:0:0:0:
188,233,6329,1,2,0:0:0:0:
154,384,6716,1,2,0:0:0:0:
154,384,7684,5,2,0:0:0:0:
188,233,8071,1,2,0:0:0:0:
301,337,8458,5,2,0:0:0:0:
421,240,8845,1,2,0:0:0:0:
408,316,9038,1,2,0:0:0:0:
317,191,9426,1,2,0:0:0:0:
301,337,10006,5,2,0:0:0:0:
301,337,10200,1,2,0:0:0:0:
421,240,10780,1,2,0:0:0:0:
421,240,10974,1,2,0:0:0:0:
210,316,11555,5,2,0:0:0:0:
301,337,11748,1,2,0:0:0:0:
392,358,11942,1,2,0:0:0:0:
383,266,12135,1,2,0:0:0:0:
375,173,12329,5,2,0:0:0:0:
301,337,12522,1,2,0:0:0:0:
210,316,12716,1,2,0:0:0:0:
119,295,12909,1,2,0:0:0:0:
28,274,13103,6,0,L|17:117,1,154,2|2,0:0|0:0,0:0:0:0:
17,120,13877,1,2,0:0:0:0:
71,45,14071,1,2,0:0:0:0:
162,37,14264,1,2,0:0:0:0:
248,71,14458,1,2,0:0:0:0:
276,157,14651,6,0,P|278:196|264:231,1,77,4|0,0:1|0:0,0:0:0:0:
204,339,15038,2,0,P|236:318|274:313,1,77,8|2,0:0|0:0,3:0:0:0:
464,349,15426,1,0,1:0:0:0:
464,349,15522,1,0,0:0:0:0:
464,349,15619,1,2,0:0:0:0:
464,349,15716,1,0,0:0:0:0:
464,349,15813,1,8,0:0:0:0:
376,377,16006,1,0,0:0:0:0:
357,286,16200,6,0,P|356:247|371:213,1,77,0|2,1:0|0:0,0:0:0:0:
491,182,16587,2,0,P|491:143|477:108,1,77,8|2,0:0|0:0,0:0:0:0:
382,28,16974,1,0,1:0:0:0:
382,28,17071,1,8,0:0:0:0:
382,28,17167,2,0,L|389:81,1,38.5,2|0,0:0|0:0,0:0:0:0:
390,89,17361,2,0,L|307:72,1,77,8|2,0:0|0:0,0:0:0:0:
291,67,17651,1,0,0:0:0:0:
268,61,17748,6,0,P|277:96|265:146,1,77,0|2,1:0|0:0,0:0:0:0:
171,209,18135,2,0,P|136:199|98:163,1,77,8|0,0:0|0:0,0:0:0:0:
144,55,18522,1,0,1:0:0:0:
144,55,18619,1,0,0:0:0:0:
144,55,18716,1,2,0:0:0:0:
144,55,18813,1,0,0:0:0:0:
144,55,18909,1,8,0:0:0:0:
233,34,19103,1,2,0:0:0:0:
171,209,19297,5,2,1:2:0:0:
148,201,19393,1,0,0:0:0:0:
125,200,19490,1,2,0:0:0:0:
102,203,19587,1,0,0:0:0:0:
83,216,19684,2,0,L|91:259,3,38.5,10|0|2|0,0:0|0:0|0:0|0:0,0:0:0:0:
105,271,20071,2,0,L|97:308,3,38.5,2|8|2|0,1:2|0:0|0:0|0:0,0:0:0:0:
84,328,20458,2,0,P|49:343|11:348,1,77,10|2,0:0|0:0,0:0:0:0:
0,187,20845,5,2,1:2:0:0:
6,156,20942,1,0,0:0:0:0:
13,125,21038,1,2,0:0:0:0:
20,95,21135,1,0,0:0:0:0:
26,64,21232,2,0,L|81:56,3,38.5,10|0|2|0,0:0|0:0|0:0|0:0,0:0:0:0:
88,38,21619,2,0,L|143:30,3,38.5,2|0|2|0,1:2|0:0|0:0|0:0,0:0:0:0:
151,14,22006,2,0,L|206:6,3,38.5,10|0|2|0,0:0|0:0|0:0|0:0,0:0:0:0:
262,36,22393,5,2,1:2:0:0:
267,68,22490,1,0,0:0:0:0:
267,101,22587,1,2,0:0:0:0:
257,132,22684,1,0,0:0:0:0:
244,162,22780,1,10,0:0:0:0:
235,194,22877,1,0,0:0:0:0:
235,227,22974,1,2,0:0:0:0:
239,260,23071,1,0,0:0:0:0:
249,289,23167,2,0,L|296:297,3,38.5,2|0|2|0,1:2|0:0|0:0|0:0,0:0:0:0:
316,286,23555,2,0,P|332:320|332:365,1,77,10|2,0:0|0:0,0:0:0:0:
180,371,23942,5,6,0:1:0:0:
155,351,24038,1,0,0:0:0:0:
146,321,24135,1,2,0:1:0:0:
150,290,24232,1,0,0:0:0:0:
165,263,24329,2,0,L|208:268,3,38.5,0|0|2|0,0:0|0:0|1:0|0:0,0:0:0:0:
230,253,24716,2,0,L|225:210,3,38.5,6|0|2|0,1:0|0:0|0:1|0:0,0:0:0:0:
215,185,25103,2,0,L|220:142,3,38.5,0|0|6|0,0:0|0:0|1:0|0:0,0:0:0:0:
208,116,25490,6,0,P|310:167|422:149,1,231,6|0,1:0|0:0,0:0:0:0:
479,97,26264,1,2,0:0:0:0:
462,21,26458,1,2,0:0:0:0:
404,72,26651,1,2,0:0:0:0:
441,224,26845,1,2,0:0:0:0:
479,97,27038,5,4,1:2:0:0:
479,97,27232,1,0,1:0:0:0:
421,149,27426,1,8,0:0:0:0:
404,72,27619,2,0,B|345:61|345:61|324:35|324:35|264:24,1,154,0|0,0:0|1:0,0:0:0:0:
193,55,28200,2,0,B|188:94|188:94|201:129,1,77,8|2,0:0|0:0,0:0:0:0:
201,129,28490,1,0,0:0:0:0:
201,129,28587,5,2,0:0:0:0:
272,159,28780,1,0,1:0:0:0:
342,188,28974,2,0,B|362:259|362:259|327:331,1,154,8|2,0:0|0:0,0:0:0:0:
251,347,29555,1,0,1:0:0:0:
175,363,29748,1,8,0:0:0:0:
175,363,29845,2,0,L|185:286,1,77,0|0,1:0|1:0,0:0:0:0:
195,210,30135,5,0,1:0:0:0:
195,210,30329,1,0,0:0:0:0:
123,239,30522,1,8,0:0:0:0:
48,216,30716,2,0,P|34:141|55:68,1,154,2|0,0:0|1:0,0:0:0:0:
118,23,31297,2,0,L|207:16,1,77,8|0,0:0|0:0,0:0:0:0:
271,9,31684,5,2,0:0:0:0:
210,169,31877,1,0,1:0:0:0:
142,95,32071,2,0,L|257:85,1,115.5,8|0,0:0|0:0,0:0:0:0:
274,94,32458,2,0,L|350:88,1,77,2|0,0:0|1:0,0:0:0:0:
440,4,32845,1,8,0:0:0:0:
440,4,32942,2,0,L|430:80,1,77,0|0,1:0|0:0,0:0:0:0:
422,157,33232,5,0,1:0:0:0:
422,157,33426,1,0,1:0:0:0:
449,228,33619,1,8,0:0:0:0:
429,302,33813,2,0,B|374:315|374:315|356:342|356:342|293:359,1,154,0|0,0:0|1:0,0:0:0:0:
225,324,34393,2,0,B|192:305|192:305|152:307,1,77,8|2,0:0|0:0,0:0:0:0:
83,339,34780,5,2,0:0:0:0:
83,339,34974,1,0,1:0:0:0:
20,215,35167,2,0,L|172:235,1,154,8|2,0:0|0:0,0:0:0:0:
172,235,35748,1,0,1:0:0:0:
70,145,35942,1,8,0:0:0:0:
70,145,36038,2,0,L|146:155,1,77,0|0,1:0|0:0,0:0:0:0:
218,168,36329,5,0,1:0:0:0:
218,168,36522,1,0,1:0:0:0:
213,88,36716,1,8,0:0:0:0:
213,14,36909,1,0,0:0:0:0:
213,14,37006,1,0,0:0:0:0:
213,14,37103,1,0,0:0:0:0:
127,23,37297,1,0,1:0:0:0:
50,32,37490,2,0,L|34:157,1,115.5,8|0,0:0|0:0,0:0:0:0:
31,165,37877,6,0,P|68:154|106:160,1,77,2|0,0:0|1:0,0:0:0:0:
208,230,38264,2,0,P|171:240|133:234,1,77,8|0,0:0|0:0,0:0:0:0:
133,234,38555,1,0,0:0:0:0:
133,234,38651,5,2,0:0:0:0:
282,196,38845,1,0,1:0:0:0:
321,345,39038,1,2,0:0:0:0:
469,306,39232,1,2,3:2:0:0:
430,156,39426,5,6,1:1:0:0:
430,156,39619,2,0,L|338:148,1,77,2|8,0:1|0:0,0:0:0:0:
245,91,40006,1,2,0:1:0:0:
245,91,40200,2,0,L|283:175,1,77,2|2,0:1|1:1,0:0:0:0:
276,161,40587,1,8,0:0:0:0:
281,284,40780,1,2,0:1:0:0:
281,284,40877,1,0,1:0:0:0:
281,284,40974,6,0,L|334:208,1,77,2|2,1:1|0:1,0:0:0:0:
325,221,41361,1,8,0:0:0:0:
198,165,41555,1,2,0:1:0:0:
198,165,41651,1,0,0:0:0:0:
198,165,41748,1,2,0:1:0:0:
121,155,41942,1,2,1:1:0:0:
58,199,42135,1,8,0:0:0:0:
74,50,42329,1,2,0:1:0:0:
74,50,42426,1,0,0:0:0:0:
74,50,42522,5,2,1:1:0:0:
10,136,42716,2,0,L|86:123,1,77,2|8,2:1|0:0,0:0:0:0:
161,109,43103,1,2,0:1:0:0:
103,265,43297,1,2,0:1:0:0:
103,265,43490,2,0,L|54:205,1,77,2|8,1:1|0:0,0:0:0:0:
208,171,43877,1,2,0:1:0:0:
208,171,43974,1,0,0:0:0:0:
208,171,44071,6,0,L|180:242,1,77,2|2,1:1|1:0,0:0:0:0:
180,242,44458,1,8,0:0:0:0:
200,317,44651,1,2,0:1:0:0:
270,347,44845,1,2,0:1:0:0:
347,347,45038,1,2,1:1:0:0:
347,347,45135,1,0,0:0:0:0:
347,347,45232,1,8,0:0:0:0:
416,314,45426,1,2,1:1:0:0:
453,246,45619,6,0,L|446:91,1,154,2|10,1:1|0:0,0:0:0:0:
399,30,46200,2,0,P|360:27|325:41,1,77,2|2,0:1|0:1,0:0:0:0:
344,178,46587,2,0,P|364:146|371:108,1,77,2|8,1:1|0:0,0:0:0:0:
243,56,46974,1,2,0:1:0:0:
243,56,47071,1,0,0:0:0:0:
243,56,47167,6,0,P|260:90|289:114,1,77,2|2,1:1|1:1,0:0:0:0:
371,108,47555,1,8,0:0:0:0:
299,5,47748,1,2,0:1:0:0:
178,99,47942,2,0,L|189:222,2,115.5,2|2|2,0:1|0:0|1:2,0:0:0:0:
178,99,48619,1,0,1:0:0:0:
178,99,48716,5,2,1:1:0:0:
120,47,48909,1,2,0:1:0:0:
43,38,49103,1,8,0:0:0:0:
12,108,49297,1,2,0:1:0:0:
12,108,49393,1,0,0:0:0:0:
12,108,49490,1,2,0:1:0:0:
30,182,49684,1,2,1:1:0:0:
178,99,49877,1,8,0:0:0:0:
178,99,49974,1,0,0:0:0:0:
178,99,50071,1,2,1:1:0:0:
178,99,50167,1,0,0:0:0:0:
178,99,50264,6,0,B|94:59|94:59|142:278,1,308,2|0,0:0|0:1,0:0:0:0:
158,343,51232,1,0,0:0:0:0:
158,343,51329,1,0,0:0:0:0:
158,343,51426,2,0,P|124:324|86:320,1,77,0|0,1:0|0:0,0:0:0:0:
109,193,51813,6,0,P|142:211|195:216,1,92.3999971801759,4|0,0:1|0:0,0:0:0:0:
281,286,52200,2,0,P|299:253|304:200,1,92.3999971801759,8|0,0:0|0:0,0:0:0:0:
374,114,52587,2,0,P|341:96|288:91,1,92.3999971801759,0|0,1:0|0:0,0:0:0:0:
202,21,52974,2,0,P|184:54|179:107,1,92.3999971801759,8|0,0:0|0:0,0:0:0:0:
195,215,53361,5,0,1:0:0:0:
287,91,53555,1,0,0:0:0:0:
287,91,53748,2,0,L|430:83,1,138.599995770264,8|0,0:0|0:0,0:0:0:0:
448,79,54135,2,0,L|470:37,2,46.1999985900879,0|8|0,1:0|0:0|0:0,0:0:0:0:
402,157,54522,2,0,P|401:203|420:245,1,92.3999971801759,8|0,0:0|0:0,0:0:0:0:
512,363,54909,6,0,P|512:317|493:275,1,92.3999971801759,4|0,0:1|0:0,0:0:0:0:
449,173,55297,2,0,P|403:172|361:191,1,92.3999971801759,8|2,0:0|0:0,0:0:0:0:
259,236,55684,2,0,P|258:281|277:323,1,92.3999971801759,0|2,1:0|0:0,0:0:0:0:
381,367,56071,2,0,P|381:321|362:279,1,92.3999971801759,8|0,0:0|0:0,0:0:0:0:
259,236,56458,5,0,1:0:0:0:
196,355,56651,1,0,0:1:0:0:
196,355,56845,2,0,L|58:341,1,138.599995770264,8|0,0:0|0:0,0:0:0:0:
35,338,57232,2,0,L|48:384,2,46.1999985900879,0|8|0,1:0|0:0|0:0,0:0:0:0:
11,192,57619,1,8,0:0:0:0:
75,258,57813,1,0,0:0:0:0:
75,258,57909,1,0,0:0:0:0:
75,258,58006,6,0,L|166:267,1,92.3999971801759,4|0,0:1|0:0,0:0:0:0:
314,286,58393,1,8,0:0:0:0:
255,365,58587,2,0,P|235:276|268:191,1,184.799994360352,2|2,0:2|0:0,0:0:0:0:
259,98,59167,2,0,P|304:102|340:131,1,92.3999971801759,8|2,2:0|0:0,0:0:0:0:
353,223,59555,5,0,1:0:0:0:
255,365,59748,1,2,0:0:0:0:
223,277,59942,2,0,L|359:300,1,138.599995770264,8|0,0:0|0:0,0:0:0:0:
380,311,60329,2,0,L|404:365,2,46.1999985900879,0|8|0,1:0|0:0|0:0,0:0:0:0:
353,223,60716,1,8,0:0:0:0:
255,365,60909,1,0,0:0:0:0:
255,365,61006,1,0,0:0:0:0:
255,365,61103,5,0,1:0:0:0:
169,330,61297,1,0,1:0:0:0:
84,292,61490,1,8,0:0:0:0:
0,258,61684,1,0,1:0:0:0:
96,382,61877,5,0,1:0:0:0:
84,292,62071,1,0,1:0:0:0:
70,200,62264,1,8,0:0:0:0:
58,107,62458,1,0,1:0:0:0:
1,257,62651,6,0,B|162:222|111:314|271:275,1,277.199991540528,4|0,0:1|0:0,0:0:0:0:
270,275,63426,5,0,1:0:0:0:
267,252,63522,1,2,2:0:0:0:
264,229,63619,1,2,1:2:0:0:
261,206,63716,1,2,2:0:0:0:
258,183,63813,1,2,1:2:0:0:
255,160,63909,1,2,2:0:0:0:
252,137,64006,1,2,1:2:0:0:
249,114,64103,1,2,2:0:0:0:
246,91,64200,5,4,1:0:0:0:
180,55,64393,1,2,0:0:0:0:
124,103,64587,1,2,0:0:0:0:
58,67,64780,1,0,1:0:0:0:
2,115,64974,5,2,0:1:0:0:
2,115,65071,1,0,0:0:0:0:
2,115,65167,1,2,0:1:0:0:
2,115,65264,1,0,0:0:0:0:
2,115,65361,1,2,0:1:0:0:
53,213,65555,1,2,0:1:0:0:
20,318,65748,5,0,1:0:0:0:
89,292,65942,1,2,0:0:0:0:
143,341,66135,1,0,1:0:0:0:
212,315,66329,1,2,0:0:0:0:
290,372,66522,5,2,0:1:0:0:
290,372,66619,1,0,0:0:0:0:
290,372,66716,1,2,0:1:0:0:
290,372,66813,1,0,0:0:0:0:
290,372,66909,1,2,0:1:0:0:
260,253,67103,1,2,0:1:0:0:
364,214,67297,5,0,1:0:0:0:
406,273,67490,1,0,0:0:0:0:
416,346,67684,1,8,0:0:0:0:
450,280,67877,1,0,0:0:0:0:
509,236,68071,5,2,1:1:0:0:
509,236,68167,1,0,0:0:0:0:
509,236,68264,1,2,0:1:0:0:
509,236,68361,1,0,0:0:0:0:
509,236,68458,1,10,0:1:0:0:
416,346,68651,1,2,0:1:0:0:
364,214,68845,6,0,L|378:168,3,46.1999985900879,2|0|2|0,1:2|0:0|0:0|0:0,0:0:0:0:
407,147,69232,2,0,L|421:101,3,46.1999985900879,10|0|2|0,0:0|0:0|0:0|0:0,0:0:0:0:
450,80,69619,2,0,L|464:34,3,46.1999985900879,0|8|2|0,1:1|0:0|0:0|0:0,0:0:0:0:
480,2,70006,2,0,L|386:16,1,92.3999971801759,8|2,0:1|0:0,0:0:0:0:
203,38,70393,5,2,1:1:0:0:
218,55,70490,1,0,0:0:0:0:
230,74,70587,1,2,0:0:0:0:
239,94,70684,1,0,0:0:0:0:
246,116,70780,2,0,L|240:169,3,46.1999985900879,10|0|2|0,0:1|0:0|0:0|0:0,0:0:0:0:
256,178,71167,2,0,L|250:231,3,46.1999985900879,2|0|2|0,1:1|0:0|0:0|0:0,0:0:0:0:
267,239,71555,2,0,L|261:292,3,46.1999985900879,10|0|2|0,0:1|0:0|0:0|0:0,0:0:0:0:
267,359,71942,5,2,1:1:0:0:
234,347,72038,1,0,0:0:0:0:
200,340,72135,1,2,0:0:0:0:
166,337,72232,1,0,0:0:0:0:
131,338,72329,1,10,0:1:0:0:
97,344,72426,1,0,0:0:0:0:
64,355,72522,1,2,0:0:0:0:
32,369,72619,1,0,0:0:0:0:
0,384,72716,6,0,P|7:362|11:339,3,46.1999985900879,2|0|2|0,1:1|0:0|0:0|0:0,0:0:0:0:
18,303,73103,2,0,P|24:257|20:211,1,92.3999971801759,10|2,0:1|0:0,0:0:0:0:
5,62,73490,5,2,1:0:0:0:
32,88,73587,1,0,0:0:0:0:
63,109,73684,1,2,0:1:0:0:
96,124,73780,1,0,0:0:0:0:
132,134,73877,1,2,0:0:0:0:
168,138,73974,1,0,0:0:0:0:
205,136,74071,1,2,1:0:0:0:
241,128,74167,1,0,0:0:0:0:
276,114,74264,6,0,L|270:68,3,46.1999985900879,2|0|2|0,1:0|0:0|1:0|0:0,0:0:0:0:
270,31,74651,2,0,L|316:37,3,46.1999985900879,2|0|2|0,0:0|0:0|1:0|0:0,0:0:0:0:
345,39,75038,6,0,B|404:62|467:47|467:47|349:103|403:256|403:256|511:220|512:123,1,554.399983081055,6|2,0:1|0:0,0:0:0:0:
457,172,77555,5,0,0:0:0:0:
435,242,77748,1,0,0:0:0:0:
448,314,77942,1,2,0:0:0:0:
496,369,78135,5,2,0:0:0:0:
496,369,79297,5,2,0:0:0:0:
467,301,79490,1,2,0:0:0:0:
438,233,79684,5,2,0:0:0:0:
393,292,80264,1,2,0:0:0:0:
349,351,80458,5,2,0:0:0:0:
422,359,80845,1,0,0:0:0:0:
496,369,81232,5,2,0:0:0:0:
349,351,81813,1,2,0:0:0:0:
438,233,82006,5,2,0:0:0:0:
467,301,82393,1,0,0:0:0:0:
393,292,82780,1,2,0:0:0:0:
393,292,83942,5,0,0:0:0:0:
512,244,84135,1,2,0:0:0:0:
495,368,84329,6,0,P|319:320|141:362,1,369.6,2|0,0:0|0:0,0:0:0:0:
140,362,85684,1,2,0:0:0:0:
31,261,85877,6,0,B|91:235|91:235|49:360,1,184.8,2|2,0:0|0:0,0:0:0:0:
52,348,86651,1,2,0:0:0:0:
0,189,86942,1,2,0:0:0:0:
164,222,87232,1,2,0:0:0:0:
72,260,87426,5,2,0:0:0:0:
256,192,87522,12,2,90328,0:0:0:0:
276,78,90522,6,0,L|266:148,1,69.2999978851319,4|0,0:1|0:0,0:0:0:0:
305,277,90909,1,2,0:0:0:0:
305,277,91103,2,0,B|361:274|361:274|387:290|387:290|459:288,2,138.599995770264,2|2|2,0:0|0:0|0:0,0:0:0:0:
219,214,92071,6,0,B|234:281|234:281|224:350,1,138.599995770264,0|0,0:0|0:0,0:0:0:0:
150,369,92651,1,2,0:0:0:0:
150,369,92748,1,0,0:0:0:0:
150,369,92845,1,2,0:0:0:0:
35,294,93038,2,0,L|138:284,1,103.949996827698,0|0,1:0|0:0,0:0:0:0:
159,283,93426,1,0,1:0:0:0:
37,216,93619,6,0,B|22:149|22:149|32:80,1,138.599995770264,4|2,0:1|0:0,0:0:0:0:
108,77,94200,2,0,B|123:144|123:144|113:213,2,138.599995770264,2|2|2,0:0|0:0|0:0,0:0:0:0:
101,57,95071,1,0,0:0:0:0:
94,37,95167,6,0,L|234:52,1,138.599995770264,0|0,0:0|0:0,0:0:0:0:
231,51,95942,1,2,0:0:0:0:
248,124,96135,1,2,0:0:0:0:
248,124,96232,1,0,0:0:0:0:
248,124,96329,1,2,0:0:0:0:
265,197,96522,1,0,1:0:0:0:
231,51,96716,5,4,0:1:0:0:
165,188,97103,1,2,0:0:0:0:
212,127,97297,1,2,0:0:0:0:
294,273,97684,1,2,0:0:0:0:
341,212,98071,5,4,0:1:0:0:
423,358,98264,1,0,0:0:0:0:
423,358,98845,5,4,1:0:0:0:
422,212,99038,2,0,P|385:248|368:297,2,103.949996827698,4|2|4,0:1|0:0|0:1,0:0:0:0:
422,212,99716,1,0,0:0:0:0:
422,212,99813,5,4,0:1:0:0:
486,254,100006,1,0,0:0:0:0:
501,328,100200,1,0,0:0:0:0:
356,330,100393,2,0,P|377:264|422:212,1,138.599995770264,2|2,0:0|0:0,0:0:0:0:
422,212,100974,5,0,0:0:0:0:
356,330,101167,2,0,L|407:320,1,34.649998942566,2|0,0:0|0:0,0:0:0:0:
508,304,101361,5,2,0:0:0:0:
477,298,101458,1,0,0:0:0:0:
447,292,101555,1,0,0:0:0:0:
417,286,101651,1,0,0:0:0:0:
387,280,101748,1,2,0:0:0:0:
356,274,101845,1,0,0:0:0:0:
326,269,101942,1,2,0:0:0:0:
296,263,102038,1,0,0:0:0:0:
266,256,102135,5,2,0:0:0:0:
195,358,102329,1,2,0:1:0:0:
195,358,102426,1,2,0:1:0:0:
195,358,102522,2,0,P|181:323|180:285,1,77,2|2,1:0|0:1,0:0:0:0:
248,167,102909,6,0,P|263:207|264:255,1,92.3999971801759,6|0,1:1|0:0,0:0:0:0:
109,322,103297,2,0,P|104:279|116:232,1,92.3999971801759,8|0,0:0|0:0,0:0:0:0:
259,333,103683,2,0,P|224:357|178:371,1,92.3999971801759,2|0,1:2|0:0,0:0:0:0:
116,231,104071,2,0,L|260:245,1,138.599995770264,10|0,0:1|0:0,0:0:0:0:
276,246,104458,6,0,P|291:204|285:158,1,92.3999971801759,2|0,1:0|0:0,0:0:0:0:
232,105,104845,1,10,0:1:0:0:
158,115,105038,1,2,0:1:0:0:
85,126,105232,1,0,1:0:0:0:
85,126,105329,1,0,0:0:0:0:
85,126,105426,1,2,0:0:0:0:
145,32,105619,1,8,0:0:0:0:
232,105,105813,1,0,0:0:0:0:
232,105,105909,1,0,0:0:0:0:
232,105,106006,5,2,1:0:0:0:
305,113,106200,1,0,0:0:0:0:
378,121,106393,1,10,0:1:0:0:
451,129,106587,1,2,0:1:0:0:
297,40,106780,5,0,1:0:0:0:
305,113,106974,1,2,0:1:0:0:
313,186,107167,1,8,0:0:0:0:
321,259,107361,1,2,0:1:0:0:
451,97,107555,5,0,1:0:0:0:
378,105,107748,1,2,0:0:0:0:
305,113,107942,1,10,0:1:0:0:
232,121,108135,1,2,0:1:0:0:
386,178,108329,5,0,1:0:0:0:
386,178,108426,1,0,0:0:0:0:
386,178,108522,1,2,1:1:0:0:
305,113,108716,1,8,0:0:0:0:
370,32,108909,1,2,0:0:0:0:
370,32,109006,1,0,0:0:0:0:
370,32,109103,5,6,0:1:0:0:
451,97,109297,1,0,0:0:0:0:
386,178,109490,1,10,0:1:0:0:
305,113,109684,2,0,L|487:139,1,184.799994360352,2|2,0:1|0:1,0:0:0:0:
512,245,110264,2,0,P|515:290|498:333,1,92.3999971801759,8|0,0:0|0:0,0:0:0:0:
372,266,110651,6,0,P|368:220|385:177,1,92.3999971801759,2|2,1:1|0:1,0:0:0:0:
477,1,111038,2,0,L|487:139,1,138.599995770264,8|0,0:0|0:0,0:0:0:0:
488,162,111426,2,0,L|514:202,2,46.1999985900879,2|2|2,1:0|0:0|0:1,0:0:0:0:
404,88,111813,1,8,0:0:0:0:
372,266,112006,1,0,0:0:0:0:
372,266,112103,1,0,0:0:0:0:
372,266,112200,5,6,0:1:0:0:
282,199,112393,1,2,0:1:0:0:
250,344,112587,1,10,0:1:0:0:
160,277,112780,1,2,0:1:0:0:
38,355,112974,5,6,0:1:0:0:
160,277,113167,1,2,0:1:0:0:
31,211,113361,1,10,0:1:0:0:
38,355,113555,1,2,0:1:0:0:
160,277,113748,6,0,P|175:187|157:97,1,184.799994360352,6|4,0:1|0:1,0:0:0:0:
156,96,114522,5,2,1:1:0:0:
128,100,114619,1,0,0:0:0:0:
100,104,114716,1,2,0:1:0:0:
72,108,114813,1,0,0:0:0:0:
44,113,114909,1,2,1:1:0:0:
1,10,115103,1,2,0:1:0:0:
1,10,115200,1,0,0:0:0:0:
1,10,115297,5,6,1:1:0:0:
0,176,115587,1,2,1:1:0:0:
145,93,115877,1,6,1:0:0:0:
246,140,116071,5,2,0:0:0:0:
242,112,116167,1,2,0:0:0:0:
238,84,116264,1,2,0:0:0:0:
234,56,116361,1,2,0:0:0:0:
230,28,116458,2,0,P|293:55|361:54,1,138.599995770264,2|0,0:0|0:0,0:0:0:0:
425,16,116845,5,6,1:0:0:0:
307,133,117135,1,2,1:1:0:0:
468,176,117426,1,6,1:0:0:0:
425,15,117619,6,2,P|387:124|385:239,1,231,0|0,0:1|0:0,0:1:0:0:
453,328,118393,5,4,0:1:0:0:
453,328,118490,1,0,0:0:0:0:
453,328,118587,1,2,0:0:0:0:
453,328,118684,1,0,0:0:0:0:
453,328,118780,2,0,P|409:316|363:315,1,92.3999971801759,8|2,0:0|0:0,0:0:0:0:
223,365,119167,5,0,1:0:0:0:
223,365,119264,1,0,0:0:0:0:
223,365,119361,1,2,0:0:0:0:
223,365,119458,1,0,0:0:0:0:
223,365,119555,2,0,P|256:333|279:293,1,92.3999971801759,8|2,0:0|0:0,0:0:0:0:
286,266,119845,1,0,0:0:0:0:
284,238,119942,6,0,L|184:255,1,92.3999971801759,4|2,0:1|0:0,0:0:0:0:
121,338,120329,2,0,L|105:246,1,92.3999971801759,0|2,1:0|0:0,0:0:0:0:
88,137,120716,1,4,1:0:0:0:
88,137,120813,1,0,0:0:0:0:
25,228,121006,1,0,0:0:0:0:
25,228,121103,1,8,0:0:0:0:
10,117,121297,1,2,0:0:0:0:
10,117,121393,1,0,0:0:0:0:
10,117,121490,6,0,L|6:67,3,46.1999985900879,6|0|0|0,0:1|0:0|0:0|0:0,0:0:0:0:
5,43,121877,2,0,L|55:39,3,46.1999985900879,10|0|0|0,0:1|0:0|0:0|0:0,0:0:0:0:
75,52,122264,2,0,L|125:56,3,46.1999985900879,6|0|0|0,0:1|0:0|0:0|0:0,0:0:0:0:
147,45,122651,2,0,L|197:41,3,46.1999985900879,10|0|0|0,0:1|0:0|0:0|0:0,0:0:0:0:
218,31,123038,5,6,0:1:0:0:
218,58,123135,1,0,0:0:0:0:
218,85,123232,1,2,0:0:0:0:
218,112,123329,1,0,0:0:0:0:
220,139,123426,2,0,L|173:142,3,46.1999985900879,10|0|2|0,0:1|0:0|0:0|0:0,0:0:0:0:
146,146,123813,5,6,0:1:0:0:
132,170,123909,1,0,0:0:0:0:
126,196,124006,1,2,0:0:0:0:
126,223,124103,1,0,0:0:0:0:
129,250,124200,2,0,L|235:238,1,92.3999971801759,10|2,0:1|0:0,0:0:0:0:
318,332,124587,6,0,P|318:309|314:286,3,46.1999985900879,6|0|2|0,0:1|0:0|0:1|0:0,0:0:0:0:
294,267,124974,2,0,P|293:243|297:221,3,46.1999985900879,0|0|2|0,0:0|0:0|1:0|0:0,0:0:0:0:
308,194,125361,1,6,0:1:0:0:
335,203,125458,1,0,0:0:0:0:
363,207,125555,1,2,0:1:0:0:
392,205,125651,1,0,0:0:0:0:
421,199,125748,1,0,0:0:0:0:
447,186,125845,1,0,0:0:0:0:
470,170,125942,1,2,0:1:0:0:
489,148,126038,1,0,0:0:0:0:
503,124,126135,5,6,0:1:0:0:
256,192,126232,12,4,130781,1:0:0:0:
