osu file format v14

[General]
AudioFilename: audio.mp3
AudioLeadIn: 0
PreviewTime: 50263
Countdown: 0
SampleSet: Soft
StackLeniency: 0.4
Mode: 0
LetterboxInBreaks: 0
WidescreenStoryboard: 1

[Editor]
Bookmarks: 5360,27038,39425,51812,78134,90522,102909,130780
DistanceSpacing: 1
BeatDivisor: 4
GridSize: 32
TimelineZoom: 2.4

[Metadata]
Title:Holy Knight
TitleUnicode:Holy Knight
Artist:Eyemedia
ArtistUnicode:Eyemedia
Creator:Kloyd
Version:Hard
Source:Cytus
Tags:mozarc deemo voez rayark chapter v Hindsight instrumental video game
BeatmapID:2228695
BeatmapSetID:1064207

[Difficulty]
HPDrainRate:6
CircleSize:4
OverallDifficulty:7
ApproachRate:8
SliderMultiplier:1.4
SliderTickRate:1

[Events]
//Background and Video events
0,0,"BG.png",0,0
//Break Periods
//Storyboard Layer 0 (Background)
//Storyboard Layer 1 (Fail)
//Storyboard Layer 2 (Pass)
//Storyboard Layer 3 (Foreground)
//Storyboard Layer 4 (Overlay)
//Storyboard Sound Samples

[TimingPoints]
1684,387.096774193548,4,2,1,60,1,0
2264,387.096774193548,4,2,1,60,1,0
14651,-100,4,2,1,80,0,0
25489,-100,4,2,1,60,0,0
26263,-100,4,2,1,70,0,0
27038,-100,4,2,1,60,0,0
39425,-100,4,2,1,66,0,0
51812,-83.3333333333333,4,2,1,80,0,1
77360,-125,4,2,1,60,0,0
87522,-125,4,2,1,66,0,0
90522,-100,4,2,1,70,0,0
101360,-100,4,2,1,75,0,0
102909,-83.3333333333333,4,2,1,80,0,1
117618,-100,4,2,1,80,0,1
118393,-83.3333333333333,4,2,1,80,0,1
126134,-83.3333333333333,4,2,1,75,0,0
130780,-83.3333333333333,4,2,1,70,0,0

[Colours]
Combo1 : 77,77,255
Combo2 : 255,153,153
Combo3 : 153,199,255
Combo4 : 255,64,64

[HitObjects]
52,311,1684,6,0,L|41:356,2,35,2|0|2,0:0|0:0|0:0,0:0:0:0:
121,300,2071,1,2,0:0:0:0:
190,290,2264,1,6,0:0:0:0:
190,290,3038,5,2,0:0:0:0:
180,150,3426,1,2,0:0:0:0:
40,160,3813,1,2,0:0:0:0:
30,20,4200,1,2,0:0:0:0:
30,20,4393,1,0,0:0:0:0:
30,20,5361,5,2,0:0:0:0:
169,6,5748,1,2,0:0:0:0:
159,75,5942,1,0,0:0:0:0:
292,117,6329,1,2,0:0:0:0:
403,32,6716,1,2,0:0:0:0:
403,32,7684,1,2,0:0:0:0:
369,167,8071,1,2,0:0:0:0:
478,254,8458,5,2,0:0:0:0:
501,115,8845,1,2,0:0:0:0:
501,115,9038,1,2,0:0:0:0:
369,167,9426,1,2,0:0:0:0:
303,366,10006,5,2,0:0:0:0:
303,366,10200,1,2,0:0:0:0:
207,178,10780,1,2,0:0:0:0:
207,178,10974,1,2,0:0:0:0:
0,139,11555,6,0,L|19:55,1,70,2|2,0:0|0:0,0:0:0:0:
77,38,11942,2,0,L|161:57,1,70,2|2,0:0|0:0,0:0:0:0:
178,115,12329,2,0,L|159:199,1,70,2|2,0:0|0:0,0:0:0:0:
101,216,12716,2,0,L|17:197,1,70,2|2,0:0|0:0,0:0:0:0:
0,282,13103,2,0,P|62:297|98:359,1,140,2|2,0:0|0:0,0:0:0:0:
98,359,13877,5,2,0:0:0:0:
161,329,14071,1,2,0:0:0:0:
226,352,14264,1,2,0:0:0:0:
283,311,14458,1,2,0:0:0:0:
346,339,14651,6,0,P|381:339|415:350,1,70,4|0,0:1|0:0,0:0:0:0:
458,295,15038,2,0,P|439:265|429:232,1,70,8|2,0:0|0:0,0:0:0:0:
441,163,15426,1,0,1:0:0:0:
441,163,15522,1,0,0:0:0:0:
441,163,15619,2,0,L|494:172,2,35,2|0|8,0:0|0:0|0:0,0:0:0:0:
408,100,16006,1,0,0:0:0:0:
447,42,16200,6,0,P|468:68|478:102,1,70,0|2,1:0|0:0,0:0:0:0:
441,163,16587,2,0,P|406:168|373:159,1,70,8|2,0:0|0:0,0:0:0:0:
335,100,16974,1,0,1:0:0:0:
335,100,17071,1,8,0:0:0:0:
335,100,17167,2,0,L|345:52,2,35,2|0|8,0:0|0:0|0:0,0:0:0:0:
270,128,17555,1,2,0:0:0:0:
208,94,17748,6,0,L|195:22,1,70,0|2,1:0|0:0,0:0:0:0:
126,11,18135,2,0,P|91:14|63:34,1,70,8|0,0:0|0:0,0:0:0:0:
25,94,18522,1,0,1:0:0:0:
25,94,18619,1,0,0:0:0:0:
25,94,18716,2,0,L|7:140,2,35,2|0|8,0:0|0:0|0:0,0:0:0:0:
92,112,19103,1,2,0:0:0:0:
160,126,19297,6,0,L|170:209,1,70,2|2,1:2|0:0,0:0:0:0:
98,191,19684,2,0,L|108:274,1,70,10|2,0:0|0:0,0:0:0:0:
51,304,20071,2,0,P|77:326|111:332,1,70,2|2,1:2|0:0,0:0:0:0:
176,357,20458,2,0,P|182:322|170:290,1,70,10|2,0:0|0:0,0:0:0:0:
174,220,20845,6,0,L|185:180,3,35,2|0|2|0,1:2|0:0|0:0|0:0,0:0:0:0:
195,153,21232,2,0,L|206:113,3,35,10|0|2|0,0:0|0:0|0:0|0:0,0:0:0:0:
213,85,21619,2,0,L|266:66,3,35,2|0|2|0,1:2|0:0|0:0|0:0,0:0:0:0:
276,56,22006,2,0,L|270:11,2,35,10|0|2,0:0|0:0|0:0,0:0:0:0:
346,57,22393,6,0,L|377:71,3,35,2|0|2|0,1:2|0:0|0:0|0:0,0:0:0:0:
414,77,22780,2,0,L|445:91,3,35,10|0|2|0,0:0|0:0|0:0|0:0,0:0:0:0:
478,103,23167,6,0,L|469:151,3,35,2|0|2|0,1:2|0:0|0:0|0:0,0:0:0:0:
465,171,23555,2,0,L|451:250,1,70,10|2,0:0|0:0,0:0:0:0:
438,308,23942,6,0,L|428:357,3,35,6|0|2|0,0:1|0:0|0:1|0:0,0:0:0:0:
409,370,24329,2,0,L|360:360,3,35,0|0|2|0,0:0|0:0|1:0|0:0,0:0:0:0:
347,341,24716,2,0,L|357:292,3,35,6|0|2|0,1:0|0:0|0:1|0:0,0:0:0:0:
363,272,25103,2,0,L|314:262,3,35,0|0|6|0,0:0|0:0|1:0|0:0,0:0:0:0:
294,256,25490,6,0,B|251:292|236:365|236:365|235:267|171:227,1,280,6|2,1:0|0:0,0:0:0:0:
106,219,26458,1,2,0:0:0:0:
35,222,26651,1,2,0:0:0:0:
4,284,26845,1,2,0:0:0:0:
6,354,27038,6,0,L|86:344,1,70,4|0,1:0|1:0,0:0:0:0:
143,327,27426,1,8,0:0:0:0:
206,352,27619,2,0,P|186:286|199:218,1,140,0|0,0:0|1:0,0:0:0:0:
199,218,28200,1,8,0:0:0:0:
263,188,28393,2,0,L|269:149,2,35,2|0|2,0:0|0:0|0:0,0:0:0:0:
329,211,28780,1,0,1:0:0:0:
388,246,28974,2,0,P|394:306|358:376,1,140,8|2,0:0|0:0,0:0:0:0:
358,375,29555,1,0,1:0:0:0:
290,355,29748,1,8,0:0:0:0:
290,355,29845,2,0,L|214:365,1,70,0|0,1:0|1:0,0:0:0:0:
185,368,30135,6,0,L|201:288,1,70,0|0,1:0|0:0,0:0:0:0:
215,230,30522,1,8,0:0:0:0:
175,172,30716,2,0,B|119:177|119:177|102:194|102:194|42:198,1,140,2|0,0:0|1:0,0:0:0:0:
6,138,31297,2,0,P|4:106|19:63,1,70,8|0,0:0|0:0,0:0:0:0:
77,37,31684,2,0,L|188:23,2,105,2|2|2,0:0|0:0|0:0,0:0:0:0:
75,106,32458,2,0,P|107:122|142:123,1,70,2|0,0:0|1:0,0:0:0:0:
206,151,32845,2,0,L|232:77,1,70,8|0,0:0|0:0,0:0:0:0:
282,39,33232,6,0,L|367:30,1,70,0|0,1:0|1:0,0:0:0:0:
418,10,33619,1,8,0:0:0:0:
484,30,33813,2,0,P|489:99|470:166,1,140,0|0,0:0|1:0,0:0:0:0:
417,212,34393,2,0,L|477:257,1,70,8|2,0:0|0:0,0:0:0:0:
475,324,34780,2,0,B|406:311|421:362|341:343,1,140,2|8,0:0|0:0,0:0:0:0:
271,342,35361,1,0,0:0:0:0:
209,305,35555,2,0,P|160:312|111:352,2,105,2|2|0,0:0|0:0|1:0,0:0:0:0:
271,274,36329,6,0,P|275:239|266:204,1,70,0|0,1:0|1:0,0:0:0:0:
220,153,36716,1,8,0:0:0:0:
150,140,36909,2,0,L|155:101,2,35,0|0|0,0:0|0:0|0:0,0:0:0:0:
81,155,37297,1,0,1:0:0:0:
30,203,37490,2,0,L|34:294,1,70,8|2,0:0|0:0,0:0:0:0:
86,316,37877,2,0,P|44:344|-4:332,2,105,2|2|0,0:0|0:0|0:0,0:0:0:0:
154,295,38651,2,0,L|164:383,1,70,2|0,0:0|1:0,0:0:0:0:
231,359,39038,2,0,L|220:270,1,70,2|2,0:0|3:2,0:0:0:0:
319,232,39426,6,0,L|304:371,1,140,6|8,1:1|0:0,0:0:0:0:
373,372,40006,2,0,P|447:370|498:331,1,140,2|2,0:1|1:1,0:0:0:0:
505,261,40587,2,0,P|470:258|433:271,1,70,8|2,0:0|0:1,0:0:0:0:
424,281,40877,1,0,1:0:0:0:
424,281,40974,6,0,L|440:204,1,70,2|2,1:1|0:1,0:0:0:0:
453,144,41361,1,8,0:0:0:0:
473,76,41555,2,0,L|508:68,2,35,2|0|2,0:1|0:0|0:1,0:0:0:0:
415,36,41942,1,2,1:1:0:0:
345,40,42135,2,0,L|358:120,1,70,8|2,0:0|0:1,0:0:0:0:
313,165,42522,6,0,P|250:140|220:78,1,140,2|8,1:1|0:0,0:0:0:0:
174,26,43103,2,0,L|31:12,1,140,2|2,0:1|1:1,0:0:0:0:
3,75,43684,2,0,P|-3:117|9:156,1,70,8|2,0:0|0:1,0:0:0:0:
11,158,43974,1,0,0:0:0:0:
11,158,44071,6,0,L|95:146,1,70,2|2,1:1|1:0,0:0:0:0:
147,168,44458,1,8,0:0:0:0:
182,228,44651,1,2,0:1:0:0:
164,295,44845,1,2,0:1:0:0:
109,338,45038,2,0,L|115:374,2,35,2|0|8,1:1|0:0|0:0,0:0:0:0:
40,322,45426,1,2,1:1:0:0:
3,262,45619,6,0,L|150:234,1,140,2|10,1:1|0:0,0:0:0:0:
195,191,46200,2,0,L|217:37,1,140,2|2,0:1|1:1,0:0:0:0:
277,21,46780,1,0,0:0:0:0:
346,17,46974,1,0,0:0:0:0:
346,17,47071,1,0,0:0:0:0:
346,17,47167,6,0,L|337:92,1,70,2|2,1:1|1:1,0:0:0:0:
348,155,47555,1,8,0:0:0:0:
415,172,47748,1,2,0:1:0:0:
482,190,47942,2,0,P|490:131|476:77,2,105,2|2|2,0:1|0:0|1:2,0:0:0:0:
414,172,48716,6,0,P|406:241|421:309,1,140,2|8,1:1|0:0,0:0:0:0:
481,344,49297,2,0,P|496:337|511:313,2,35,2|0|2,0:1|0:0|0:1,0:0:0:0:
421,309,49684,1,2,1:1:0:0:
357,338,49877,2,0,P|325:325|288:324,1,70,8|2,0:0|1:1,0:0:0:0:
224,348,50264,5,2,0:0:0:0:
224,348,51232,5,0,0:0:0:0:
224,348,51329,1,0,0:0:0:0:
224,348,51426,2,0,P|189:344|156:355,1,70,0|0,1:0|0:0,0:0:0:0:
72,359,51813,6,0,L|95:189,1,167.999994873047,4|8,0:1|0:0,0:0:0:0:
44,125,52393,1,0,0:0:0:0:
44,125,52587,2,0,P|26:86|26:45,1,83.9999974365235,0|0,1:0|0:0,0:0:0:0:
98,1,52974,2,0,P|139:5|175:25,1,83.9999974365235,8|0,0:0|0:0,0:0:0:0:
257,6,53361,6,0,L|266:185,1,167.999994873047,0|8,1:0|0:0,0:0:0:0:
251,256,53942,1,2,0:0:0:0:
219,333,54135,2,0,L|171:344,2,41.9999987182618,0|8|0,1:0|0:0|0:0,0:0:0:0:
302,323,54522,2,0,P|337:348|376:357,1,83.9999974365235,8|0,0:0|0:0,0:0:0:0:
460,350,54909,6,0,L|480:258,1,83.9999974365235,4|0,0:1|0:0,0:0:0:0:
500,186,55297,1,8,0:0:0:0:
492,102,55490,1,2,0:0:0:0:
443,31,55684,2,0,P|402:34|366:55,1,83.9999974365235,0|2,1:0|0:0,0:0:0:0:
338,135,56071,2,0,L|328:226,1,83.9999974365235,8|0,0:0|0:0,0:0:0:0:
308,300,56458,6,0,P|272:321|230:323,1,83.9999974365235,0|0,1:0|0:1,0:0:0:0:
156,282,56845,1,8,0:0:0:0:
82,240,57038,1,0,0:0:0:0:
0,257,57232,2,0,L|6:305,2,41.9999987182618,0|8|0,1:0|0:0|0:0,0:0:0:0:
31,178,57619,2,0,P|34:133|15:88,1,83.9999974365235,8|0,0:0|0:0,0:0:0:0:
54,19,58006,6,0,B|153:9|122:58|221:41,1,167.999994873047,4|8,0:1|0:0,0:0:0:0:
299,26,58587,2,0,P|381:16|458:47,1,167.999994873047,2|2,0:2|0:0,0:0:0:0:
496,121,59167,2,0,P|501:163|487:202,1,83.9999974365235,8|2,2:0|0:0,0:0:0:0:
413,243,59555,6,0,L|429:331,1,83.9999974365235,0|2,1:0|0:0,0:0:0:0:
359,375,59942,1,8,0:0:0:0:
285,335,60135,1,0,0:0:0:0:
211,375,60329,2,0,L|167:370,2,41.9999987182618,0|8|0,1:0|0:0|0:0,0:0:0:0:
285,335,60716,2,0,L|304:245,1,83.9999974365235,8|0,0:0|0:0,0:0:0:0:
320,170,61103,6,0,P|358:155|411:154,2,83.9999974365235,0|0|8,1:0|1:0|0:0,0:0:0:0:
242,201,61684,1,0,1:0:0:0:
161,177,61877,6,0,P|123:192|70:193,2,83.9999974365235,0|0|8,1:0|1:0|0:0,0:0:0:0:
225,123,62458,1,0,1:0:0:0:
242,201,62651,2,0,P|252:283|230:364,1,167.999994873047,4|0,0:1|0:0,0:0:0:0:
230,364,63426,5,0,1:0:0:0:
146,372,63619,1,2,1:2:0:0:
62,380,63813,2,0,L|79:293,1,83.9999974365235,2|2,1:2|1:2,0:0:0:0:
66,214,64200,5,4,1:0:0:0:
148,228,64393,1,2,0:0:0:0:
230,243,64587,2,0,L|324:252,1,83.9999974365235,2|0,0:0|1:0,0:0:0:0:
396,265,64974,1,2,0:1:0:0:
396,265,65071,1,0,0:0:0:0:
396,265,65167,2,0,L|411:305,2,41.9999987182618,2|0|2,0:1|0:0|0:1,0:0:0:0:
479,272,65555,1,2,0:1:0:0:
490,189,65748,5,0,1:0:0:0:
406,178,65942,1,2,0:0:0:0:
323,163,66135,2,0,L|239:154,1,83.9999974365235,0|2,1:0|0:0,0:0:0:0:
156,138,66522,1,2,0:1:0:0:
156,138,66619,1,0,0:0:0:0:
156,138,66716,2,0,L|171:98,2,41.9999987182618,2|0|2,0:1|0:0|0:1,0:0:0:0:
73,125,67103,1,2,0:1:0:0:
52,43,67297,5,0,1:0:0:0:
52,43,67490,1,0,0:0:0:0:
133,22,67684,1,8,0:0:0:0:
133,22,67877,1,0,0:0:0:0:
170,98,68071,1,2,1:1:0:0:
170,98,68264,1,2,0:1:0:0:
108,155,68458,1,10,0:1:0:0:
108,155,68651,1,2,0:1:0:0:
30,122,68845,6,0,P|18:162|36:204,1,83.9999974365235,2|2,1:2|0:0,0:0:0:0:
12,282,69232,2,0,L|99:264,1,83.9999974365235,10|2,0:0|0:0,0:0:0:0:
172,296,69619,2,0,P|183:256|166:214,1,83.9999974365235,0|2,1:1|0:0,0:0:0:0:
108,155,70006,2,0,L|195:137,1,83.9999974365235,8|2,0:1|0:0,0:0:0:0:
272,116,70393,6,0,L|282:66,3,41.9999987182618,2|0|2|0,1:1|0:0|0:0|0:0,0:0:0:0:
294,35,70780,2,0,L|344:45,3,41.9999987182618,10|0|2|0,0:1|0:0|0:0|0:0,0:0:0:0:
375,30,71167,2,0,L|425:40,3,41.9999987182618,2|0|2|0,1:1|0:0|0:0|0:0,0:0:0:0:
458,40,71555,2,0,L|469:-11,2,41.9999987182618,10|0|2,0:1|0:0|0:0,0:0:0:0:
512,102,71942,6,0,L|502:152,3,41.9999987182618,2|0|2|0,1:1|0:0|0:0|0:0,0:0:0:0:
471,170,72329,2,0,L|481:220,3,41.9999987182618,10|0|2|0,0:1|0:0|0:0|0:0,0:0:0:0:
500,247,72716,2,0,L|490:297,3,41.9999987182618,2|0|2|0,1:1|0:0|0:0|0:0,0:0:0:0:
495,330,73103,2,0,P|457:315|415:313,1,83.9999974365235,10|2,0:1|0:0,0:0:0:0:
331,312,73490,6,0,L|322:260,3,41.9999987182618,2|0|2|0,1:0|0:0|0:1|0:0,0:0:0:0:
284,286,73877,2,0,L|275:234,3,41.9999987182618,2|0|2|0,0:0|0:0|1:0|0:0,0:0:0:0:
241,267,74264,2,0,L|232:215,3,41.9999987182618,2|0|2|0,1:0|0:0|1:0|0:0,0:0:0:0:
198,248,74651,2,0,L|189:196,3,41.9999987182618,2|0|2|0,0:0|0:0|1:0|0:0,0:0:0:0:
157,232,75038,5,6,0:1:0:0:
157,232,77361,6,0,P|148:260|149:300,2,56,2|0|0,0:0|0:0|0:0,0:0:0:0:
227,196,77942,1,2,0:0:0:0:
304,206,78135,6,0,P|344:271|335:374,1,168,2|0,0:0|0:0,0:0:0:0:
262,350,78909,2,0,L|150:362,1,112,0|2,0:0|0:0,0:0:0:0:
72,368,79490,1,2,0:0:0:0:
71,367,79684,2,0,P|29:296|26:213,1,168,2|2,0:0|0:0,0:0:0:0:
74,151,80458,2,0,L|195:166,1,112,2|0,0:0|0:0,0:0:0:0:
267,297,81232,6,0,B|358:267|337:318|446:289,1,168,2|2,0:0|0:0,0:0:0:0:
498,249,82006,2,0,P|507:196|484:136,1,112,2|0,0:0|0:0,0:0:0:0:
428,90,82780,2,0,B|425:50|444:23|444:23|484:16,2,112,2|0|0,0:0|0:0|0:0,0:0:0:0:
428,90,83942,1,0,0:0:0:0:
351,72,84135,1,2,0:0:0:0:
276,46,84329,6,0,L|289:220,1,168,2|0,0:0|0:0,0:0:0:0:
254,283,85103,2,0,P|214:246|159:238,1,112,0|0,0:0|0:0,0:0:0:0:
88,272,85684,1,2,0:0:0:0:
30,219,85877,2,0,L|46:40,1,168,2|2,0:0|0:0,0:0:0:0:
121,32,86651,2,0,B|163:25|163:25|209:50,2,84,2|2|2,0:0|0:0|0:0,0:0:0:0:
101,108,87426,5,2,0:0:0:0:
256,192,87522,12,2,90135,0:0:0:0:
304,242,90522,6,0,L|445:260,1,140,4|2,0:1|0:0,0:0:0:0:
501,200,91103,2,0,P|512:147|494:62,2,140,2|2|2,0:0|0:0|0:0,0:0:0:0:
429,244,92071,2,0,L|446:383,1,140,0|0,0:0|0:0,0:0:0:0:
364,360,92651,2,0,L|358:315,2,35,2|0|2,0:0|0:0|0:0,0:0:0:0:
284,333,93038,1,0,1:0:0:0:
204,305,93232,2,0,L|211:376,1,70,0|0,0:0|1:0,0:0:0:0:
127,364,93619,6,0,L|120:222,1,140,4|2,0:1|0:0,0:0:0:0:
36,212,94200,2,0,L|43:356,2,140,2|2|2,0:0|0:0|0:0,0:0:0:0:
38,127,95167,2,0,P|94:147|179:141,2,140,0|0|2,0:0|0:0|0:0,0:0:0:0:
18,45,96135,2,0,L|6:0,2,35,2|0|2,0:0|0:0|0:0,0:0:0:0:
100,28,96522,1,0,1:0:0:0:
183,27,96716,6,0,P|195:95|179:163,1,140,4|2,0:1|0:0,0:0:0:0:
112,214,97297,1,2,0:0:0:0:
266,148,97684,1,2,0:0:0:0:
332,302,98071,1,4,0:1:0:0:
178,368,98458,2,0,P|167:334|168:299,2,70,2|2|4,0:0|0:0|1:0,0:0:0:0:
261,357,99038,2,0,L|379:375,2,105,4|2|4,0:1|0:0|0:1,0:0:0:0:
254,273,99813,6,0,P|247:217|278:139,1,140,4|0,0:1|0:0,0:0:0:0:
338,82,100393,2,0,P|382:48|468:41,1,140,2|2,0:0|0:0,0:0:0:0:
512,106,100974,1,2,0:0:0:0:
491,187,101167,1,0,0:0:0:0:
256,192,101361,12,2,102523,1:0:0:0:
441,165,102909,6,0,L|346:174,1,83.9999974365235,6|0,1:1|0:0,0:0:0:0:
302,236,103297,2,0,L|311:331,1,83.9999974365235,8|0,0:0|0:0,0:0:0:0:
398,367,103684,2,0,P|466:322|480:240,1,167.999994873047,2|10,1:0|0:1,0:0:0:0:
441,165,104264,1,0,0:0:0:0:
498,103,104458,6,0,P|501:64|488:18,1,83.9999974365235,2|0,1:0|0:0,0:0:0:0:
388,11,104845,2,0,P|385:50|398:96,1,83.9999974365235,10|2,0:1|0:1,0:0:0:0:
441,165,105232,1,0,1:0:0:0:
441,165,105329,2,0,L|351:193,1,83.9999974365235,0|0,0:0|0:0,0:0:0:0:
341,197,105619,2,0,P|316:232|317:288,1,83.9999974365235,8|0,0:0|0:0,0:0:0:0:
333,370,106006,6,0,L|423:357,2,83.9999974365235,2|0|10,1:0|0:0|0:1,0:0:0:0:
234,348,106587,1,2,0:1:0:0:
140,309,106780,2,0,P|151:270|152:218,2,83.9999974365235,0|2|8,1:0|0:1|0:0,0:0:0:0:
46,345,107361,1,2,0:1:0:0:
4,252,107555,6,0,P|5:210|16:169,2,83.9999974365235,0|2|10,1:0|0:0|0:1,0:0:0:0:
46,345,108135,1,2,0:1:0:0:
140,309,108329,1,0,1:0:0:0:
140,309,108426,1,0,0:0:0:0:
140,309,108522,1,2,1:1:0:0:
234,273,108716,1,8,0:0:0:0:
330,241,108909,1,2,0:0:0:0:
425,210,109103,6,0,L|469:44,1,167.999994873047,6|10,0:1|0:1,0:0:0:0:
386,25,109684,2,0,P|304:23|245:79,1,167.999994873047,2|2,0:1|0:1,0:0:0:0:
276,157,110264,2,0,P|281:200|265:246,1,83.9999974365235,8|0,0:0|0:0,0:0:0:0:
230,313,110651,6,0,L|143:332,1,83.9999974365235,2|2,1:1|0:1,0:0:0:0:
64,344,111038,2,0,L|80:249,1,83.9999974365235,8|0,0:0|0:0,0:0:0:0:
54,180,111426,1,2,1:0:0:0:
54,180,111522,1,2,0:0:0:0:
54,180,111619,1,2,0:1:0:0:
16,104,111813,1,8,0:0:0:0:
41,24,112006,1,0,0:0:0:0:
175,14,112200,6,0,P|192:55|186:103,1,83.9999974365235,6|2,0:1|0:1,0:0:0:0:
82,175,112587,2,0,P|123:158|171:164,1,83.9999974365235,10|2,0:1|0:1,0:0:0:0:
243,268,112974,2,0,P|226:227|232:179,1,83.9999974365235,6|2,0:1|0:1,0:0:0:0:
336,107,113361,2,0,P|295:124|247:118,1,83.9999974365235,10|2,0:1|0:1,0:0:0:0:
175,14,113748,2,0,L|342:19,1,167.999994873047,6|4,0:1|0:1,0:0:0:0:
342,19,114522,5,2,1:1:0:0:
464,79,114716,1,2,0:1:0:0:
330,103,114909,1,2,1:1:0:0:
424,5,115103,1,2,0:1:0:0:
406,139,115297,6,0,P|402:202|417:263,2,125.999996154785,6|2|6,1:1|1:1|1:0,0:0:0:0:
471,63,116071,1,2,0:0:0:0:
471,63,116167,1,2,0:0:0:0:
471,63,116264,1,2,0:0:0:0:
471,63,116361,1,2,0:0:0:0:
471,63,116458,1,2,0:0:0:0:
269,74,116845,6,0,P|329:90|399:92,2,125.999996154785,6|2|6,1:0|1:1|1:0,0:0:0:0:
172,43,117619,6,2,B|213:158|140:132|176:247,1,210,2|0,1:0|0:0,1:0:0:0:
227,336,118393,5,4,0:1:0:0:
227,336,118490,1,0,0:0:0:0:
227,336,118587,1,2,0:0:0:0:
227,336,118684,1,0,0:0:0:0:
226,336,118780,2,0,P|266:321|309:323,1,83.9999974365235,8|2,0:0|0:0,0:0:0:0:
385,353,119167,1,0,1:0:0:0:
459,315,119361,1,2,0:0:0:0:
459,315,119458,1,0,0:0:0:0:
459,315,119555,2,0,P|480:278|479:237,1,83.9999974365235,8|2,0:0|0:0,0:0:0:0:
428,169,119942,6,0,L|336:178,1,83.9999974365235,4|2,0:1|0:0,0:0:0:0:
328,94,120329,2,0,L|236:103,1,83.9999974365235,8|2,1:0|0:0,0:0:0:0:
205,176,120716,1,4,1:0:0:0:
158,105,120909,1,0,0:0:0:0:
112,175,121103,1,8,0:0:0:0:
65,104,121297,1,2,0:0:0:0:
27,179,121490,6,0,L|17:233,3,41.9999987182618,6|0|0|0,0:1|0:0|0:0|0:0,0:0:0:0:
8,260,121877,2,0,L|15:301,3,41.9999987182618,10|0|0|0,0:1|0:0|0:0|0:0,0:0:0:0:
31,340,122264,2,0,L|72:332,3,41.9999987182618,6|0|0|0,0:1|0:0|0:0|0:0,0:0:0:0:
114,334,122651,2,0,L|124:382,2,41.9999987182618,10|0|0,0:1|0:0|0:0,0:0:0:0:
191,320,123038,6,0,L|183:278,3,41.9999987182618,6|0|2|0,0:1|0:0|0:0|0:0,0:0:0:0:
186,236,123426,2,0,L|193:194,3,41.9999987182618,10|0|2|0,0:1|0:0|0:0|0:0,0:0:0:0:
201,153,123813,5,6,0:1:0:0:
221,148,123909,1,0,0:0:0:0:
241,143,124006,2,0,L|249:90,2,41.9999987182618,2|0|10,0:0|0:0|0:1,0:0:0:0:
316,30,124393,1,2,0:0:0:0:
406,73,124587,6,0,L|399:114,3,41.9999987182618,6|0|2|0,0:1|0:0|0:1|0:0,0:0:0:0:
433,139,124974,2,0,L|426:180,3,41.9999987182618,0|0|2|0,0:0|0:0|1:0|0:0,0:0:0:0:
463,201,125361,2,0,L|456:242,3,41.9999987182618,6|0|2|0,0:1|0:0|0:1|0:0,0:0:0:0:
475,280,125748,5,0,0:0:0:0:
478,300,125845,1,0,0:0:0:0:
482,320,125942,1,2,0:1:0:0:
487,340,126038,1,0,0:0:0:0:
490,360,126135,5,6,0:1:0:0:
256,192,126329,12,4,130781,1:0:0:0:
