osu file format v14

[General]
AudioFilename: audio.mp3
AudioLeadIn: 0
PreviewTime: 50263
Countdown: 0
SampleSet: Soft
StackLeniency: 0.4
Mode: 0
LetterboxInBreaks: 0
WidescreenStoryboard: 0

[Editor]
Bookmarks: 5360,27038,39425,51812,78134,90522,102909,130780
DistanceSpacing: 0.58
BeatDivisor: 4
GridSize: 32
TimelineZoom: 2.4

[Metadata]
Title:Holy Knight
TitleUnicode:Holy Knight
Artist:Eyemedia
ArtistUnicode:Eyemedia
Creator:Kloyd
Version:Expert
Source:Cytus
Tags:mozarc deemo voez rayark chapter v Hindsight instrumental video game
BeatmapID:2228175
BeatmapSetID:1064207

[Difficulty]
HPDrainRate:7
CircleSize:5
OverallDifficulty:8.5
ApproachRate:9
SliderMultiplier:1.64
SliderTickRate:1

[Events]
//Background and Video events
0,0,"BG.png",0,0
//Break Periods
//Storyboard Layer 0 (Background)
//Storyboard Layer 1 (Fail)
//Storyboard Layer 2 (Pass)
//Storyboard Layer 3 (Foreground)
//Storyboard Layer 4 (Overlay)
//Storyboard Sound Samples

[TimingPoints]
1684,387.096774193548,4,2,1,60,1,0
2264,387.096774193548,4,2,1,60,1,0
14651,-100,4,2,1,80,0,0
25489,-250,4,2,1,60,0,0
26263,-133.333333333333,4,2,1,70,0,0
27038,-133.333333333333,4,2,1,60,0,0
39425,-100,4,2,1,66,0,0
51812,-100,4,2,1,80,0,1
75038,-250,4,2,1,80,0,1
77167,-250,4,2,1,5,0,1
77360,-133.333333333333,4,2,1,60,0,0
84328,-200,4,2,1,60,0,0
89070,-200,4,2,1,66,0,0
90522,-133.333333333333,4,2,1,70,0,0
101360,-133.333333333333,4,2,1,75,0,0
102909,-90.9090909090909,4,2,1,80,0,1
126134,-200,4,2,1,75,0,0
130780,-200,4,2,1,70,0,0

[Colours]
Combo1 : 77,77,255
Combo2 : 255,153,153
Combo3 : 153,199,255
Combo4 : 255,64,64

[HitObjects]
8,226,1684,5,2,0:0:0:0:
4,241,1781,1,0,0:0:0:0:
0,256,1878,1,2,0:0:0:0:
70,324,2071,1,2,0:0:0:0:
165,303,2264,5,6,0:0:0:0:
165,303,3038,1,2,0:0:0:0:
347,81,3426,1,2,0:0:0:0:
438,50,3813,1,2,0:0:0:0:
503,123,4200,1,2,0:0:0:0:
503,123,4393,1,0,0:0:0:0:
512,256,5361,5,2,0:0:0:0:
455,336,5748,1,2,0:0:0:0:
361,305,5942,1,0,0:0:0:0:
361,207,6329,1,2,0:0:0:0:
455,176,6716,1,2,0:0:0:0:
455,176,7684,5,2,0:0:0:0:
455,336,8071,1,2,0:0:0:0:
361,207,8458,5,2,0:0:0:0:
256,285,8845,1,2,0:0:0:0:
256,285,9038,1,2,0:0:0:0:
160,64,9426,1,2,0:0:0:0:
352,64,10006,5,2,0:0:0:0:
352,64,10200,1,2,0:0:0:0:
256,192,10780,1,2,0:0:0:0:
256,192,10974,1,2,0:0:0:0:
465,324,11555,5,2,0:0:0:0:
373,287,11748,1,2,0:0:0:0:
297,350,11942,1,2,0:0:0:0:
205,316,12135,1,2,0:0:0:0:
120,366,12329,5,2,0:0:0:0:
185,291,12522,1,2,0:0:0:0:
180,193,12716,1,2,0:0:0:0:
112,120,12909,1,2,0:0:0:0:
16,99,13103,5,2,0:0:0:0:
26,295,13490,1,2,0:0:0:0:
112,120,13877,1,2,0:0:0:0:
208,137,14071,1,2,0:0:0:0:
304,154,14264,1,2,0:0:0:0:
378,89,14458,1,2,0:0:0:0:
484,189,14651,5,4,0:1:0:0:
388,172,14845,1,0,0:0:0:0:
491,267,15038,1,8,0:0:0:0:
401,308,15232,1,2,0:0:0:0:
474,41,15426,5,0,1:0:0:0:
475,37,15522,1,0,0:0:0:0:
476,34,15619,1,2,0:0:0:0:
477,30,15716,1,0,0:0:0:0:
478,26,15813,1,8,0:0:0:0:
394,74,16006,1,0,0:0:0:0:
260,11,16200,5,0,1:0:0:0:
285,106,16393,1,2,0:0:0:0:
181,7,16587,1,8,0:0:0:0:
155,101,16780,1,2,0:0:0:0:
17,40,16974,5,0,1:0:0:0:
16,36,17071,1,8,0:0:0:0:
15,32,17167,1,2,0:0:0:0:
15,28,17264,1,0,0:0:0:0:
15,24,17361,1,8,0:0:0:0:
7,116,17555,1,2,0:0:0:0:
7,116,17651,1,0,0:0:0:0:
7,116,17748,6,0,L|13:203,1,82,0|2,1:0|0:0,0:0:0:0:
20,329,18135,1,8,0:0:0:0:
69,243,18329,1,0,0:0:0:0:
210,381,18522,5,0,1:0:0:0:
214,381,18619,1,0,0:0:0:0:
218,381,18716,1,2,0:0:0:0:
222,381,18813,1,0,0:0:0:0:
227,381,18909,1,8,0:0:0:0:
138,382,19103,1,2,0:0:0:0:
346,363,19297,5,2,1:2:0:0:
368,338,19393,1,0,0:0:0:0:
399,328,19490,1,2,0:0:0:0:
431,333,19587,1,0,0:0:0:0:
456,353,19684,5,10,0:0:0:0:
439,353,19780,1,0,0:0:0:0:
423,348,19877,1,2,0:0:0:0:
409,339,19974,1,0,0:0:0:0:
399,328,20071,5,2,1:2:0:0:
391,295,20167,1,8,0:0:0:0:
397,263,20264,1,2,0:0:0:0:
415,235,20361,1,0,0:0:0:0:
444,223,20458,6,0,L|433:271,1,41,10|0,0:0|0:0,0:0:0:0:
318,307,20651,2,0,L|327:267,1,41,2|0,0:0|0:0,0:0:0:0:
418,29,20845,5,2,1:2:0:0:
422,28,20942,1,0,0:0:0:0:
425,29,21038,1,2,0:0:0:0:
429,28,21135,1,0,0:0:0:0:
478,25,21232,5,10,0:0:0:0:
473,40,21329,1,0,0:0:0:0:
471,56,21426,1,2,0:0:0:0:
471,72,21522,1,0,0:0:0:0:
468,120,21619,5,2,1:2:0:0:
446,108,21716,1,0,0:0:0:0:
422,100,21813,1,2,0:0:0:0:
397,98,21909,1,0,0:0:0:0:
350,113,22006,5,10,0:0:0:0:
364,83,22103,1,0,0:0:0:0:
366,50,22200,1,2,0:0:0:0:
358,18,22297,1,0,0:0:0:0:
312,0,22393,5,2,1:2:0:0:
281,26,22490,1,0,0:0:0:0:
240,19,22587,1,2,0:0:0:0:
209,45,22684,1,0,0:0:0:0:
165,35,22780,6,0,P|172:54|177:73,1,41,10|0,0:0|0:0,0:0:0:0:
194,209,22974,2,0,P|173:205|154:200,1,41,2|0,0:0|0:0,0:0:0:0:
55,117,23167,5,2,1:2:0:0:
103,122,23264,1,0,0:0:0:0:
140,153,23361,1,2,0:0:0:0:
154,200,23458,1,0,0:0:0:0:
153,249,23555,5,10,0:0:0:0:
16,197,23748,1,2,0:0:0:0:
250,82,23942,5,6,0:1:0:0:
263,109,24038,1,0,0:0:0:0:
273,138,24135,1,2,0:1:0:0:
281,168,24232,1,0,0:0:0:0:
283,192,24329,1,0,0:0:0:0:
284,212,24426,1,0,0:0:0:0:
283,228,24522,1,2,1:0:0:0:
281,244,24619,1,0,0:0:0:0:
276,261,24716,5,6,1:0:0:0:
260,265,24813,1,0,0:0:0:0:
243,268,24909,1,2,0:1:0:0:
227,271,25006,1,0,0:0:0:0:
196,258,25103,5,0,0:0:0:0:
215,282,25200,1,0,0:0:0:0:
226,311,25297,1,6,1:0:0:0:
227,341,25393,1,0,0:0:0:0:
219,371,25490,6,0,L|94:363,1,114.8,6|0,1:0|0:0,0:0:0:0:
92,369,26264,5,2,0:0:0:0:
173,339,26458,1,2,0:0:0:0:
255,363,26651,1,2,0:0:0:0:
336,333,26845,1,2,0:0:0:0:
418,357,27038,5,4,1:2:0:0:
418,357,27232,1,0,1:0:0:0:
398,272,27426,1,8,0:0:0:0:
336,333,27619,1,0,0:0:0:0:
336,333,28006,1,0,1:0:0:0:
255,363,28200,1,8,0:0:0:0:
173,339,28393,1,2,0:0:0:0:
154,341,28490,1,0,0:0:0:0:
135,343,28587,5,2,0:0:0:0:
52,367,28780,1,0,1:0:0:0:
20,174,28974,2,0,L|3:296,1,123.000004692078,8|2,0:0|0:0,0:0:0:0:
3,296,29555,1,0,1:0:0:0:
81,145,29748,1,8,0:0:0:0:
99,141,29845,1,0,1:0:0:0:
167,192,30038,1,0,1:0:0:0:
185,196,30135,5,0,1:0:0:0:
185,196,30329,1,0,0:0:0:0:
264,162,30522,1,8,0:0:0:0:
325,222,30716,1,2,0:0:0:0:
325,222,31103,1,0,1:0:0:0:
404,188,31297,2,0,L|507:204,1,92.2500035190584,8|0,0:0|0:0,0:0:0:0:
512,209,31684,5,2,0:0:0:0:
512,209,31877,1,0,1:0:0:0:
404,294,32071,2,0,P|389:250|396:205,1,92.2500035190584,8|0,0:0|0:0,0:0:0:0:
404,187,32458,2,0,L|480:174,1,61.5000023460389,2|0,0:0|1:0,0:0:0:0:
510,36,32845,1,8,0:0:0:0:
510,36,32942,2,0,P|513:66|508:96,1,61.5000023460389,0|0,1:0|0:0,0:0:0:0:
502,114,33232,5,0,1:0:0:0:
502,114,33426,1,0,1:0:0:0:
420,85,33619,1,8,0:0:0:0:
344,127,33813,1,0,0:0:0:0:
344,127,34200,1,0,1:0:0:0:
316,45,34393,1,8,0:0:0:0:
233,22,34587,1,2,0:0:0:0:
165,75,34780,5,2,0:0:0:0:
165,75,34974,1,0,1:0:0:0:
40,180,35167,2,0,L|162:161,1,123.000004692078,8|2,0:0|0:0,0:0:0:0:
162,161,35748,1,0,1:0:0:0:
65,96,35942,1,8,0:0:0:0:
57,112,36038,1,0,1:0:0:0:
13,257,36232,1,0,0:0:0:0:
5,241,36329,5,0,1:0:0:0:
5,241,36522,1,0,1:0:0:0:
75,192,36716,1,8,0:0:0:0:
159,210,36909,1,0,0:0:0:0:
159,210,37006,1,0,0:0:0:0:
159,210,37103,1,0,0:0:0:0:
238,177,37297,1,0,1:0:0:0:
307,314,37490,1,8,0:0:0:0:
386,281,37684,1,2,0:0:0:0:
446,341,37877,5,2,0:0:0:0:
446,341,38071,1,0,1:0:0:0:
366,372,38264,1,8,0:0:0:0:
307,314,38458,1,0,0:0:0:0:
307,314,38555,1,0,0:0:0:0:
307,314,38651,5,2,0:0:0:0:
417,314,38845,1,0,1:0:0:0:
509,374,39038,1,2,0:0:0:0:
477,268,39232,1,2,3:2:0:0:
498,159,39426,6,0,P|493:199|503:239,1,82,6|2,1:1|0:1,0:0:0:0:
503,239,39813,1,8,0:0:0:0:
488,70,40006,1,2,0:1:0:0:
421,115,40200,2,0,P|459:98|488:69,1,82,2|2,0:1|1:1,0:0:0:0:
488,70,40587,1,8,0:0:0:0:
422,203,40780,1,2,0:1:0:0:
422,203,40877,1,0,1:0:0:0:
422,203,40974,6,0,P|389:178|350:167,1,82,2|2,1:1|0:1,0:0:0:0:
350,167,41361,1,8,0:0:0:0:
255,258,41555,1,2,0:1:0:0:
255,258,41651,1,0,0:0:0:0:
255,258,41748,1,2,0:1:0:0:
179,197,41942,1,2,1:1:0:0:
193,98,42135,1,8,0:0:0:0:
286,64,42329,1,2,0:1:0:0:
286,64,42426,1,0,0:0:0:0:
286,64,42522,5,2,1:1:0:0:
118,125,42716,2,0,P|158:118|194:98,1,82,2|8,2:1|0:0,0:0:0:0:
193,98,43103,1,2,0:1:0:0:
30,150,43297,1,2,0:1:0:0:
91,203,43490,2,0,P|65:171|30:150,1,82,2|8,1:1|0:0,0:0:0:0:
87,13,43877,1,2,0:1:0:0:
87,13,43974,1,0,0:0:0:0:
87,13,44071,6,0,P|66:48|57:88,1,82,2|2,1:1|1:0,0:0:0:0:
57,88,44458,1,8,0:0:0:0:
106,173,44651,1,2,0:1:0:0:
202,188,44845,5,2,0:1:0:0:
268,39,45038,1,2,1:1:0:0:
268,39,45135,1,0,0:0:0:0:
268,39,45232,2,0,L|274:121,1,82,8|2,0:0|1:1,0:0:0:0:
324,242,45619,6,0,B|389:248|389:248|412:271|412:271|480:280,1,164,2|10,1:1|0:0,0:0:0:0:
407,149,46200,2,0,B|389:187|389:187|406:224,1,82,2|2,0:1|0:1,0:0:0:0:
409,365,46587,2,0,B|384:330|384:330|343:326,1,82,2|8,1:1|0:0,0:0:0:0:
220,258,46974,1,2,0:1:0:0:
220,258,47071,1,0,0:0:0:0:
220,258,47167,6,0,B|261:253|261:253|285:220,1,82,2|2,1:1|1:1,0:0:0:0:
285,221,47555,1,8,0:0:0:0:
255,365,47748,1,2,0:1:0:0:
172,311,47942,2,0,P|111:307|57:334,2,123,2|2|2,0:1|0:0|1:2,0:0:0:0:
172,311,48619,1,0,1:0:0:0:
172,311,48716,5,2,1:1:0:0:
238,384,48909,1,2,0:1:0:0:
232,286,49103,1,8,0:0:0:0:
298,213,49297,1,2,0:1:0:0:
298,213,49393,1,0,0:0:0:0:
298,213,49490,1,2,0:1:0:0:
392,239,49684,1,2,1:1:0:0:
482,201,49877,1,8,0:0:0:0:
485,184,49974,1,0,0:0:0:0:
488,167,50071,1,2,1:1:0:0:
491,150,50167,1,0,0:0:0:0:
494,134,50264,5,2,0:0:0:0:
472,145,50361,1,0,0:0:0:0:
447,150,50458,1,0,0:0:0:0:
422,149,50555,1,0,0:0:0:0:
398,141,50651,5,2,0:0:0:0:
377,115,50748,1,0,0:0:0:0:
371,82,50845,1,2,0:0:0:0:
384,52,50942,1,0,0:0:0:0:
405,17,51038,6,0,P|444:5|484:5,1,82,0|0,0:1|0:0,0:0:0:0:
484,5,51329,1,0,0:0:0:0:
484,5,51426,1,0,1:0:0:0:
377,115,51619,1,0,0:0:0:0:
280,75,51813,6,0,P|241:63|201:63,1,82,4|0,0:1|0:0,0:0:0:0:
115,13,52200,2,0,P|114:53|102:92,1,82,8|0,0:0|0:0,0:0:0:0:
52,178,52587,2,0,P|92:178|131:190,1,82,0|0,1:0|0:0,0:0:0:0:
217,241,52974,2,0,P|217:200|229:161,1,82,8|0,0:0|0:0,0:0:0:0:
101,92,53361,5,0,1:0:0:0:
228,161,53555,1,0,0:0:0:0:
52,178,53748,1,8,0:0:0:0:
280,75,53942,1,2,0:0:0:0:
166,124,54135,1,0,1:0:0:0:
166,124,54232,1,8,0:0:0:0:
32,52,54426,1,0,0:0:0:0:
32,52,54522,1,8,0:0:0:0:
37,205,54716,1,0,0:0:0:0:
148,233,54909,6,0,P|188:226|222:204,1,82,4|0,0:1|0:0,0:0:0:0:
301,121,55297,2,0,P|307:161|329:195,1,82,8|2,0:0|0:0,0:0:0:0:
412,273,55684,2,0,P|371:279|337:301,1,82,0|2,1:0|0:0,0:0:0:0:
260,384,56071,2,0,P|253:343|231:309,1,82,8|0,0:0|0:0,0:0:0:0:
148,233,56458,5,0,1:0:0:0:
412,273,56651,1,0,0:1:0:0:
231,309,56845,1,8,0:0:0:0:
329,195,57038,1,0,0:0:0:0:
276,250,57232,5,0,1:0:0:0:
276,250,57329,2,0,L|262:340,1,82,8|0,0:0|0:0,0:0:0:0:
144,266,57619,2,0,P|170:235|208:220,1,82,8|0,0:0|0:0,0:0:0:0:
356,302,58006,6,0,P|349:342|324:374,1,82,4|0,0:1|0:0,0:0:0:0:
324,373,58393,1,8,0:0:0:0:
302,221,58587,2,0,P|366:268|451:282,1,164,2|2,0:2|0:0,0:0:0:0:
455,167,59167,2,0,P|418:152|375:156,1,82,8|2,2:0|0:0,0:0:0:0:
302,221,59555,5,0,1:0:0:0:
447,282,59748,1,2,0:0:0:0:
498,141,59942,2,0,L|376:155,1,123,8|0,0:0|0:0,0:0:0:0:
358,155,60329,2,0,P|356:135|363:116,2,41,0|8|0,1:0|0:0|0:0,0:0:0:0:
263,43,60716,2,0,P|285:101|280:161,1,123,8|0,0:0|0:0,0:0:0:0:
273,177,61103,5,0,1:0:0:0:
191,164,61297,1,0,1:0:0:0:
110,152,61490,1,8,0:0:0:0:
28,140,61684,1,0,1:0:0:0:
44,335,61877,5,0,1:0:0:0:
93,249,62071,1,0,1:0:0:0:
110,152,62264,1,8,0:0:0:0:
98,54,62458,1,0,1:0:0:0:
15,0,62651,6,0,B|25:213|25:213|29:174|54:142,1,287,4|0,0:1|0:0,0:0:0:0:
79,127,63426,5,0,1:0:0:0:
109,114,63522,1,2,2:0:0:0:
142,109,63619,1,2,1:2:0:0:
175,112,63716,1,2,2:0:0:0:
207,123,63813,1,2,1:2:0:0:
235,141,63909,1,2,2:0:0:0:
257,166,64006,1,2,1:2:0:0:
274,194,64103,1,2,2:0:0:0:
283,226,64200,5,4,1:0:0:0:
50,307,64393,1,2,0:0:0:0:
102,243,64587,1,2,0:0:0:0:
63,337,64780,1,0,1:0:0:0:
17,146,64974,5,2,0:1:0:0:
33,149,65071,1,0,0:0:0:0:
49,152,65167,1,2,0:1:0:0:
64,155,65264,1,0,0:0:0:0:
80,158,65361,1,2,0:1:0:0:
31,229,65555,1,2,0:1:0:0:
62,68,65748,5,0,1:0:0:0:
252,122,65942,1,2,0:0:0:0:
266,40,66135,1,0,1:0:0:0:
219,131,66329,1,2,0:0:0:0:
411,82,66522,5,2,0:1:0:0:
408,66,66619,1,0,0:0:0:0:
405,50,66716,1,2,0:1:0:0:
402,35,66813,1,0,0:0:0:0:
399,19,66909,1,2,0:1:0:0:
325,61,67103,1,2,0:1:0:0:
486,29,67297,5,0,1:0:0:0:
360,180,67490,1,0,0:0:0:0:
399,108,67684,1,8,0:0:0:0:
500,235,67877,1,0,0:0:0:0:
412,122,68071,5,2,1:1:0:0:
412,122,68167,1,0,0:0:0:0:
412,122,68264,1,2,0:1:0:0:
412,122,68361,1,0,0:0:0:0:
412,122,68458,2,0,L|403:207,1,82,10|2,0:1|0:1,0:0:0:0:
425,351,68845,5,2,1:2:0:0:
397,320,68942,1,0,0:0:0:0:
361,301,69038,1,2,0:0:0:0:
321,295,69135,1,0,0:0:0:0:
281,304,69232,5,10,0:0:0:0:
267,313,69329,1,0,0:0:0:0:
254,324,69426,1,2,0:0:0:0:
245,337,69522,1,0,0:0:0:0:
239,352,69619,5,0,1:1:0:0:
236,359,69716,1,8,0:0:0:0:
233,366,69813,2,0,L|192:358,1,41,2|0,0:0|0:0,0:0:0:0:
139,321,70006,1,8,0:1:0:0:
84,358,70200,1,2,0:0:0:0:
23,170,70393,5,2,1:1:0:0:
28,176,70490,1,0,0:0:0:0:
31,183,70587,1,2,0:0:0:0:
34,190,70684,1,0,0:0:0:0:
70,170,70780,5,10,0:1:0:0:
76,185,70877,1,0,0:0:0:0:
81,200,70974,1,2,0:0:0:0:
82,216,71071,1,0,0:0:0:0:
120,201,71167,5,2,1:1:0:0:
122,225,71264,1,0,0:0:0:0:
121,249,71361,1,2,0:0:0:0:
114,273,71458,1,0,0:0:0:0:
155,273,71555,5,10,0:1:0:0:
151,303,71651,1,0,0:0:0:0:
141,333,71748,1,2,0:0:0:0:
125,359,71845,1,0,0:0:0:0:
86,374,71942,5,2,1:1:0:0:
86,324,72038,1,0,0:0:0:0:
72,277,72135,1,2,0:0:0:0:
27,299,72232,1,0,0:0:0:0:
0,340,72329,6,0,P|2:360|13:377,1,41,10|0,0:1|0:0,0:0:0:0:
164,340,72522,2,0,P|162:320|151:303,1,41,2|0,0:0|0:0,0:0:0:0:
23,170,72716,5,2,1:1:0:0:
53,197,72813,1,0,0:0:0:0:
91,211,72909,1,2,0:0:0:0:
132,212,73006,1,0,0:0:0:0:
170,198,73103,1,10,0:1:0:0:
256,21,73297,1,2,0:0:0:0:
256,21,73490,5,2,1:0:0:0:
269,51,73587,1,0,0:0:0:0:
289,78,73684,1,2,0:1:0:0:
313,100,73780,1,0,0:0:0:0:
342,117,73877,1,2,0:0:0:0:
373,129,73974,1,0,0:0:0:0:
406,133,74071,1,2,1:0:0:0:
439,131,74167,1,0,0:0:0:0:
471,122,74264,5,2,1:0:0:0:
469,106,74361,1,0,0:0:0:0:
461,91,74458,1,2,1:0:0:0:
451,77,74555,1,0,0:0:0:0:
439,65,74651,5,2,0:0:0:0:
414,85,74748,1,0,0:0:0:0:
400,115,74845,1,2,1:0:0:0:
396,147,74942,1,0,0:0:0:0:
405,178,75038,6,0,B|469:192|509:161|509:161|444:233|465:345|465:345|466:313|489:296,1,360.8,6|0,0:1|0:0,0:0:0:0:
487,296,77361,5,2,0:0:0:0:
415,279,77555,1,0,0:0:0:0:
341,284,77748,1,0,0:0:0:0:
275,318,77942,1,2,0:0:0:0:
232,377,78135,1,2,0:0:0:0:
232,377,79297,5,2,0:0:0:0:
259,308,79490,1,2,0:0:0:0:
286,239,79684,1,2,0:0:0:0:
286,239,80264,5,2,0:0:0:0:
259,308,80458,1,2,0:0:0:0:
232,377,80845,1,0,0:0:0:0:
139,261,81232,5,2,0:0:0:0:
212,249,81813,1,2,0:0:0:0:
286,239,82006,5,2,0:0:0:0:
232,377,82393,1,0,0:0:0:0:
185,319,82780,1,2,0:0:0:0:
185,319,83942,1,0,0:0:0:0:
286,239,84135,1,2,0:0:0:0:
232,377,84329,6,0,B|169:303|63:321|63:321|85:336|84:373,1,246,2|0,0:0|0:0,0:0:0:0:
84,373,85684,1,2,0:0:0:0:
0,163,85877,6,0,P|16:222|12:283,1,123,2|2,0:0|0:0,0:0:0:0:
12,283,86651,1,2,0:0:0:0:
80,213,86942,1,2,0:0:0:0:
0,163,87232,1,2,0:0:0:0:
67,92,87426,5,2,0:0:0:0:
67,92,87619,1,0,0:0:0:0:
67,92,87813,1,0,0:0:0:0:
130,39,88006,1,0,0:0:0:0:
130,39,88103,1,2,0:0:0:0:
207,67,88297,1,2,0:0:0:0:
221,148,88490,1,0,0:0:0:0:
221,148,88587,1,2,0:0:0:0:
159,201,88780,1,0,0:0:0:0:
81,172,88974,5,2,0:0:0:0:
256,192,89071,12,2,90329,0:0:0:0:
402,68,90522,6,0,L|473:62,1,61.5,4|0,0:1|0:0,0:0:0:0:
463,62,90909,1,2,0:0:0:0:
341,36,91103,2,0,P|367:90|369:151,2,123.000004692078,2|2|2,0:0|0:0|0:0,0:0:0:0:
250,56,92071,2,0,P|251:117|277:172,1,123.000004692078
277,172,92651,5,2,0:0:0:0:
255,162,92748,1,0,0:0:0:0:
230,162,92845,1,2,0:0:0:0:
127,36,93038,2,0,P|123:73|147:128,1,92.2500035190584,0|0,1:0|0:0,0:0:0:0:
139,245,93426,2,0,P|148:232|152:218,1,30.7500011730195,0|0,1:0|0:0,0:0:0:0:
174,169,93619,6,0,L|36:184,1,123.000004692078,4|2,0:1|0:0,0:0:0:0:
11,99,94200,2,0,L|133:85,2,123.000004692078,2|2|2,0:0|0:0|0:0,0:0:0:0:
42,0,95167,6,0,L|31:122,1,123.000004692078
31,122,95942,1,2,0:0:0:0:
46,212,96135,2,0,L|28:259,2,30.7500011730195,2|0|2,0:0|0:0|0:0,0:0:0:0:
66,198,96426,1,0,0:0:0:0:
90,193,96522,2,0,L|124:204,1,30.7500011730195,0|0,1:0|0:0,0:0:0:0:
237,237,96716,5,4,0:1:0:0:
116,376,97103,1,2,0:0:0:0:
23,273,97297,2,0,L|144:294,1,123.000004692078,2|2,0:0|0:0,0:0:0:0:
144,294,98071,5,4,0:1:0:0:
298,193,98458,1,2,0:0:0:0:
317,283,98651,1,2,0:0:0:0:
361,202,98845,1,4,1:0:0:0:
317,283,99038,2,0,P|303:322|301:378,2,92.2500035190584,4|2|4,0:1|0:0|0:1,0:0:0:0:
361,202,99813,5,4,0:1:0:0:
468,351,100200,1,0,0:0:0:0:
375,342,100393,1,2,0:0:0:0:
448,107,100780,1,2,0:0:0:0:
512,257,101167,1,2,0:0:0:0:
361,202,101361,5,2,0:0:0:0:
376,190,101458,1,0,0:0:0:0:
393,181,101555,1,0,0:0:0:0:
411,175,101651,1,0,0:0:0:0:
430,172,101748,1,2,0:0:0:0:
449,172,101845,1,0,0:0:0:0:
468,174,101942,1,2,0:0:0:0:
486,180,102038,1,0,0:0:0:0:
503,189,102135,5,2,0:0:0:0:
341,37,102329,1,2,0:1:0:0:
341,37,102426,1,2,0:1:0:0:
341,36,102522,2,0,P|338:66|347:99,1,61.5000023460389,2|2,1:0|0:1,0:0:0:0:
454,108,102909,6,0,P|465:64|458:20,1,90.2000027526856,6|0,1:1|0:0,0:0:0:0:
341,36,103297,2,0,P|347:80|370:119,1,90.2000027526856,8|0,0:0|0:0,0:0:0:0:
457,205,103684,2,0,P|415:188|370:188,1,90.2000027526856,2|0,1:2|2:2,1:2:0:0:
270,146,104071,2,0,L|285:285,1,135.300004129028,10|0,0:1|0:0,0:0:0:0:
286,298,104458,5,2,1:0:0:0:
197,316,104651,1,0,0:0:0:0:
100,328,104845,1,10,0:1:0:0:
189,310,105038,1,2,0:1:0:0:
278,292,105232,1,0,1:0:0:0:
280,295,105329,1,0,0:0:0:0:
282,298,105426,1,2,0:0:0:0:
92,336,105619,2,0,L|102:247,1,90.2000027526856,8|0,0:0|0:0,0:0:0:0:
95,229,105909,1,0,0:0:0:0:
88,212,106006,5,2,1:0:0:0:
0,222,106200,1,0,0:0:0:0:
92,336,106393,1,10,0:1:0:0:
180,326,106587,1,2,0:1:0:0:
176,202,106780,5,0,1:0:0:0:
88,212,106974,1,2,0:1:0:0:
88,84,107167,1,8,0:0:0:0:
0,94,107361,1,2,0:1:0:0:
0,222,107555,5,0,1:0:0:0:
88,212,107748,1,2,0:0:0:0:
88,84,107942,1,10,0:1:0:0:
176,74,108135,1,2,0:1:0:0:
88,212,108329,5,0,1:0:0:0:
88,212,108426,1,0,0:0:0:0:
88,212,108522,1,2,1:1:0:0:
88,84,108716,1,8,0:0:0:0:
264,64,108909,1,2,0:0:0:0:
264,64,109006,1,0,0:0:0:0:
264,64,109103,6,0,B|253:136|253:136|263:160|263:160|253:241,1,180.400005505371,6|10,0:1|0:1,0:0:0:0:
142,362,109684,2,0,P|152:318|177:281,1,90.2000027526856,2|0,0:1|1:0,0:0:0:0:
322,287,110071,2,0,P|345:325|353:369,1,90.2000027526856,2|8,0:1|0:0,0:0:0:0:
247,373,110458,1,0,0:0:0:0:
253,241,110651,5,2,1:1:0:0:
247,373,110845,1,2,0:1:0:0:
253,241,111038,2,0,L|396:231,1,135.300004129028,8|0,0:0|0:0,0:0:0:0:
406,231,111426,2,0,L|424:184,2,45.1000013763428,2|2|2,1:0|0:0|0:1,0:0:0:0:
353,369,111813,1,8,0:0:0:0:
277,168,112006,1,0,0:0:0:0:
277,168,112103,1,0,0:0:0:0:
277,168,112200,6,0,L|261:211,1,45.1000013763428,6|0,0:1|0:0,0:0:0:0:
355,157,112393,2,0,L|339:200,1,45.1000013763428,2|0,0:1|0:0,0:0:0:0:
434,146,112587,2,0,L|418:189,1,45.1000013763428,10|0,0:1|0:0,0:0:0:0:
512,135,112780,2,0,L|496:178,1,45.1000013763428,2|0,0:1|0:0,0:0:0:0:
451,21,112974,6,0,L|494:5,1,45.1000013763428,6|0,0:1|0:0,0:0:0:0:
434,146,113167,2,0,L|477:130,1,45.1000013763428,2|0,0:1|0:0,0:0:0:0:
329,47,113361,2,0,L|372:31,1,45.1000013763428,10|0,0:1|0:0,0:0:0:0:
312,172,113555,2,0,L|355:156,1,45.1000013763428,2|0,0:1|0:0,0:0:0:0:
256,22,113748,5,6,0:1:0:0:
244,310,114135,1,4,0:1:0:0:
2,152,114522,1,2,1:1:0:0:
28,146,114619,1,0,0:0:0:0:
52,158,114716,1,2,0:1:0:0:
78,152,114813,1,0,0:0:0:0:
96,172,114909,1,2,1:1:0:0:
122,166,115006,1,0,0:0:0:0:
139,186,115103,1,2,0:1:0:0:
165,180,115200,1,0,0:0:0:0:
182,200,115297,6,0,P|182:249|156:296,1,90.2000027526856,6|2,1:1|0:0,0:0:0:0:
96,330,115587,2,0,P|138:305|192:304,1,90.2000027526856,2|0,1:1|0:0,0:0:0:0:
248,348,115877,2,0,P|228:337|214:319,1,45.1000013763428,6|0,1:0|0:0,0:0:0:0:
182,200,116071,1,2,0:0:0:0:
182,200,116167,1,2,0:0:0:0:
182,200,116264,1,2,0:0:0:0:
182,200,116361,1,2,0:0:0:0:
182,200,116458,2,0,L|324:221,1,135.300004129028,2|0,0:0|0:0,0:0:0:0:
380,186,116845,6,0,P|422:173|466:183,1,90.2000027526856,6|0,1:0|0:0,0:0:0:0:
499,247,117135,2,0,P|489:290|459:323,1,90.2000027526856,2|0,1:1|0:0,0:0:0:0:
388,303,117426,2,0,P|371:287|364:266,1,45.1000013763428,6|0,1:0|0:0,0:0:0:0:
380,186,117619,6,2,B|476:122|476:122|388:302,1,315.7000096344,0|0,0:1|0:1,0:1:0:0:
356,367,118393,5,4,0:1:0:0:
356,367,118490,1,0,0:0:0:0:
356,367,118587,1,2,0:0:0:0:
356,367,118684,1,0,0:0:0:0:
356,367,118780,2,0,P|313:351|269:354,1,90.2000027526856,8|2,0:0|0:0,0:0:0:0:
163,222,119167,5,0,1:0:0:0:
163,222,119264,1,0,0:0:0:0:
163,222,119361,1,2,0:0:0:0:
163,222,119458,1,0,0:0:0:0:
163,222,119555,2,0,P|188:258|197:302,1,90.2000027526856,8|2,0:0|0:0,0:0:0:0:
194,378,119845,1,0,0:0:0:0:
194,378,119942,5,4,0:1:0:0:
163,222,120135,1,2,0:0:0:0:
319,191,120329,1,0,1:0:0:0:
295,278,120522,1,2,0:0:0:0:
249,122,120716,5,4,1:0:0:0:
249,122,120813,1,0,0:0:0:0:
383,30,121006,1,0,0:0:0:0:
383,30,121103,1,8,1:0:0:0:
511,129,121297,1,2,0:0:0:0:
453,280,121490,5,6,0:1:0:0:
444,275,121587,1,0,0:0:0:0:
435,270,121684,1,0,0:0:0:0:
426,266,121780,1,0,0:0:0:0:
383,252,121877,5,10,0:1:0:0:
385,269,121974,1,0,0:0:0:0:
388,286,122071,1,0,0:0:0:0:
390,303,122167,1,0,0:0:0:0:
395,347,122264,5,6,0:1:0:0:
417,332,122361,1,0,0:0:0:0:
440,317,122458,1,0,0:0:0:0:
463,303,122555,1,0,0:0:0:0:
497,273,122651,5,10,0:1:0:0:
465,256,122748,1,0,0:0:0:0:
432,239,122845,1,0,0:0:0:0:
400,222,122942,1,0,0:0:0:0:
364,194,123038,5,6,0:1:0:0:
371,149,123135,1,0,0:0:0:0:
378,104,123232,1,2,0:0:0:0:
386,59,123329,1,0,0:0:0:0:
391,14,123426,5,10,0:1:0:0:
338,25,123522,1,0,0:0:0:0:
285,37,123619,1,2,0:0:0:0:
232,49,123716,1,0,0:0:0:0:
180,64,123813,6,0,L|191:20,1,45.1000013763428,6|0,0:1|0:0,0:0:0:0:
97,74,124006,2,0,L|109:118,1,45.1000013763428,2|0,0:0|0:0,0:0:0:0:
29,28,124200,1,10,0:1:0:0:
11,168,124393,1,2,0:0:0:0:
11,168,124490,1,0,0:0:0:0:
11,168,124587,5,6,0:1:0:0:
45,170,124684,1,0,0:0:0:0:
79,181,124780,1,2,0:1:0:0:
110,198,124877,1,0,0:0:0:0:
138,221,124974,1,0,0:0:0:0:
160,249,125071,1,0,0:0:0:0:
177,279,125167,1,2,1:0:0:0:
187,313,125264,1,0,0:0:0:0:
191,349,125361,5,6,0:1:0:0:
173,366,125458,1,0,0:0:0:0:
149,377,125555,1,2,0:1:0:0:
124,384,125651,1,0,0:0:0:0:
97,382,125748,5,0,0:0:0:0:
47,360,125845,1,0,0:0:0:0:
35,307,125942,1,2,0:1:0:0:
62,261,126038,1,0,0:0:0:0:
111,252,126135,6,0,B|232:235|276:383|276:383|192:169|303:203|226:20|226:20|294:135|417:128|417:128|452:129|481:169|481:169|485:132|512:102,1,984,6|4,0:1|1:0,0:0:0:0:
