osu file format v14

[General]
AudioFilename: audio.mp3
AudioLeadIn: 0
PreviewTime: 52675
Countdown: 0
SampleSet: Normal
StackLeniency: 0.7
Mode: 1
LetterboxInBreaks: 0
WidescreenStoryboard: 1

[Editor]
Bookmarks: 6223,12417,26352,38739,52675,58868,77449,89836
DistanceSpacing: 2
BeatDivisor: 4
GridSize: 32
TimelineZoom: 1.900001

[Metadata]
Title:Bloody Purity
TitleUnicode:Bloody Purity
Artist:Eyemedia
ArtistUnicode:Eyemedia
Creator:Shinsekai-
Version:_Vex's Futsuu
Source:Mozarc
Tags:[_Chichinya_] _Vex DakeDekaane Vulkin Reficul Midnaait Rayark Cytus II 2 VOEZ Chapter 6 VI instrumental video game Electronic
BeatmapID:2685191
BeatmapSetID:1286973

[Difficulty]
HPDrainRate:7
CircleSize:2
OverallDifficulty:4
ApproachRate:10
SliderMultiplier:1.4
SliderTickRate:1

[Events]
//Background and Video events
0,0,"i hate.jpg",0,100
//Break Periods
//Storyboard Layer 0 (Background)
//Storyboard Layer 1 (Fail)
//Storyboard Layer 2 (Pass)
//Storyboard Layer 3 (Foreground)
//Storyboard Layer 4 (Overlay)
//Storyboard Sound Samples

[TimingPoints]
30,387.096774193548,4,1,0,50,1,0
52578,-100,4,1,0,20,0,0
65062,-100,4,1,0,60,0,1
75900,-100,4,1,0,60,0,0
77449,-100,4,1,0,60,0,1
100675,-100,4,1,0,60,0,0

[HitObjects]
256,192,30,5,4,0:0:0:0:
256,192,1578,1,8,0:0:0:0:
256,192,2352,1,0,0:0:0:0:
256,192,3126,1,12,0:0:0:0:
256,192,4675,1,8,0:0:0:0:
256,192,5255,1,8,0:0:0:0:
256,192,6223,1,4,0:0:0:0:
256,192,6610,1,0,0:0:0:0:
256,192,6804,1,8,0:0:0:0:
256,192,7191,1,8,0:0:0:0:
256,192,7578,1,0,0:0:0:0:
256,192,8159,1,8,0:0:0:0:
256,192,8352,1,0,0:0:0:0:
256,192,8739,1,0,0:0:0:0:
256,192,9320,1,4,0:0:0:0:
256,192,9707,1,0,0:0:0:0:
256,192,9900,1,0,0:0:0:0:
256,192,10094,1,8,0:0:0:0:
256,192,10288,1,0,0:0:0:0:
256,192,10481,1,8,0:0:0:0:
256,192,10868,1,12,0:0:0:0:
256,192,11642,1,0,0:0:0:0:
256,192,12417,1,4,0:0:0:0:
256,192,13191,1,8,0:0:0:0:
256,192,13578,1,0,0:0:0:0:
256,192,13771,1,8,0:0:0:0:
256,192,13965,1,8,0:0:0:0:
256,192,14739,1,0,0:0:0:0:
256,192,15513,1,8,0:0:0:0:
256,192,16288,1,0,0:0:0:0:
256,192,16675,1,0,0:0:0:0:
256,192,16868,1,8,0:0:0:0:
256,192,17062,1,8,0:0:0:0:
256,192,17642,1,0,0:0:0:0:
256,192,18610,1,0,0:0:0:0:
256,192,18997,1,0,0:0:0:0:
256,192,19191,1,8,0:0:0:0:
256,192,19578,1,8,0:0:0:0:
256,192,19965,1,0,0:0:0:0:
256,192,20546,1,8,0:0:0:0:
256,192,20739,1,8,0:0:0:0:
256,192,21126,1,0,0:0:0:0:
256,192,21707,1,0,0:0:0:0:
256,192,22094,1,8,0:0:0:0:
256,192,22481,1,0,0:0:0:0:
256,192,22868,1,8,0:0:0:0:
256,192,23255,1,8,0:0:0:0:
256,192,23449,1,8,0:0:0:0:
256,192,23836,1,8,0:0:0:0:
256,192,24223,1,8,0:0:0:0:
256,192,24417,1,8,0:0:0:0:
256,192,24610,1,8,0:0:0:0:
256,192,26352,1,0,0:0:0:0:
256,192,26739,1,0,0:0:0:0:
256,192,27126,1,8,0:0:0:0:
256,192,27900,1,0,0:0:0:0:
256,192,28288,1,0,0:0:0:0:
256,192,28675,1,8,0:0:0:0:
256,192,29449,1,0,0:0:0:0:
256,192,30223,1,8,0:0:0:0:
256,192,30997,1,8,0:0:0:0:
256,192,31384,1,0,0:0:0:0:
256,192,31771,1,8,0:0:0:0:
256,192,31965,1,0,0:0:0:0:
256,192,32159,1,0,0:0:0:0:
256,192,32546,1,0,0:0:0:0:
256,192,33320,1,8,0:0:0:0:
256,192,34094,1,0,0:0:0:0:
256,192,34481,1,0,0:0:0:0:
256,192,34868,1,8,0:0:0:0:
256,192,35642,1,0,0:0:0:0:
256,192,36417,1,8,0:0:0:0:
256,192,37191,1,0,0:0:0:0:
256,192,37384,1,0,0:0:0:0:
256,192,37578,1,8,0:0:0:0:
256,192,37965,1,8,0:0:0:0:
256,192,38159,1,8,0:0:0:0:
256,192,38352,1,0,0:0:0:0:
256,192,38739,1,12,0:0:0:0:
256,192,39320,1,0,0:0:0:0:
256,192,39707,1,0,0:0:0:0:
256,192,40094,1,0,0:0:0:0:
256,192,40288,1,8,0:0:0:0:
256,192,40675,1,8,0:0:0:0:
256,192,40868,1,0,0:0:0:0:
256,192,41255,1,0,0:0:0:0:
256,192,41642,1,0,0:0:0:0:
256,192,42223,1,8,0:0:0:0:
256,192,42417,1,0,0:0:0:0:
256,192,42804,1,0,0:0:0:0:
256,192,42997,1,8,0:0:0:0:
256,192,43191,1,0,0:0:0:0:
256,192,43965,1,8,0:0:0:0:
256,192,44546,1,0,0:0:0:0:
256,192,44739,1,0,0:0:0:0:
256,192,44933,1,8,0:0:0:0:
256,192,45320,1,8,0:0:0:0:
256,192,45513,1,0,0:0:0:0:
256,192,45900,1,0,0:0:0:0:
256,192,46288,1,8,0:0:0:0:
256,192,46868,1,8,0:0:0:0:
256,192,47062,1,0,0:0:0:0:
256,192,47449,1,0,0:0:0:0:
256,192,47836,1,8,0:0:0:0:
256,192,48223,1,8,0:0:0:0:
256,192,48417,1,0,0:0:0:0:
256,192,48610,1,8,0:0:0:0:
256,192,48997,1,8,0:0:0:0:
256,192,49191,1,8,0:0:0:0:
256,192,49384,1,0,0:0:0:0:
256,192,49771,2,0,L|256:288,7,70
256,192,52675,1,0,0:0:0:0:
256,192,53449,1,8,0:0:0:0:
256,192,53836,1,0,0:0:0:0:
256,192,54223,1,8,0:0:0:0:
256,192,54997,1,0,0:0:0:0:
256,192,55771,1,8,0:0:0:0:
256,192,56546,1,8,0:0:0:0:
256,192,56933,1,0,0:0:0:0:
256,192,57320,1,8,0:0:0:0:
256,192,57900,1,0,0:0:0:0:
256,192,58868,1,0,0:0:0:0:
256,192,59255,1,0,0:0:0:0:
256,192,59449,1,8,0:0:0:0:
256,192,59836,1,8,0:0:0:0:
256,192,60223,1,0,0:0:0:0:
256,192,60804,1,8,0:0:0:0:
256,192,60997,1,0,0:0:0:0:
256,192,61384,1,0,0:0:0:0:
256,192,61771,1,8,0:0:0:0:
256,192,62739,1,0,0:0:0:0:
256,192,62933,1,8,0:0:0:0:
256,192,63126,1,8,0:0:0:0:
256,192,63320,1,0,0:0:0:0:
256,192,65062,1,4,0:0:0:0:
256,192,65836,1,8,0:0:0:0:
256,192,66223,1,0,0:0:0:0:
256,192,66416,1,8,0:0:0:0:
256,192,66610,1,8,0:0:0:0:
256,192,67384,1,0,0:0:0:0:
256,192,68158,1,8,0:0:0:0:
256,192,68933,1,0,0:0:0:0:
256,192,69320,1,0,0:0:0:0:
256,192,69513,1,8,0:0:0:0:
256,192,69707,1,8,0:0:0:0:
256,192,70287,1,0,0:0:0:0:
256,192,71255,1,0,0:0:0:0:
256,192,71642,1,0,0:0:0:0:
256,192,71836,1,8,0:0:0:0:
256,192,72223,1,8,0:0:0:0:
256,192,72610,1,0,0:0:0:0:
256,192,73191,1,8,0:0:0:0:
256,192,73384,1,8,0:0:0:0:
256,192,73771,1,0,0:0:0:0:
256,192,74159,1,0,0:0:0:0:
256,192,74739,1,8,0:0:0:0:
256,192,74933,1,0,0:0:0:0:
256,192,75320,1,8,0:0:0:0:
256,192,75707,1,0,0:0:0:0:
256,192,76288,1,8,0:0:0:0:
256,192,76481,1,0,0:0:0:0:
256,192,76868,1,8,0:0:0:0:
256,192,77836,1,8,0:0:0:0:
256,192,78029,1,8,0:0:0:0:
256,192,78417,1,0,0:0:0:0:
256,192,78610,1,0,0:0:0:0:
256,192,78997,1,8,0:0:0:0:
256,192,79191,1,8,0:0:0:0:
256,192,79578,1,0,0:0:0:0:
256,192,79771,1,0,0:0:0:0:
256,192,80159,1,0,0:0:0:0:
256,192,80352,1,8,0:0:0:0:
256,192,80933,1,8,0:0:0:0:
256,192,81320,1,0,0:0:0:0:
256,192,81513,1,0,0:0:0:0:
256,192,81900,1,8,0:0:0:0:
256,192,82094,1,8,0:0:0:0:
256,192,82481,1,8,0:0:0:0:
256,192,82675,1,8,0:0:0:0:
256,192,83062,1,0,0:0:0:0:
256,192,83255,1,0,0:0:0:0:
256,192,83836,1,8,0:0:0:0:
256,192,84029,1,8,0:0:0:0:
256,192,84417,1,0,0:0:0:0:
256,192,84610,1,0,0:0:0:0:
256,192,84997,1,8,0:0:0:0:
256,192,85191,1,8,0:0:0:0:
256,192,85578,1,8,0:0:0:0:
256,192,85771,1,8,0:0:0:0:
256,192,86159,1,0,0:0:0:0:
256,192,86352,1,8,0:0:0:0:
256,192,86933,1,8,0:0:0:0:
256,192,87126,1,8,0:0:0:0:
256,192,87513,1,0,0:0:0:0:
256,192,87707,1,8,0:0:0:0:
256,192,88094,1,8,0:0:0:0:
256,192,88288,1,8,0:0:0:0:
256,192,88675,1,0,0:0:0:0:
256,192,88868,1,8,0:0:0:0:
256,192,89255,1,0,0:0:0:0:
256,192,89449,1,0,0:0:0:0:
256,192,90223,1,8,0:0:0:0:
256,192,90610,1,8,0:0:0:0:
256,192,90804,1,0,0:0:0:0:
256,192,90997,1,8,0:0:0:0:
256,192,91384,1,0,0:0:0:0:
256,192,91771,1,8,0:0:0:0:
256,192,91965,1,8,0:0:0:0:
256,192,92159,1,0,0:0:0:0:
256,192,92352,1,0,0:0:0:0:
256,192,92546,1,8,0:0:0:0:
256,192,92933,1,0,0:0:0:0:
256,192,93320,1,8,0:0:0:0:
256,192,93707,1,0,0:0:0:0:
256,192,93900,1,0,0:0:0:0:
256,192,94094,1,8,0:0:0:0:
256,192,94481,1,0,0:0:0:0:
256,192,94868,1,0,0:0:0:0:
256,192,95255,1,8,0:0:0:0:
256,192,96029,1,8,0:0:0:0:
256,192,96417,1,0,0:0:0:0:
256,192,96804,1,8,0:0:0:0:
256,192,97191,1,0,0:0:0:0:
256,192,97578,1,8,0:0:0:0:
256,192,97965,1,8,0:0:0:0:
256,192,98352,1,8,0:0:0:0:
256,192,98739,1,8,0:0:0:0:
256,192,99126,1,8,0:0:0:0:
256,192,99320,1,0,0:0:0:0:
256,192,99513,1,8,0:0:0:0:
256,192,99707,1,0,0:0:0:0:
256,192,99900,1,8,0:0:0:0:
256,192,100288,1,8,0:0:0:0:
256,192,100481,1,0,0:0:0:0:
256,192,100868,1,0,0:0:0:0:
256,192,101062,1,0,0:0:0:0:
256,192,101449,1,0,0:0:0:0:
256,192,101642,1,0,0:0:0:0:
256,192,101836,1,8,0:0:0:0:
256,192,102417,1,4,0:0:0:0:
