osu file format v14

[General]
AudioFilename: audio.mp3
AudioLeadIn: 0
PreviewTime: -1
Countdown: 1
SampleSet: Normal
StackLeniency: 0.7
Mode: 0
LetterboxInBreaks: 0
WidescreenStoryboard: 1

[Editor]
DistanceSpacing: 1
BeatDivisor: 4
GridSize: 8
TimelineZoom: 2.2

[Metadata]
Title:Too Much!
TitleUnicode:Too Much!
Artist:Eyecatch!
ArtistUnicode:Eyecatch!
Creator:thegogeta999
Version:Normal
Source:
Tags:
BeatmapID:1124159
BeatmapSetID:529741

[Difficulty]
HPDrainRate:4
CircleSize:4
OverallDifficulty:5
ApproachRate:8
SliderMultiplier:2
SliderTickRate:1

[Events]
//Background and Video events
0,0,"vwqve94.png",0,0
//Break Periods
//Storyboard Layer 0 (Background)
//Storyboard Layer 1 (Fail)
//Storyboard Layer 2 (Pass)
//Storyboard Layer 3 (Foreground)
//Storyboard Sound Samples

[TimingPoints]
86,500,4,1,0,30,1,0

[HitObjects]
64,136,86,6,0,L|184:88,1,100
352,216,1086,1,0,0:0:0:0:
352,216,1336,2,0,L|256:280,1,100
72,128,2086,1,0,0:0:0:0:
152,96,2336,2,0,L|272:88,1,100
248,88,2836,2,0,L|368:88,1,100
400,96,3336,1,0,0:0:0:0:
400,96,3586,1,0,0:0:0:0:
400,96,3836,1,0,0:0:0:0:
336,192,4086,6,0,L|200:192,2,100
336,296,4836,2,0,L|200:296,1,100
256,192,5336,12,0,6086,0:0:0:0:
304,216,6586,6,0,L|472:88,1,200
384,80,7336,2,0,L|256:80,1,100
224,80,7836,2,0,L|112:80,3,100
128,80,8836,1,0,0:0:0:0:
128,152,9086,2,0,L|192:256,1,100
180,237,9586,2,0,L|304:280,1,100
72,320,10086,6,0,L|80:184,1,100
80,224,10586,2,0,L|88:104,1,100
86,124,11086,2,0,L|160:40,1,100
240,48,11586,2,0,L|352:48,1,100
256,192,12086,12,0,13086,0:0:0:0:
64,216,13586,6,0,L|200:216,1,100
416,200,14086,2,0,L|416:80,3,100
288,48,15086,2,0,L|144:48,1,100
64,56,15586,2,0,L|64:192,1,100
80,256,16086,5,0,0:0:0:0:
168,256,16336,2,0,L|272:344,1,100
328,320,16836,2,0,L|424:240,1,100
416,152,17336,2,0,L|416:32,1,100
256,48,17836,5,0,0:0:0:0:
96,48,18086,2,0,L|96:176,1,100
96,148,18586,1,0,0:0:0:0:
96,148,18836,1,0,0:0:0:0:
192,152,19086,2,0,L|280:48,1,100
256,72,19586,2,0,L|344:160,1,100
408,104,20086,5,0,0:0:0:0:
408,192,20336,2,0,L|408:304,1,100
320,296,20836,2,0,L|320:184,1,100
216,192,21336,2,0,L|216:304,1,100
120,296,21836,2,0,L|120:168,1,100
256,192,22461,12,0,24086,0:0:0:0:
256,192,25086,6,0,L|384:192,1,100
256,192,25586,1,0,0:0:0:0:
256,192,25836,1,0,0:0:0:0:
96,96,26086,2,0,L|96:224,1,100
96,192,26586,2,0,L|232:192,1,100
192,192,27086,2,0,L|88:192,1,100
92,192,27586,2,0,L|96:64,1,100
224,48,28086,6,0,L|360:56,2,100
208,288,28836,2,0,L|352:304,1,100
424,272,29336,2,0,L|424:144,2,100
104,272,30086,2,0,L|104:144,2,100
104,172,30836,1,0,0:0:0:0:
216,168,31086,2,0,L|352:176,2,100
456,224,31836,2,0,L|456:112,1,100
256,192,32336,12,0,33086,0:0:0:0:
120,184,33336,6,0,L|248:184,1,100
264,64,33836,1,0,0:0:0:0:
360,144,34086,1,0,0:0:0:0:
256,192,34586,12,0,35586,0:0:0:0:
136,64,36086,6,0,L|248:64,1,100
240,160,36586,2,0,L|112:152,1,100
128,240,37086,2,0,L|248:248,1,100
440,88,37586,2,0,L|328:88,1,100
227,246,38086,1,0,0:0:0:0:
256,192,38336,12,0,40086,0:0:0:0:
464,248,40336,6,0,L|472:128,1,100
352,152,40836,1,0,0:0:0:0:
352,152,40961,1,0,0:0:0:0:
144,272,41336,2,0,L|144:136,1,100
248,176,41836,1,0,0:0:0:0:
144,176,42086,1,0,0:0:0:0:
256,192,42336,12,0,44086,0:0:0:0:
240,80,44336,5,0,0:0:0:0:
240,80,44586,1,0,0:0:0:0:
240,80,44836,2,0,B|128:160|144:152,1,100
168,232,45336,2,0,L|264:288,1,100
400,240,46086,6,0,L|400:136,2,100
112,240,46836,2,0,L|112:104,1,100
200,56,47336,1,0,0:0:0:0:
296,56,47586,1,0,0:0:0:0:
208,168,48086,2,0,L|352:168,1,100
336,168,49086,6,0,L|200:168,2,100
48,280,50086,2,0,L|48:136,2,100
96,96,50836,2,0,L|224:96,1,100
192,96,51336,2,0,L|336:96,1,100
424,144,51836,2,0,L|416:256,1,100
416,256,52336,2,0,L|320:344,1,100
240,320,52836,2,0,L|240:192,1,100
240,144,53336,2,0,L|240:32,1,100
72,192,54086,5,0,0:0:0:0:
144,96,54336,1,0,0:0:0:0:
256,88,54586,1,0,0:0:0:0:
368,96,54836,1,0,0:0:0:0:
440,192,55086,1,0,0:0:0:0:
304,192,55336,2,0,B|352:144|296:112,1,100
216,112,55836,2,0,B|160:144|208:192,1,100
104,152,56336,1,0,0:0:0:0:
104,152,56586,1,0,0:0:0:0:
192,80,56836,2,0,L|328:80,1,100
168,136,58086,6,0,L|296:136,1,100
392,120,58586,2,0,L|392:240,1,100
312,280,59086,1,0,0:0:0:0:
216,304,59336,2,0,L|104:208,1,100
144,240,59836,1,0,0:0:0:0:
72,160,60086,1,0,0:0:0:0:
72,160,60336,1,0,0:0:0:0:
168,160,60586,1,0,0:0:0:0:
168,160,60836,1,0,0:0:0:0:
272,160,61130,1,0,0:0:0:0:
400,176,61380,2,0,L|400:64,1,100
264,296,62086,5,0,0:0:0:0:
120,208,62336,2,0,P|148:178|216:176,2,100
248,16,63086,1,0,0:0:0:0:
336,32,63336,2,0,P|408:64|424:112,2,100
48,192,64086,1,0,0:0:0:0:
256,192,64586,1,0,0:0:0:0:
464,192,65086,1,0,0:0:0:0:
80,320,65336,6,0,L|152:200,2,100
48,72,66086,2,0,L|456:72,1,400
168,64,67336,1,0,0:0:0:0:
336,64,67586,1,0,0:0:0:0:
464,288,68086,6,0,L|48:288,1,400
64,192,69336,1,0,0:0:0:0:
64,192,69586,1,0,0:0:0:0:
64,192,69836,2,0,L|64:88,1,100
176,72,70336,1,0,0:0:0:0:
176,272,70586,1,0,0:0:0:0:
184,168,70836,2,0,L|328:168,1,100
280,168,71336,2,0,L|400:168,1,100
368,168,71836,6,0,L|368:296,3,100
256,168,72836,1,0,0:0:0:0:
136,168,73086,2,0,L|136:280,3,100
256,192,74086,1,0,0:0:0:0:
440,96,74586,2,0,P|256:32|64:104,1,400
256,192,76086,12,0,86086,0:0:0:0:
