osu file format v14

[General]
AudioFilename: Knight of Firmament.mp3
AudioLeadIn: 0
PreviewTime: 63771
Countdown: 0
SampleSet: Soft
StackLeniency: 0.7
Mode: 2
LetterboxInBreaks: 0
WidescreenStoryboard: 0

[Editor]
DistanceSpacing: 1.2
BeatDivisor: 4
GridSize: 4
TimelineZoom: 2.3

[Metadata]
Title:Knight of Firmament
TitleUnicode:Knight of Firmament
Artist:Eye XY feat. Yoneko
ArtistUnicode:Eye XY feat. Yoneko
Creator:Kin
Version:Overdose
Source:Cytus
Tags:Deemo Iris Chapter K Xiao Yian Nofool Ascendance Hareimu Paranoid Grapes
BeatmapID:1473910
BeatmapSetID:694900

[Difficulty]
HPDrainRate:6.2
CircleSize:4.4
OverallDifficulty:9.2
ApproachRate:9.2
SliderMultiplier:1.76
SliderTickRate:1

[Events]
//Background and Video events
0,0,"cytus.jpg",0,0
//Break Periods
//Storyboard Layer 0 (Background)
//Storyboard Layer 1 (Fail)
//Storyboard Layer 2 (Pass)
//Storyboard Layer 3 (Foreground)
//Storyboard Sound Samples

[TimingPoints]
2030,387.096774193548,4,2,1,60,1,0
4352,-100,4,2,1,20,0,0
5126,-100,4,2,1,60,0,0
28352,-55.5555555555556,4,2,1,60,0,0
29320,-100,4,2,1,60,0,0
31449,-55.5555555555556,4,2,1,60,0,0
32029,-100,4,2,1,60,0,0
40739,-35.5871886120996,4,2,1,60,0,0
41707,-100,4,2,1,60,0,0
43836,-35.5871886120996,4,2,1,60,0,0
44804,-100,4,2,1,60,0,0
50900,582.52427184466,4,2,1,50,1,0
50900,-66.4540138224349,4,2,1,50,0,0
51191,387.096774193548,4,2,1,50,1,8
51578,387.096774193548,4,2,1,50,1,0
63965,-100,4,2,1,70,0,1
76352,381.558028616852,4,2,1,60,1,0
87798,500,4,2,1,60,1,0
88298,387.096774193548,4,2,1,60,1,0
88557,387.096774193548,4,2,1,60,1,0
100944,-100,4,2,1,60,0,1
111782,-100,4,2,1,60,0,0
113331,-100,4,2,1,60,0,1
117976,-100,4,2,1,60,0,0
119524,-100,4,2,1,60,0,1
124169,-100,4,2,1,60,0,0
125901,517.241379310345,4,2,1,60,1,0
130728,588.235294117647,4,2,1,60,1,0
131118,638.297872340426,4,2,1,60,1,0
132713,681.818181818182,4,2,1,60,1,0
133963,722.89156626506,4,2,1,60,1,0
134685,810.810810810811,4,2,1,60,1,0

[HitObjects]
300,288,2029,6,0,L|248:288,2,44
148,200,2417,1,0,0:0:0:0:
404,48,2610,1,0,0:0:0:0:
320,216,3578,6,0,L|364:216,2,44
472,264,3965,1,0,0:0:0:0:
216,112,4159,1,0,0:0:0:0:
304,52,4352,1,0,0:0:0:0:
340,92,4449,1,0,0:0:0:0:
368,136,4546,1,0,0:0:0:0:
376,188,4642,1,0,0:0:0:0:
368,136,4739,1,0,0:0:0:0:
340,92,4836,1,0,0:0:0:0:
304,52,4933,1,0,0:0:0:0:
216,220,5126,6,0,L|260:220,2,44
376,140,5513,1,0,0:0:0:0:
296,84,5610,1,0,0:0:0:0:
216,116,5707,1,0,0:0:0:0:
304,204,5900,1,0,0:0:0:0:
144,44,6094,1,0,0:0:0:0:
408,68,6288,2,0,L|464:68,2,44
108,208,6675,5,0,0:0:0:0:
28,252,6771,1,0,0:0:0:0:
108,296,6868,1,0,0:0:0:0:
428,208,7062,1,0,0:0:0:0:
508,252,7158,1,0,0:0:0:0:
428,296,7255,1,0,0:0:0:0:
180,48,7449,2,0,P|156:84|156:144,1,88
312,232,7836,1,0,0:0:0:0:
356,204,7933,1,0,0:0:0:0:
380,160,8029,1,0,0:0:0:0:
372,108,8126,1,0,0:0:0:0:
212,44,8223,6,0,L|100:44,1,88
284,104,8610,1,0,0:0:0:0:
196,160,8804,2,0,L|204:216,1,44
120,196,8997,2,0,L|103:312,1,88
356,324,9384,1,0,0:0:0:0:
400,296,9481,1,0,0:0:0:0:
424,248,9578,1,0,0:0:0:0:
412,196,9675,1,0,0:0:0:0:
244,96,9771,6,0,P|216:132|208:180,1,88
368,20,10159,2,0,P|396:56|404:104,1,88
120,100,10546,1,0,0:0:0:0:
76,132,10642,1,0,0:0:0:0:
52,180,10739,1,0,0:0:0:0:
60,232,10836,1,0,0:0:0:0:
140,296,10933,2,0,L|88:300,1,44
264,184,11126,2,0,L|316:188,1,44
120,100,11320,6,0,L|68:104,1,44
156,24,11513,2,0,L|208:28,1,44
120,100,11707,2,0,L|68:104,1,44
244,276,11900,2,0,L|336:276,2,88
404,196,12481,2,0,L|392:144,1,44
312,108,12675,2,0,L|324:56,1,44
492,44,12868,6,0,P|448:48|404:44,2,88
244,200,13449,6,0,P|288:196|332:200,2,88
404,344,14029,1,0,0:0:0:0:
448,316,14126,1,0,0:0:0:0:
464,264,14223,1,0,0:0:0:0:
448,216,14320,1,0,0:0:0:0:
236,168,14417,6,0,L|252:124,1,44
324,100,14610,2,0,L|308:56,1,44
148,8,14804,1,0,0:0:0:0:
308,216,14997,1,0,0:0:0:0:
60,312,15191,2,0,L|112:308,1,44
52,228,15384,2,0,L|0:224,1,44
204,108,15578,1,0,0:0:0:0:
116,40,15771,1,0,0:0:0:0:
364,32,15965,5,0,0:0:0:0:
204,196,16159,1,0,0:0:0:0:
292,148,16352,1,0,0:0:0:0:
132,108,16546,1,0,0:0:0:0:
380,76,16739,2,0,L|448:84,1,44
344,16,16933,2,0,L|276:24,1,44
380,76,17126,1,0,0:0:0:0:
220,100,17320,1,0,0:0:0:0:
468,156,17513,5,0,0:0:0:0:
504,196,17610,1,0,0:0:0:0:
512,248,17707,1,0,0:0:0:0:
488,296,17804,1,0,0:0:0:0:
444,324,17900,1,0,0:0:0:0:
284,208,18094,1,0,0:0:0:0:
444,68,18288,2,0,L|496:76,1,44
408,16,18481,2,0,L|356:24,1,44
444,68,18675,1,0,0:0:0:0:
164,76,18868,1,0,0:0:0:0:
324,136,19062,6,0,L|392:132,1,44
288,204,19255,2,0,L|220:200,1,44
416,76,19449,2,0,P|440:104|444:128,1,44
364,4,19642,2,0,P|340:32|336:56,1,44
420,196,19836,6,0,L|424:256,1,44
344,260,20029,2,0,L|340:320,1,44
152,312,20223,1,0,0:0:0:0:
108,284,20320,1,0,0:0:0:0:
88,236,20417,1,0,0:0:0:0:
100,184,20513,1,0,0:0:0:0:
180,224,20610,5,0,0:0:0:0:
224,196,20707,1,0,0:0:0:0:
244,148,20804,1,0,0:0:0:0:
232,96,20900,1,0,0:0:0:0:
72,40,20997,2,0,P|24:68|16:112,1,88
264,328,21384,2,0,P|312:300|320:256,1,88
160,140,21771,2,0,L|60:148,1,88
324,56,22159,6,0,L|424:64,1,88
160,140,22546,2,0,P|128:176|112:224,1,88
272,108,22933,1,0,0:0:0:0:
112,48,23126,1,0,0:0:0:0:
360,36,23320,1,0,0:0:0:0:
204,24,23513,1,0,0:0:0:0:
468,192,23707,5,0,0:0:0:0:
388,220,23804,1,0,0:0:0:0:
308,196,23900,1,0,0:0:0:0:
308,196,24288,1,0,0:0:0:0:
468,192,24481,1,0,0:0:0:0:
316,288,24578,1,0,0:0:0:0:
164,212,24675,1,0,0:0:0:0:
164,212,25062,1,0,0:0:0:0:
468,192,25255,5,0,0:0:0:0:
380,116,26029,6,0,P|340:144|320:200,3,88
112,60,26804,6,0,P|180:44|260:56,2,132
276,124,27578,2,0,P|300:172|264:248,1,132
228,272,27965,2,0,L|112:268,1,88
316,208,28255,1,0,0:0:0:0:
356,188,28304,1,0,0:0:0:0:
396,172,28352,6,0,L|156:172,2,237.599992749024
356,236,29320,2,0,P|316:204|308:152,2,88
108,84,29900,6,0,P|160:64|244:72,2,132
268,172,30675,2,0,P|216:152|132:160,2,132
20,80,31449,6,0,L|264:80,2,237.599992749024
96,132,32417,2,0,P|140:164|152:216,2,88
256,32,32997,5,0,0:0:0:0:
280,40,33046,1,0,0:0:0:0:
300,56,33094,1,0,0:0:0:0:
312,80,33142,1,0,0:0:0:0:
316,108,33191,1,0,0:0:0:0:
288,144,33239,1,0,0:0:0:0:
256,156,33288,1,0,0:0:0:0:
216,168,33336,1,0,0:0:0:0:
112,196,33384,5,0,0:0:0:0:
88,212,33433,1,0,0:0:0:0:
72,232,33481,1,0,0:0:0:0:
68,256,33529,1,0,0:0:0:0:
76,280,33578,1,0,0:0:0:0:
92,300,33626,1,0,0:0:0:0:
116,312,33675,1,0,0:0:0:0:
272,348,33771,5,0,0:0:0:0:
316,320,33868,1,0,0:0:0:0:
340,272,33965,1,0,0:0:0:0:
328,220,34062,1,0,0:0:0:0:
160,232,34159,5,0,0:0:0:0:
124,212,34207,1,0,0:0:0:0:
104,180,34255,1,0,0:0:0:0:
96,140,34304,1,0,0:0:0:0:
104,100,34352,1,0,0:0:0:0:
128,68,34400,1,0,0:0:0:0:
164,48,34449,1,0,0:0:0:0:
340,48,34546,5,0,0:0:0:0:
384,80,34642,1,0,0:0:0:0:
404,128,34739,1,0,0:0:0:0:
324,124,34836,1,0,0:0:0:0:
280,156,34933,1,0,0:0:0:0:
260,204,35029,1,0,0:0:0:0:
348,284,35126,2,0,L|296:280,1,44
464,224,35320,1,0,0:0:0:0:
432,240,35513,6,0,P|476:268|484:336,2,88
184,144,36094,5,0,0:0:0:0:
228,116,36191,2,0,L|332:116,1,88
184,144,36675,1,0,0:0:0:0:
432,200,36868,1,0,0:0:0:0:
388,228,36965,2,0,L|272:228,1,88
432,200,37449,1,0,0:0:0:0:
168,56,37642,5,0,0:0:0:0:
128,60,37691,1,0,0:0:0:0:
95,80,37739,1,0,0:0:0:0:
72,112,37788,1,0,0:0:0:0:
64,150,37836,1,0,0:0:0:0:
72,189,37884,1,0,0:0:0:0:
95,220,37933,1,0,0:0:0:0:
130,240,37981,1,0,0:0:0:0:
296,140,38029,1,0,0:0:0:0:
340,152,38078,1,0,0:0:0:0:
368,188,38126,1,0,0:0:0:0:
364,236,38175,1,0,0:0:0:0:
336,272,38223,1,0,0:0:0:0:
88,320,38417,5,0,0:0:0:0:
64,320,38610,6,0,P|112:304|136:260,2,88
348,116,39191,5,0,0:0:0:0:
260,60,39384,2,0,L|204:96,2,44
420,64,39771,1,0,0:0:0:0:
172,196,39965,2,0,P|212:208|264:204,1,88
104,72,40255,1,0,0:0:0:0:
24,28,40352,2,0,P|16:64|24:116,1,88
436,288,40739,6,0,L|60:288,2,370.919998868042
488,120,41707,6,0,P|440:136|420:180,2,88
240,72,42288,6,0,L|332:72,1,88
176,192,42578,1,0,0:0:0:0:
96,248,42675,2,0,P|68:216|64:164,1,88
312,172,43062,2,0,L|224:172,1,88
380,272,43352,1,0,0:0:0:0:
460,328,43449,2,0,P|488:296|492:244,1,88
96,104,43836,6,0,L|466:104,2,370.919998868042
132,172,44804,6,0,P|168:144|176:92,2,88
380,332,45384,5,0,0:0:0:0:
416,324,45433,1,0,0:0:0:0:
444,304,45481,1,0,0:0:0:0:
464,276,45529,1,0,0:0:0:0:
460,240,45578,1,0,0:0:0:0:
412,188,45626,1,0,0:0:0:0:
364,152,45675,1,0,0:0:0:0:
316,120,45723,1,0,0:0:0:0:
196,76,45771,5,0,0:0:0:0:
152,76,45820,1,0,0:0:0:0:
112,88,45868,1,0,0:0:0:0:
80,120,45917,1,0,0:0:0:0:
64,160,45965,1,0,0:0:0:0:
68,204,46013,1,0,0:0:0:0:
88,244,46062,1,0,0:0:0:0:
128,256,46110,1,0,0:0:0:0:
196,304,46159,5,0,0:0:0:0:
264,296,46255,1,0,0:0:0:0:
312,244,46352,1,0,0:0:0:0:
320,172,46449,1,0,0:0:0:0:
256,120,46497,1,0,0:0:0:0:
132,36,46546,5,0,0:0:0:0:
92,40,46594,1,0,0:0:0:0:
56,56,46642,1,0,0:0:0:0:
28,88,46691,1,0,0:0:0:0:
12,128,46739,1,0,0:0:0:0:
28,88,46788,1,0,0:0:0:0:
56,56,46836,1,0,0:0:0:0:
256,120,46933,6,0,L|300:120,2,44
176,212,47223,2,0,L|132:212,2,44
256,120,47513,2,0,L|300:120,1,44
88,156,47707,2,0,P|68:180|60:220,1,44
284,188,47900,2,0,L|328:188,1,44
148,312,48094,1,0,0:0:0:0:
100,292,48191,1,0,0:0:0:0:
72,248,48288,1,0,0:0:0:0:
80,196,48384,1,0,0:0:0:0:
300,80,48481,5,0,0:0:0:0:
256,52,48578,2,0,L|164:52,1,88
300,80,49062,1,0,0:0:0:0:
52,216,49255,5,0,0:0:0:0:
96,188,49352,2,0,L|188:188,1,88
52,216,49836,1,0,0:0:0:0:
388,272,50029,5,0,0:0:0:0:
308,276,50126,1,0,0:0:0:0:
228,216,50223,1,0,0:0:0:0:
72,296,50320,1,0,0:0:0:0:
28,264,50417,1,0,0:0:0:0:
8,216,50513,1,0,0:0:0:0:
28,264,50610,1,0,0:0:0:0:
72,296,50707,1,0,0:0:0:0:
248,304,50804,1,0,0:0:0:0:
328,272,50900,5,0,0:0:0:0:
128,224,51045,1,0,0:0:0:0:
332,168,51191,1,0,0:0:0:0:
224,120,51320,1,0,0:0:0:0:
296,92,51449,1,0,0:0:0:0:
108,32,51578,6,0,P|168:40|248:28,2,132
356,88,52352,2,0,P|416:124|356:168,1,132
351,165,52739,1,0,0:0:0:0:
248,200,52932,1,0,0:0:0:0:
408,140,53126,6,0,P|352:148|276:136,2,132
160,56,53900,1,0,0:0:0:0:
248,32,54094,1,0,0:0:0:0:
88,120,54287,1,0,0:0:0:0:
336,192,54481,2,0,P|364:224|372:244,2,44
204,104,54965,6,0,L|344:104,1,132
88,128,55448,2,0,P|24:168|80:212,1,132
81,216,55836,1,0,0:0:0:0:
240,120,56029,1,0,0:0:0:0:
80,44,56223,6,0,P|36:72|28:124,1,88
252,56,56513,2,0,P|296:84|304:136,1,88
96,112,56803,1,0,0:0:0:0:
164,156,57190,6,0,P|140:196|100:216,1,88
264,44,57577,1,0,0:0:0:0:
184,64,57674,1,0,0:0:0:0:
24,128,57771,6,0,P|72:140|168:124,2,132
308,36,58545,2,0,P|368:76|296:116,1,176
216,60,59126,1,0,0:0:0:0:
464,192,59319,6,0,P|412:200|332:192,2,132
384,124,59997,1,0,0:0:0:0:
216,60,60094,2,0,P|156:84|208:144,1,132
210,147,60481,1,0,0:0:0:0:
368,44,60674,1,0,0:0:0:0:
84,248,60868,6,0,P|132:256|228:248,2,132
332,120,61642,2,0,P|376:144|332:228,1,132
328,232,62029,1,0,0:0:0:0:
224,144,62223,1,0,0:0:0:0:
472,80,62416,5,0,0:0:0:0:
232,20,62707,1,0,0:0:0:0:
472,80,62997,1,0,0:0:0:0:
312,136,63190,2,0,P|360:152|416:144,1,88
440,120,63481,1,0,0:0:0:0:
176,96,63577,2,0,P|144:120|132:144,1,44
336,68,63771,2,0,P|368:92|380:116,1,44
136,200,63965,6,0,P|96:212|40:204,1,88
336,68,64352,1,0,0:0:0:0:
176,288,64545,2,0,P|152:308|140:332,2,44
264,344,64932,1,0,0:0:0:0:
104,208,65126,1,0,0:0:0:0:
264,100,65319,1,0,0:0:0:0:
16,88,65513,6,0,P|60:100|112:92,1,88
260,24,65803,2,0,L|328:32,1,44
144,168,66094,2,0,P|112:196|108:252,1,88
352,332,66481,2,0,P|380:320|396:296,2,44
192,256,66868,1,0,0:0:0:0:
440,192,67061,6,0,P|396:196|348:184,1,88
272,120,67352,2,0,P|259:141|256:168,1,44
416,88,67642,1,0,0:0:0:0:
100,108,67836,2,0,P|148:120|204:104,1,88
364,24,68126,2,0,L|432:32,1,44
144,192,68416,1,0,0:0:0:0:
304,232,68610,5,0,0:0:0:0:
144,112,68803,1,0,0:0:0:0:
304,72,68997,1,0,0:0:0:0:
56,204,69190,1,0,0:0:0:0:
408,192,69384,2,0,P|444:164|408:96,1,132
200,224,69771,2,0,L|140:212,1,44
344,56,69965,2,0,L|404:44,1,44
124,128,70158,6,0,P|80:160|68:220,1,88
