osu file format v14

[General]
AudioFilename: EYE_XY feat. Yoneko-Knight of Firmament (The Chevalier).mp3
AudioLeadIn: 0
PreviewTime: 101091
Countdown: 0
SampleSet: Soft
StackLeniency: 0.7
Mode: 3
LetterboxInBreaks: 0
SpecialStyle: 0
WidescreenStoryboard: 0

[Editor]
DistanceSpacing: 0.8
BeatDivisor: 4
GridSize: 4
TimelineZoom: 8

[Metadata]
Title:Knight of Firmament
TitleUnicode:Knight of Firmament
Artist:Eye XY feat. Yoneko
ArtistUnicode:Eye XY feat. Yoneko
Creator:Aras25
Version:Hard
Source:Cytus
Tags:ryori the chevalier holy knight remix xiao yian K rayark deemo -BANGKE-
BeatmapID:841081
BeatmapSetID:384987

[Difficulty]
HPDrainRate:8
CircleSize:4
OverallDifficulty:8
ApproachRate:5
SliderMultiplier:1.4
SliderTickRate:1

[Events]
//Background and Video events
0,0,"K-5.png",0,0
//Break Periods
//Storyboard Layer 0 (Background)
//Storyboard Layer 1 (Fail)
//Storyboard Layer 2 (Pass)
//Storyboard Layer 3 (Foreground)
//Storyboard Sound Samples

[TimingPoints]
2179,387.096774193548,4,2,1,5,1,0
64114,-100,4,2,1,5,0,1
76017,-99.009900990099,4,2,1,5,0,1
76114,-98.5221674876847,4,2,1,5,0,1
76211,-97.0873786407767,4,2,1,5,0,1
76308,-96.1538461538461,4,2,1,5,0,1
76404,-95.2380952380952,4,2,1,5,0,1
76501,254.237288135593,3,2,1,5,1,0
76501,-142.857142857143,3,2,1,5,0,0
88704,387.096774193548,4,2,1,5,1,0
101091,-100,4,2,1,5,0,1
111929,-100,4,2,1,5,0,0
113478,-100,4,2,1,5,0,1
118123,-100,4,2,1,5,0,0
119671,-100,4,2,1,5,0,1
126010,387.096774193548,4,2,1,5,1,0
126397,342.857142857143,3,2,1,5,1,0
126397,-113.636363636364,3,2,1,5,0,0
130511,363.636363636364,3,2,1,5,1,0
130511,-111.111111111111,3,2,1,5,0,0
130874,387.096774193548,3,2,1,5,1,0
130874,-105.263157894737,3,2,1,5,0,0
131261,413.793103448276,3,2,1,5,1,0
131674,500,3,2,1,5,1,0
132174,631.578947368421,3,2,1,5,1,0
132805,666.666666666667,3,2,1,5,1,0
133471,600,3,2,1,5,1,0
134071,750,3,2,1,5,1,0
134821,800,3,2,1,5,1,0
135621,1395.3488372093,3,2,1,5,1,0

[HitObjects]
64,192,2178,5,0,0:0:0:0:
320,192,2178,1,0,0:0:0:0:
448,192,2179,5,0,0:0:0:0:
192,192,2372,1,0,0:0:0:0:
320,192,2372,1,0,0:0:0:0:
320,192,2566,1,0,0:0:0:0:
448,192,2566,1,0,0:0:0:0:
64,192,2759,1,0,0:0:0:0:
192,192,2759,1,0,0:0:0:0:
64,192,3727,1,0,0:0:0:0:
448,192,3727,1,0,0:0:0:0:
320,192,3920,1,0,0:0:0:0:
192,192,3920,1,0,0:0:0:0:
192,192,4114,1,0,0:0:0:0:
64,192,4114,1,0,0:0:0:0:
448,192,4308,1,0,0:0:0:0:
320,192,4308,1,0,0:0:0:0:
64,192,5275,1,0,0:0:0:0:
192,192,5372,1,0,0:0:0:0:
320,192,5469,1,0,0:0:0:0:
448,192,5662,1,0,0:0:0:0:
320,192,5759,1,0,0:0:0:0:
192,192,5856,1,0,0:0:0:0:
320,192,6049,1,0,0:0:0:0:
448,192,6049,1,0,0:0:0:0:
64,192,6243,1,0,0:0:0:0:
192,192,6243,1,0,0:0:0:0:
320,192,6437,1,0,0:0:0:0:
448,192,6437,1,0,0:0:0:0:
64,192,6630,1,0,0:0:0:0:
192,192,6630,1,0,0:0:0:0:
320,192,6824,1,0,0:0:0:0:
192,192,6920,1,0,0:0:0:0:
64,192,7017,1,0,0:0:0:0:
448,192,7211,1,0,0:0:0:0:
320,192,7308,1,0,0:0:0:0:
448,192,7404,1,0,0:0:0:0:
64,192,7598,1,0,0:0:0:0:
192,192,7598,1,0,0:0:0:0:
320,192,7791,1,0,0:0:0:0:
448,192,7791,1,0,0:0:0:0:
64,192,7985,1,0,0:0:0:0:
192,192,7985,1,0,0:0:0:0:
64,192,8178,1,0,0:0:0:0:
192,192,8178,1,0,0:0:0:0:
448,192,8372,128,0,9146:0:0:0:0:
320,192,8759,128,0,9533:0:0:0:0:
64,192,9146,128,0,9920:0:0:0:0:
192,192,9533,128,0,10308:0:0:0:0:
448,192,9920,128,0,10308:0:0:0:0:
320,192,10308,128,0,11469:0:0:0:0:
64,192,10695,128,0,11469:0:0:0:0:
448,192,11275,1,0,0:0:0:0:
192,192,11469,128,0,14566:0:0:0:0:
64,192,14566,1,0,0:0:0:0:
448,192,14566,1,0,0:0:0:0:
320,192,14759,1,0,0:0:0:0:
192,192,14759,1,0,0:0:0:0:
448,192,14953,1,0,0:0:0:0:
320,192,14953,1,0,0:0:0:0:
192,192,15146,1,0,0:0:0:0:
64,192,15146,1,0,0:0:0:0:
320,192,15340,1,0,0:0:0:0:
192,192,15437,1,0,0:0:0:0:
64,192,15533,1,0,0:0:0:0:
448,192,15727,1,0,0:0:0:0:
64,192,15920,1,0,0:0:0:0:
192,192,16114,1,0,0:0:0:0:
320,192,16114,1,0,0:0:0:0:
64,192,16308,1,0,0:0:0:0:
448,192,16308,1,0,0:0:0:0:
448,192,16501,1,0,0:0:0:0:
192,192,16501,1,0,0:0:0:0:
320,192,16695,1,0,0:0:0:0:
64,192,16695,1,0,0:0:0:0:
192,192,16888,1,0,0:0:0:0:
320,192,16985,1,0,0:0:0:0:
448,192,17082,1,0,0:0:0:0:
64,192,17275,1,0,0:0:0:0:
192,192,17469,1,0,0:0:0:0:
320,192,17662,1,0,0:0:0:0:
448,192,17662,1,0,0:0:0:0:
192,192,17856,1,0,0:0:0:0:
320,192,17856,1,0,0:0:0:0:
64,192,18049,1,0,0:0:0:0:
192,192,18049,1,0,0:0:0:0:
448,192,18243,1,0,0:0:0:0:
320,192,18243,1,0,0:0:0:0:
64,192,18437,1,0,0:0:0:0:
192,192,18533,1,0,0:0:0:0:
320,192,18630,1,0,0:0:0:0:
448,192,18824,1,0,0:0:0:0:
64,192,19017,1,0,0:0:0:0:
448,192,19211,128,0,19404:0:0:0:0:
320,192,19404,128,0,19598:0:0:0:0:
192,192,19598,128,0,19791:0:0:0:0:
64,192,19791,128,0,19985:0:0:0:0:
448,192,19985,128,0,20178:0:0:0:0:
320,192,20178,128,0,20372:0:0:0:0:
192,192,20372,128,0,20566:0:0:0:0:
64,192,20566,128,0,20759:0:0:0:0:
448,192,20759,128,0,21533:0:0:0:0:
320,192,21146,128,0,21920:0:0:0:0:
192,192,21533,128,0,21920:0:0:0:0:
64,192,21920,128,0,22308:0:0:0:0:
192,192,22308,128,0,22695:0:0:0:0:
320,192,22695,128,0,23082:0:0:0:0:
448,192,23082,1,0,0:0:0:0:
320,192,23275,1,0,0:0:0:0:
192,192,23469,1,0,0:0:0:0:
64,192,23662,1,0,0:0:0:0:
448,192,23856,1,0,0:0:0:0:
64,192,23953,1,0,0:0:0:0:
192,192,24049,1,0,0:0:0:0:
320,192,24146,1,0,0:0:0:0:
448,192,24437,5,0,0:0:0:0:
64,192,24630,1,0,0:0:0:0:
192,192,24727,1,0,0:0:0:0:
320,192,24824,1,0,0:0:0:0:
192,192,24920,1,0,0:0:0:0:
320,192,25211,1,0,0:0:0:0:
64,192,25404,5,0,0:0:0:0:
192,192,25404,1,0,0:0:0:0:
448,192,25404,1,0,0:0:0:0:
448,192,26759,1,0,0:0:0:0:
320,192,26953,1,0,0:0:0:0:
192,192,27243,1,0,0:0:0:0:
64,192,27533,1,0,0:0:0:0:
192,192,27727,1,0,0:0:0:0:
448,192,28017,1,0,0:0:0:0:
320,192,28308,1,0,0:0:0:0:
192,192,28501,1,0,0:0:0:0:
64,192,28791,1,0,0:0:0:0:
448,192,29082,1,0,0:0:0:0:
320,192,30049,1,0,0:0:0:0:
192,192,30340,1,0,0:0:0:0:
64,192,30630,1,0,0:0:0:0:
320,192,30824,1,0,0:0:0:0:
448,192,31114,1,0,0:0:0:0:
64,192,31404,1,0,0:0:0:0:
192,192,31598,1,0,0:0:0:0:
320,192,31888,1,0,0:0:0:0:
448,192,32178,1,0,0:0:0:0:
448,192,33146,1,0,0:0:0:0:
320,192,33211,1,0,0:0:0:0:
192,192,33275,1,0,0:0:0:0:
64,192,33340,1,0,0:0:0:0:
192,192,33404,1,0,0:0:0:0:
320,192,33469,1,0,0:0:0:0:
448,192,33533,1,0,0:0:0:0:
64,192,33598,1,0,0:0:0:0:
192,192,33662,1,0,0:0:0:0:
320,192,33727,1,0,0:0:0:0:
448,192,33791,1,0,0:0:0:0:
64,192,33856,1,0,0:0:0:0:
192,192,33920,1,0,0:0:0:0:
320,192,33985,1,0,0:0:0:0:
448,192,34049,1,0,0:0:0:0:
64,192,34178,1,0,0:0:0:0:
192,192,34243,1,0,0:0:0:0:
320,192,34308,1,0,0:0:0:0:
448,192,34372,1,0,0:0:0:0:
320,192,34437,1,0,0:0:0:0:
192,192,34501,1,0,0:0:0:0:
64,192,34566,1,0,0:0:0:0:
192,192,34630,1,0,0:0:0:0:
448,192,34695,1,0,0:0:0:0:
64,192,34791,1,0,0:0:0:0:
192,192,34888,1,0,0:0:0:0:
320,192,34985,1,0,0:0:0:0:
448,192,35178,1,0,0:0:0:0:
192,192,35275,1,0,0:0:0:0:
320,192,35372,1,0,0:0:0:0:
64,192,35469,1,0,0:0:0:0:
64,192,36243,1,0,0:0:0:0:
320,192,36533,1,0,0:0:0:0:
64,192,36824,1,0,0:0:0:0:
192,192,37017,1,0,0:0:0:0:
320,192,37308,1,0,0:0:0:0:
64,192,37791,1,0,0:0:0:0:
192,192,37856,1,0,0:0:0:0:
320,192,37920,1,0,0:0:0:0:
448,192,37985,1,0,0:0:0:0:
320,192,38049,1,0,0:0:0:0:
192,192,38114,1,0,0:0:0:0:
64,192,38178,1,0,0:0:0:0:
448,192,38243,1,0,0:0:0:0:
320,192,38308,1,0,0:0:0:0:
192,192,38372,1,0,0:0:0:0:
64,192,38437,1,0,0:0:0:0:
192,192,38501,1,0,0:0:0:0:
448,192,38566,1,0,0:0:0:0:
320,192,38566,1,0,0:0:0:0:
64,192,39340,1,0,0:0:0:0:
192,192,39340,1,0,0:0:0:0:
320,192,39533,1,0,0:0:0:0:
192,192,39727,1,0,0:0:0:0:
448,192,39727,1,0,0:0:0:0:
320,192,39920,1,0,0:0:0:0:
64,192,40114,1,0,0:0:0:0:
192,192,40114,1,0,0:0:0:0:
320,192,40308,1,0,0:0:0:0:
192,192,40501,1,0,0:0:0:0:
448,192,40501,1,0,0:0:0:0:
320,192,40695,1,0,0:0:0:0:
64,192,40888,1,0,0:0:0:0:
448,192,40888,1,0,0:0:0:0:
192,192,41178,1,0,0:0:0:0:
320,192,41178,1,0,0:0:0:0:
192,192,41469,1,0,0:0:0:0:
320,192,41469,1,0,0:0:0:0:
64,192,42437,1,0,0:0:0:0:
448,192,42437,1,0,0:0:0:0:
192,192,42630,1,0,0:0:0:0:
448,192,42824,1,0,0:0:0:0:
320,192,42824,1,0,0:0:0:0:
192,192,43017,1,0,0:0:0:0:
64,192,43211,1,0,0:0:0:0:
448,192,43211,1,0,0:0:0:0:
192,192,43404,1,0,0:0:0:0:
320,192,43598,1,0,0:0:0:0:
448,192,43598,1,0,0:0:0:0:
192,192,43791,1,0,0:0:0:0:
64,192,43985,1,0,0:0:0:0:
448,192,43985,1,0,0:0:0:0:
192,192,44275,1,0,0:0:0:0:
320,192,44275,1,0,0:0:0:0:
320,192,44566,1,0,0:0:0:0:
192,192,44566,1,0,0:0:0:0:
192,192,45509,1,0,0:0:0:0:
64,192,45509,1,0,0:0:0:0:
448,192,45598,1,0,0:0:0:0:
320,192,45662,1,0,0:0:0:0:
192,192,45727,1,0,0:0:0:0:
64,192,45791,1,0,0:0:0:0:
192,192,45856,1,0,0:0:0:0:
320,192,45920,1,0,0:0:0:0:
448,192,45985,1,0,0:0:0:0:
320,192,46049,1,0,0:0:0:0:
192,192,46114,1,0,0:0:0:0:
64,192,46178,1,0,0:0:0:0:
192,192,46243,1,0,0:0:0:0:
448,192,46308,1,0,0:0:0:0:
320,192,46308,1,0,0:0:0:0:
64,192,46372,1,0,0:0:0:0:
192,192,46437,1,0,0:0:0:0:
320,192,46501,1,0,0:0:0:0:
448,192,46566,1,0,0:0:0:0:
320,192,46630,1,0,0:0:0:0:
192,192,46695,1,0,0:0:0:0:
64,192,46759,1,0,0:0:0:0:
448,192,46824,1,0,0:0:0:0:
320,192,46888,1,0,0:0:0:0:
192,192,46953,1,0,0:0:0:0:
64,192,47017,1,0,0:0:0:0:
320,192,47058,1,0,0:0:0:0:
448,192,47058,1,0,0:0:0:0:
64,192,47178,1,0,0:0:0:0:
192,192,47275,1,0,0:0:0:0:
320,192,47372,1,0,0:0:0:0:
64,192,47469,1,0,0:0:0:0:
448,192,47469,1,0,0:0:0:0:
320,192,47566,1,0,0:0:0:0:
192,192,47662,1,0,0:0:0:0:
64,192,47759,1,0,0:0:0:0:
320,192,47856,1,0,0:0:0:0:
448,192,47856,1,0,0:0:0:0:
64,192,47953,1,0,0:0:0:0:
192,192,48049,1,0,0:0:0:0:
320,192,48146,1,0,0:0:0:0:
448,192,48243,1,0,0:0:0:0:
64,192,48243,1,0,0:0:0:0:
320,192,48437,1,0,0:0:0:0:
192,192,48630,1,0,0:0:0:0:
448,192,48630,1,0,0:0:0:0:
320,192,48824,1,0,0:0:0:0:
64,192,48920,1,0,0:0:0:0:
192,192,49017,1,0,0:0:0:0:
320,192,49017,1,0,0:0:0:0:
448,192,49211,1,0,0:0:0:0:
320,192,49404,1,0,0:0:0:0:
64,192,49404,1,0,0:0:0:0:
192,192,49598,1,0,0:0:0:0:
448,192,49695,1,0,0:0:0:0:
320,192,49791,1,0,0:0:0:0:
192,192,49791,1,0,0:0:0:0:
192,192,49985,1,0,0:0:0:0:
64,192,50178,1,0,0:0:0:0:
448,192,50178,1,0,0:0:0:0:
192,192,50227,1,0,0:0:0:0:
320,192,50324,1,0,0:0:0:0:
448,192,50372,1,0,0:0:0:0:
64,192,50469,1,0,0:0:0:0:
192,192,50469,1,0,0:0:0:0:
64,192,50759,1,0,0:0:0:0:
192,192,50759,1,0,0:0:0:0:
448,192,50856,1,0,0:0:0:0:
320,192,50953,1,0,0:0:0:0:
192,192,51049,1,0,0:0:0:0:
64,192,51195,1,0,0:0:0:0:
192,192,51340,1,0,0:0:0:0:
320,192,51485,1,0,0:0:0:0:
64,192,51727,1,0,0:0:0:0:
320,192,51727,1,0,0:0:0:0:
448,192,51727,1,0,0:0:0:0:
192,192,51920,1,0,0:0:0:0:
320,192,52308,1,0,0:0:0:0:
448,192,52308,1,0,0:0:0:0:
64,192,52501,1,0,0:0:0:0:
448,192,52501,1,0,0:0:0:0:
448,192,52888,1,0,0:0:0:0:
192,192,53082,1,0,0:0:0:0:
320,192,53082,1,0,0:0:0:0:
64,192,53275,1,0,0:0:0:0:
448,192,53275,1,0,0:0:0:0:
448,192,53566,1,0,0:0:0:0:
192,192,53566,1,0,0:0:0:0:
64,192,53662,1,0,0:0:0:0:
320,192,53856,1,0,0:0:0:0:
192,192,53856,1,0,0:0:0:0:
448,192,54049,1,0,0:0:0:0:
64,192,54049,1,0,0:0:0:0:
192,192,54243,1,0,0:0:0:0:
320,192,54243,1,0,0:0:0:0:
64,192,54437,1,0,0:0:0:0:
448,192,54630,1,0,0:0:0:0:
320,192,54630,1,0,0:0:0:0:
192,192,54727,1,0,0:0:0:0:
64,192,54727,1,0,0:0:0:0:
448,192,54824,1,0,0:0:0:0:
320,192,54824,1,0,0:0:0:0:
64,192,55114,1,0,0:0:0:0:
320,192,55114,1,0,0:0:0:0:
448,192,55211,1,0,0:0:0:0:
320,192,55404,1,0,0:0:0:0:
192,192,55404,1,0,0:0:0:0:
64,192,55598,1,0,0:0:0:0:
448,192,55598,1,0,0:0:0:0:
192,192,55985,1,0,0:0:0:0:
320,192,56178,1,0,0:0:0:0:
448,192,56178,1,0,0:0:0:0:
192,192,56372,1,0,0:0:0:0:
320,192,56372,1,0,0:0:0:0:
64,192,56662,1,0,0:0:0:0:
448,192,56662,1,0,0:0:0:0:
64,192,56953,1,0,0:0:0:0:
448,192,56953,1,0,0:0:0:0:
448,192,57533,1,0,0:0:0:0:
320,192,57533,1,0,0:0:0:0:
192,192,57630,1,0,0:0:0:0:
64,192,57630,1,0,0:0:0:0:
320,192,57727,1,0,0:0:0:0:
448,192,57727,1,0,0:0:0:0:
192,192,57824,1,0,0:0:0:0:
64,192,57824,1,0,0:0:0:0:
448,192,57920,1,0,0:0:0:0:
64,192,57920,1,0,0:0:0:0:
192,192,58308,1,0,0:0:0:0:
448,192,58501,1,0,0:0:0:0:
320,192,58501,1,0,0:0:0:0:
320,192,58695,1,0,0:0:0:0:
64,192,58695,1,0,0:0:0:0:
448,192,59082,1,0,0:0:0:0:
192,192,59275,1,0,0:0:0:0:
320,192,59275,1,0,0:0:0:0:
64,192,59469,1,0,0:0:0:0:
448,192,59469,1,0,0:0:0:0:
320,192,59759,1,0,0:0:0:0:
448,192,59759,1,0,0:0:0:0:
64,192,59856,1,0,0:0:0:0:
320,192,60049,1,0,0:0:0:0:
448,192,60049,1,0,0:0:0:0:
64,192,60146,1,0,0:0:0:0:
192,192,60146,1,0,0:0:0:0:
64,192,60243,1,0,0:0:0:0:
448,192,60243,1,0,0:0:0:0:
64,192,60630,1,0,0:0:0:0:
192,192,60824,1,0,0:0:0:0:
448,192,60824,1,0,0:0:0:0:
448,192,61017,1,0,0:0:0:0:
64,192,61017,1,0,0:0:0:0:
320,192,61404,1,0,0:0:0:0:
64,192,61598,1,0,0:0:0:0:
448,192,61598,1,0,0:0:0:0:
192,192,61791,1,0,0:0:0:0:
320,192,61791,1,0,0:0:0:0:
64,192,62178,1,0,0:0:0:0:
320,192,62566,1,0,0:0:0:0:
448,192,62566,1,0,0:0:0:0:
320,192,62856,1,0,0:0:0:0:
448,192,62856,1,0,0:0:0:0:
192,192,63340,1,0,0:0:0:0:
64,192,63340,128,0,64114:0:0:0:0:
320,192,63533,1,0,0:0:0:0:
448,192,63630,1,0,0:0:0:0:
320,192,63727,1,0,0:0:0:0:
192,192,63824,1,0,0:0:0:0:
320,192,63920,1,0,0:0:0:0:
448,192,64017,1,0,0:0:0:0:
320,192,64114,1,0,0:0:0:0:
192,192,64114,1,0,0:0:0:0:
448,192,64308,1,0,0:0:0:0:
64,192,64404,1,0,0:0:0:0:
448,192,64501,1,0,0:0:0:0:
320,192,64501,1,0,0:0:0:0:
192,192,64695,1,0,0:0:0:0:
64,192,64888,1,0,0:0:0:0:
448,192,64888,1,0,0:0:0:0:
320,192,65082,1,0,0:0:0:0:
64,192,65178,1,0,0:0:0:0:
192,192,65275,1,0,0:0:0:0:
320,192,65275,1,0,0:0:0:0:
448,192,65469,1,0,0:0:0:0:
64,192,65662,1,0,0:0:0:0:
192,192,65662,1,0,0:0:0:0:
320,192,65856,1,0,0:0:0:0:
448,192,65953,1,0,0:0:0:0:
64,192,66049,1,0,0:0:0:0:
192,192,66049,1,0,0:0:0:0:
320,192,66437,1,0,0:0:0:0:
192,192,66437,1,0,0:0:0:0:
320,192,66824,1,0,0:0:0:0:
448,192,66824,1,0,0:0:0:0:
192,192,67017,1,0,0:0:0:0:
64,192,67211,1,0,0:0:0:0:
448,192,67211,1,0,0:0:0:0:
320,192,67404,1,0,0:0:0:0:
64,192,67501,1,0,0:0:0:0:
192,192,67598,1,0,0:0:0:0:
448,192,67598,1,0,0:0:0:0:
320,192,67791,1,0,0:0:0:0:
192,192,67985,1,0,0:0:0:0:
64,192,67985,1,0,0:0:0:0:
448,192,68178,1,0,0:0:0:0:
64,192,68275,1,0,0:0:0:0:
192,192,68372,1,0,0:0:0:0:
320,192,68372,1,0,0:0:0:0:
448,192,68566,1,0,0:0:0:0:
320,192,68759,1,0,0:0:0:0:
192,192,68759,1,0,0:0:0:0:
448,192,68953,1,0,0:0:0:0:
64,192,69049,1,0,0:0:0:0:
192,192,69146,1,0,0:0:0:0:
320,192,69146,1,0,0:0:0:0:
448,192,69340,1,0,0:0:0:0:
320,192,69437,1,0,0:0:0:0:
64,192,69533,1,0,0:0:0:0:
192,192,69533,1,0,0:0:0:0:
320,192,69727,1,0,0:0:0:0:
192,192,69824,1,0,0:0:0:0:
448,192,69920,1,0,0:0:0:0:
320,192,69920,1,0,0:0:0:0:
192,192,70017,1,0,0:0:0:0:
64,192,70017,1,0,0:0:0:0:
448,192,70114,1,0,0:0:0:0:
320,192,70114,1,0,0:0:0:0:
192,192,70211,1,0,0:0:0:0:
64,192,70211,1,0,0:0:0:0:
64,192,70308,1,0,0:0:0:0:
448,192,70308,1,0,0:0:0:0:
192,192,70501,1,0,0:0:0:0:
448,192,70598,1,0,0:0:0:0:
320,192,70695,1,0,0:0:0:0:
64,192,70695,1,0,0:0:0:0:
192,192,70888,1,0,0:0:0:0:
320,192,71082,1,0,0:0:0:0:
448,192,71082,1,0,0:0:0:0:
192,192,71275,1,0,0:0:0:0:
448,192,71372,1,0,0:0:0:0:
64,192,71469,1,0,0:0:0:0:
320,192,71469,1,0,0:0:0:0:
448,192,71662,1,0,0:0:0:0:
192,192,71856,1,0,0:0:0:0:
320,192,71856,1,0,0:0:0:0:
64,192,72049,1,0,0:0:0:0:
320,192,72243,1,0,0:0:0:0:
448,192,72243,1,0,0:0:0:0:
64,192,72437,1,0,0:0:0:0:
192,192,72630,1,0,0:0:0:0:
320,192,72630,1,0,0:0:0:0:
64,192,72727,1,0,0:0:0:0:
448,192,72727,1,0,0:0:0:0:
320,192,72824,1,0,0:0:0:0:
64,192,73017,1,0,0:0:0:0:
192,192,73017,1,0,0:0:0:0:
448,192,73404,1,0,0:0:0:0:
320,192,73404,1,0,0:0:0:0:
64,192,73598,1,0,0:0:0:0:
192,192,73598,1,0,0:0:0:0:
64,192,73791,1,0,0:0:0:0:
448,192,73791,1,0,0:0:0:0:
448,192,73985,1,0,0:0:0:0:
192,192,73985,1,0,0:0:0:0:
192,192,74178,1,0,0:0:0:0:
320,192,74178,1,0,0:0:0:0:
64,192,74372,1,0,0:0:0:0:
192,192,74372,1,0,0:0:0:0:
64,192,74566,1,0,0:0:0:0:
448,192,74566,1,0,0:0:0:0:
192,192,74759,1,0,0:0:0:0:
320,192,74759,1,0,0:0:0:0:
448,192,74953,128,0,75243:0:0:0:0:
320,192,75243,128,0,75533:0:0:0:0:
192,192,75533,128,0,76501:0:0:0:0:
64,192,76114,1,0,0:0:0:0:
320,192,76211,1,0,0:0:0:0:
448,192,76308,1,0,0:0:0:0:
320,192,76404,1,0,0:0:0:0:
64,192,76501,5,0,0:0:0:0:
448,192,76501,1,0,0:0:0:0:
192,192,76755,1,0,0:0:0:0:
192,192,77009,1,0,0:0:0:0:
448,192,77263,1,0,0:0:0:0:
320,192,77517,1,0,0:0:0:0:
320,192,77772,1,0,0:0:0:0:
64,192,78026,1,0,0:0:0:0:
192,192,78280,1,0,0:0:0:0:
192,192,78471,1,0,0:0:0:0:
448,192,78789,1,0,0:0:0:0:
320,192,79043,1,0,0:0:0:0:
192,192,79297,1,0,0:0:0:0:
64,192,79551,1,0,0:0:0:0:
448,192,79806,1,0,0:0:0:0:
448,192,80060,1,0,0:0:0:0:
320,192,80314,1,0,0:0:0:0:
448,192,80568,1,0,0:0:0:0:
192,192,80695,1,0,0:0:0:0:
64,192,80823,1,0,0:0:0:0:
192,192,80950,1,0,0:0:0:0:
320,192,81077,1,0,0:0:0:0:
448,192,81331,1,0,0:0:0:0:
192,192,81522,1,0,0:0:0:0:
320,192,81839,1,0,0:0:0:0:
448,192,82348,128,0,82475:0:0:0:0:
320,192,82475,128,0,82602:0:0:0:0:
192,192,82602,128,0,82729:0:0:0:0:
320,192,82729,128,0,82856:0:0:0:0:
192,192,82856,128,0,82984:0:0:0:0:
320,192,82984,128,0,83111:0:0:0:0:
448,192,83111,1,0,0:0:0:0:
64,192,83174,1,0,0:0:0:0:
192,192,83238,1,0,0:0:0:0:
320,192,83301,1,0,0:0:0:0:
448,192,83365,1,0,0:0:0:0:
320,192,83492,1,0,0:0:0:0:
64,192,83619,1,0,0:0:0:0:
192,192,83746,1,0,0:0:0:0:
448,192,83873,1,0,0:0:0:0:
320,192,84001,1,0,0:0:0:0:
192,192,84128,1,0,0:0:0:0:
64,192,84382,1,0,0:0:0:0:
448,192,84636,1,0,0:0:0:0:
320,192,84763,1,0,0:0:0:0:
192,192,84890,1,0,0:0:0:0:
64,192,85017,1,0,0:0:0:0:
320,192,85145,1,0,0:0:0:0:
192,192,85272,1,0,0:0:0:0:
320,192,85399,1,0,0:0:0:0:
192,192,85526,1,0,0:0:0:0:
64,192,85653,1,0,0:0:0:0:
448,192,85653,128,0,85907:0:0:0:0:
320,192,85907,128,0,86162:0:0:0:0:
64,192,86162,128,0,86416:0:0:0:0:
448,192,86416,1,0,0:0:0:0:
320,192,86670,1,0,0:0:0:0:
64,192,86924,1,0,0:0:0:0:
192,192,87051,1,0,0:0:0:0:
448,192,87178,128,0,87433:0:0:0:0:
320,192,87178,1,0,0:0:0:0:
64,192,87433,128,0,87941:0:0:0:0:
320,192,87687,1,0,0:0:0:0:
448,192,87941,1,0,0:0:0:0:
192,192,88111,1,0,0:0:0:0:
320,192,88280,1,0,0:0:0:0:
192,192,88450,1,0,0:0:0:0:
64,192,88577,1,0,0:0:0:0:
448,192,88577,1,0,0:0:0:0:
192,192,88704,1,0,0:0:0:0:
320,192,88704,1,0,0:0:0:0:
448,192,89091,1,0,0:0:0:0:
192,192,89284,1,0,0:0:0:0:
320,192,89284,1,0,0:0:0:0:
448,192,89478,1,0,0:0:0:0:
64,192,89478,1,0,0:0:0:0:
320,192,89865,1,0,0:0:0:0:
64,192,90058,1,0,0:0:0:0:
192,192,90058,1,0,0:0:0:0:
320,192,90252,1,0,0:0:0:0:
448,192,90252,1,0,0:0:0:0:
192,192,90542,1,0,0:0:0:0:
320,192,90542,1,0,0:0:0:0:
448,192,90639,1,0,0:0:0:0:
64,192,90833,1,0,0:0:0:0:
192,192,90833,1,0,0:0:0:0:
64,192,91026,1,0,0:0:0:0:
448,192,91026,1,0,0:0:0:0:
320,192,91220,1,0,0:0:0:0:
448,192,91220,1,0,0:0:0:0:
320,192,91413,1,0,0:0:0:0:
448,192,91413,1,0,0:0:0:0:
64,192,91607,1,0,0:0:0:0:
192,192,91607,1,0,0:0:0:0:
448,192,91704,1,0,0:0:0:0:
320,192,91704,1,0,0:0:0:0:
64,192,91800,1,0,0:0:0:0:
448,192,91800,1,0,0:0:0:0:
192,192,92091,1,0,0:0:0:0:
448,192,92091,1,0,0:0:0:0:
192,192,92381,1,0,0:0:0:0:
448,192,92381,1,0,0:0:0:0:
64,192,92574,1,0,0:0:0:0:
320,192,92574,1,0,0:0:0:0:
448,192,92962,1,0,0:0:0:0:
192,192,93155,1,0,0:0:0:0:
320,192,93155,1,0,0:0:0:0:
64,192,93349,1,0,0:0:0:0:
192,192,93349,1,0,0:0:0:0:
64,192,93542,1,0,0:0:0:0:
448,192,93542,1,0,0:0:0:0:
192,192,93639,1,0,0:0:0:0:
320,192,93639,1,0,0:0:0:0:
448,192,93833,1,0,0:0:0:0:
64,192,93833,1,0,0:0:0:0:
192,192,93929,1,0,0:0:0:0:
320,192,93929,1,0,0:0:0:0:
320,192,94510,1,0,0:0:0:0:
448,192,94607,1,0,0:0:0:0:
64,192,94704,1,0,0:0:0:0:
192,192,94800,1,0,0:0:0:0:
320,192,94897,1,0,0:0:0:0:
448,192,94897,1,0,0:0:0:0:
192,192,95284,1,0,0:0:0:0:
320,192,95478,1,0,0:0:0:0:
448,192,95478,1,0,0:0:0:0:
448,192,95671,1,0,0:0:0:0:
64,192,95671,1,0,0:0:0:0:
192,192,96058,1,0,0:0:0:0:
320,192,96252,1,0,0:0:0:0:
448,192,96252,1,0,0:0:0:0:
320,192,96445,1,0,0:0:0:0:
64,192,96445,1,0,0:0:0:0:
192,192,96736,1,0,0:0:0:0:
448,192,96736,1,0,0:0:0:0:
64,192,97026,1,0,0:0:0:0:
192,192,97026,1,0,0:0:0:0:
320,192,97123,1,0,0:0:0:0:
192,192,97220,1,0,0:0:0:0:
448,192,97220,1,0,0:0:0:0:
320,192,97607,1,0,0:0:0:0:
64,192,97800,1,0,0:0:0:0:
192,192,97800,1,0,0:0:0:0:
320,192,97994,1,0,0:0:0:0:
448,192,97994,1,0,0:0:0:0:
192,192,98381,1,0,0:0:0:0:
320,192,98574,1,0,0:0:0:0:
448,192,98574,1,0,0:0:0:0:
320,192,98768,1,0,0:0:0:0:
64,192,98768,1,0,0:0:0:0:
448,192,99542,1,0,0:0:0:0:
192,192,99542,1,0,0:0:0:0:
64,192,99833,1,0,0:0:0:0:
192,192,99833,1,0,0:0:0:0:
320,192,100316,128,0,101091:0:0:0:0:
64,192,101091,1,0,0:0:0:0:
192,192,101091,1,0,0:0:0:0:
448,192,101091,1,0,0:0:0:0:
320,192,101284,1,0,0:0:0:0:
448,192,101381,1,0,0:0:0:0:
64,192,101478,1,0,0:0:0:0:
192,192,101478,1,0,0:0:0:0:
448,192,101671,1,0,0:0:0:0:
192,192,101865,1,0,0:0:0:0:
320,192,101865,1,0,0:0:0:0:
64,192,102058,1,0,0:0:0:0:
320,192,102155,1,0,0:0:0:0:
192,192,102252,1,0,0:0:0:0:
448,192,102252,1,0,0:0:0:0:
320,192,102445,1,0,0:0:0:0:
192,192,102639,1,0,0:0:0:0:
64,192,102639,1,0,0:0:0:0:
448,192,102833,1,0,0:0:0:0:
64,192,102929,1,0,0:0:0:0:
320,192,103026,1,0,0:0:0:0:
192,192,103026,1,0,0:0:0:0:
448,192,103220,1,0,0:0:0:0:
320,192,103413,1,0,0:0:0:0:
64,192,103413,1,0,0:0:0:0:
192,192,103607,1,0,0:0:0:0:
320,192,103800,1,0,0:0:0:0:
448,192,103800,1,0,0:0:0:0:
192,192,103994,1,0,0:0:0:0:
64,192,104187,1,0,0:0:0:0:
448,192,104187,1,0,0:0:0:0:
320,192,104381,1,0,0:0:0:0:
64,192,104478,1,0,0:0:0:0:
192,192,104574,1,0,0:0:0:0:
448,192,104574,1,0,0:0:0:0:
64,192,104768,1,0,0:0:0:0:
320,192,104962,1,0,0:0:0:0:
192,192,104962,1,0,0:0:0:0:
448,192,105155,1,0,0:0:0:0:
320,192,105252,1,0,0:0:0:0:
64,192,105349,1,0,0:0:0:0:
192,192,105349,1,0,0:0:0:0:
320,192,105542,1,0,0:0:0:0:
448,192,105736,1,0,0:0:0:0:
64,192,105736,1,0,0:0:0:0:
192,192,105929,1,0,0:0:0:0:
320,192,106123,1,0,0:0:0:0:
448,192,106123,1,0,0:0:0:0:
64,192,106316,1,0,0:0:0:0:
192,192,106510,1,0,0:0:0:0:
448,192,106510,1,0,0:0:0:0:
320,192,106703,1,0,0:0:0:0:
64,192,106897,1,0,0:0:0:0:
448,192,106897,1,0,0:0:0:0:
320,192,106994,1,0,0:0:0:0:
192,192,107091,1,0,0:0:0:0:
64,192,107187,1,0,0:0:0:0:
192,192,107284,1,0,0:0:0:0:
320,192,107284,1,0,0:0:0:0:
448,192,107478,1,0,0:0:0:0:
320,192,107574,1,0,0:0:0:0:
64,192,107671,1,0,0:0:0:0:
192,192,107671,1,0,0:0:0:0:
320,192,107865,1,0,0:0:0:0:
448,192,108058,1,0,0:0:0:0:
64,192,108058,1,0,0:0:0:0:
192,192,108252,1,0,0:0:0:0:
320,192,108445,1,0,0:0:0:0:
448,192,108445,1,0,0:0:0:0:
64,192,108639,1,0,0:0:0:0:
448,192,108833,1,0,0:0:0:0:
320,192,108833,1,0,0:0:0:0:
192,192,109220,1,0,0:0:0:0:
320,192,109220,1,0,0:0:0:0:
64,192,109607,1,0,0:0:0:0:
192,192,109607,1,0,0:0:0:0:
192,192,109994,1,0,0:0:0:0:
320,192,109994,1,0,0:0:0:0:
320,192,110381,1,0,0:0:0:0:
64,192,110381,1,0,0:0:0:0:
320,192,110574,1,0,0:0:0:0:
448,192,110574,1,0,0:0:0:0:
448,192,110768,1,0,0:0:0:0:
192,192,110768,1,0,0:0:0:0:
192,192,110962,1,0,0:0:0:0:
64,192,110962,1,0,0:0:0:0:
64,192,111155,1,0,0:0:0:0:
320,192,111155,1,0,0:0:0:0:
64,192,111349,1,0,0:0:0:0:
448,192,111349,1,0,0:0:0:0:
192,192,111542,1,0,0:0:0:0:
320,192,111542,1,0,0:0:0:0:
64,192,111736,1,0,0:0:0:0:
448,192,111736,1,0,0:0:0:0:
64,192,111929,1,0,0:0:0:0:
192,192,111994,1,0,0:0:0:0:
320,192,112058,1,0,0:0:0:0:
448,192,112123,1,0,0:0:0:0:
320,192,112187,1,0,0:0:0:0:
192,192,112252,1,0,0:0:0:0:
448,192,112316,1,0,0:0:0:0:
320,192,112381,1,0,0:0:0:0:
192,192,112445,1,0,0:0:0:0:
64,192,112510,1,0,0:0:0:0:
192,192,112574,1,0,0:0:0:0:
320,192,112639,1,0,0:0:0:0:
448,192,112703,1,0,0:0:0:0:
320,192,112768,1,0,0:0:0:0:
192,192,112833,1,0,0:0:0:0:
64,192,112897,1,0,0:0:0:0:
192,192,112962,1,0,0:0:0:0:
320,192,113026,1,0,0:0:0:0:
448,192,113091,1,0,0:0:0:0:
320,192,113187,1,0,0:0:0:0:
192,192,113284,1,0,0:0:0:0:
64,192,113381,1,0,0:0:0:0:
320,192,113478,1,0,0:0:0:0:
448,192,113478,1,0,0:0:0:0:
320,192,113671,1,0,0:0:0:0:
192,192,113768,1,0,0:0:0:0:
448,192,113865,1,0,0:0:0:0:
64,192,113865,1,0,0:0:0:0:
192,192,114058,1,0,0:0:0:0:
320,192,114252,1,0,0:0:0:0:
448,192,114252,1,0,0:0:0:0:
192,192,114445,1,0,0:0:0:0:
320,192,114542,1,0,0:0:0:0:
64,192,114639,1,0,0:0:0:0:
448,192,114639,1,0,0:0:0:0:
320,192,114833,1,0,0:0:0:0:
192,192,115026,1,0,0:0:0:0:
64,192,115026,1,0,0:0:0:0:
448,192,115220,1,0,0:0:0:0:
192,192,115413,1,0,0:0:0:0:
320,192,115413,1,0,0:0:0:0:
64,192,115607,1,0,0:0:0:0:
192,192,115800,1,0,0:0:0:0:
448,192,115800,1,0,0:0:0:0:
320,192,115994,1,0,0:0:0:0:
64,192,116187,1,0,0:0:0:0:
192,192,116187,1,0,0:0:0:0:
448,192,116381,1,0,0:0:0:0:
192,192,116574,1,0,0:0:0:0:
320,192,116574,1,0,0:0:0:0:
64,192,116768,1,0,0:0:0:0:
320,192,116865,1,0,0:0:0:0:
192,192,116962,1,0,0:0:0:0:
448,192,116962,1,0,0:0:0:0:
320,192,117155,1,0,0:0:0:0:
64,192,117349,1,0,0:0:0:0:
192,192,117349,1,0,0:0:0:0:
448,192,117445,1,0,0:0:0:0:
320,192,117542,1,0,0:0:0:0:
192,192,117639,1,0,0:0:0:0:
320,192,117736,1,0,0:0:0:0:
64,192,117736,1,0,0:0:0:0:
192,192,117929,1,0,0:0:0:0:
64,192,118123,1,0,0:0:0:0:
320,192,118123,1,0,0:0:0:0:
448,192,118123,1,0,0:0:0:0:
448,192,118413,1,0,0:0:0:0:
320,192,118510,1,0,0:0:0:0:
192,192,118607,1,0,0:0:0:0:
64,192,118703,1,0,0:0:0:0:
192,192,118800,1,0,0:0:0:0:
448,192,118897,1,0,0:0:0:0:
320,192,118994,1,0,0:0:0:0:
64,192,119091,1,0,0:0:0:0:
192,192,119187,1,0,0:0:0:0:
448,192,119284,1,0,0:0:0:0:
320,192,119381,1,0,0:0:0:0:
64,192,119478,1,0,0:0:0:0:
192,192,119574,1,0,0:0:0:0:
320,192,119671,1,0,0:0:0:0:
448,192,119671,1,0,0:0:0:0:
192,192,119865,1,0,0:0:0:0:
320,192,119962,1,0,0:0:0:0:
64,192,120058,1,0,0:0:0:0:
448,192,120058,1,0,0:0:0:0:
320,192,120252,1,0,0:0:0:0:
192,192,120445,1,0,0:0:0:0:
448,192,120445,1,0,0:0:0:0:
64,192,120639,1,0,0:0:0:0:
448,192,120736,1,0,0:0:0:0:
192,192,120833,1,0,0:0:0:0:
320,192,120833,1,0,0:0:0:0:
448,192,121026,1,0,0:0:0:0:
320,192,121220,1,0,0:0:0:0:
64,192,121220,1,0,0:0:0:0:
448,192,121413,1,0,0:0:0:0:
64,192,121510,1,0,0:0:0:0:
192,192,121607,1,0,0:0:0:0:
320,192,121607,1,0,0:0:0:0:
64,192,121800,1,0,0:0:0:0:
448,192,121994,1,0,0:0:0:0:
320,192,121994,1,0,0:0:0:0:
192,192,122187,1,0,0:0:0:0:
448,192,122381,1,0,0:0:0:0:
64,192,122381,1,0,0:0:0:0:
192,192,122768,1,0,0:0:0:0:
320,192,122768,1,0,0:0:0:0:
448,192,122962,1,0,0:0:0:0:
320,192,122962,1,0,0:0:0:0:
192,192,123155,1,0,0:0:0:0:
320,192,123155,1,0,0:0:0:0:
64,192,123349,1,0,0:0:0:0:
192,192,123349,1,0,0:0:0:0:
448,192,123542,1,0,0:0:0:0:
64,192,123542,1,0,0:0:0:0:
320,192,123736,1,0,0:0:0:0:
448,192,123736,1,0,0:0:0:0:
64,192,123929,1,0,0:0:0:0:
320,192,123929,1,0,0:0:0:0:
192,192,124123,1,0,0:0:0:0:
320,192,124123,1,0,0:0:0:0:
448,192,124316,128,0,124703:0:0:0:0:
320,192,124703,128,0,125091:0:0:0:0:
192,192,125091,128,0,125865:0:0:0:0:
448,192,126010,1,0,0:0:0:0:
320,192,126058,1,0,0:0:0:0:
64,192,126397,1,0,0:0:0:0:
448,192,126739,1,0,0:0:0:0:
64,192,126911,1,0,0:0:0:0:
192,192,127082,1,0,0:0:0:0:
64,192,127254,1,0,0:0:0:0:
448,192,127339,1,0,0:0:0:0:
320,192,127382,1,0,0:0:0:0:
192,192,127425,1,0,0:0:0:0:
64,192,127768,1,0,0:0:0:0:
320,192,127939,1,0,0:0:0:0:
192,192,128111,1,0,0:0:0:0:
448,192,128282,1,0,0:0:0:0:
64,192,128454,1,0,0:0:0:0:
448,192,128797,1,0,0:0:0:0:
192,192,128968,1,0,0:0:0:0:
320,192,129139,1,0,0:0:0:0:
64,192,129311,1,0,0:0:0:0:
192,192,129397,1,0,0:0:0:0:
320,192,129482,1,0,0:0:0:0:
448,192,129825,1,0,0:0:0:0:
320,192,129997,1,0,0:0:0:0:
64,192,130339,1,0,0:0:0:0:
64,192,130511,1,0,0:0:0:0:
320,192,130874,1,0,0:0:0:0:
448,192,131067,1,0,0:0:0:0:
192,192,131261,1,0,0:0:0:0:
320,192,131467,1,0,0:0:0:0:
64,192,131674,1,0,0:0:0:0:
192,192,132174,1,0,0:0:0:0:
320,192,132805,1,0,0:0:0:0:
448,192,133471,1,0,0:0:0:0:
192,192,134071,1,0,0:0:0:0:
320,192,134821,1,0,0:0:0:0:
448,192,135621,1,0,0:0:0:0:
64,192,135621,128,0,137016:0:0:0:0:
