osu file format v14

[General]
AudioFilename: Extra Terra & Urbanstep - Lost In Time.mp3
AudioLeadIn: 0
PreviewTime: 194542
Countdown: 0
SampleSet: Soft
StackLeniency: 0.7
Mode: 0
LetterboxInBreaks: 0
WidescreenStoryboard: 0

[Editor]
DistanceSpacing: 1.1
BeatDivisor: 4
GridSize: 4
TimelineZoom: 1.6

[Metadata]
Title:Lost In Time
TitleUnicode:Lost In Time
Artist:Extra Terra & Urbanstep
ArtistUnicode:Extra Terra & Urbanstep
Creator:NazuSan
Version:Insane
Source:
Tags:dubstep electronic Ren DeRandom Otaku 6th
BeatmapID:926178
BeatmapSetID:429241

[Difficulty]
HPDrainRate:7
CircleSize:4.3
OverallDifficulty:7
ApproachRate:9
SliderMultiplier:1.5
SliderTickRate:1

[Events]
//Background and Video events
0,0,"time_bgr.jpg",0,0
//Break Periods
2,38810,50810
2,115610,127610
2,166810,172410
//Storyboard Layer 0 (Background)
//Storyboard Layer 1 (Fail)
//Storyboard Layer 2 (Pass)
//Storyboard Layer 3 (Foreground)
//Storyboard Sound Samples

[TimingPoints]
210,400,4,2,1,100,1,0
210,-133.333333333333,4,2,1,50,0,0
12210,-100,4,3,1,50,0,0
13010,-100,4,3,1,70,0,0
51410,-133.333333333333,4,3,1,70,0,0
57010,-200,4,3,1,70,0,0
57810,-100,4,3,1,100,0,0
64210,-83.3333333333333,4,3,1,100,0,1
88210,-83.3333333333333,4,3,1,100,0,0
89810,-83.3333333333333,4,3,1,100,0,1
113810,-133.333333333333,4,3,1,100,0,1
115010,-83.3333333333333,4,3,1,100,0,1
115410,-100,4,2,1,70,0,0
129810,-100,4,2,1,80,0,0
131410,-100,4,2,1,90,0,0
133010,-100,4,3,1,100,0,0
166610,-100,4,2,1,30,0,0
173010,-100,4,2,1,70,0,0
174610,389.61038961039,4,2,1,54,1,0
176168,377.714825306893,4,2,1,54,1,0
177678,374.064837905237,4,2,1,54,1,0
179174,369.458128078818,4,2,1,54,1,0
180651,356.294536817102,4,2,1,54,1,0
182076,354.505169867061,4,2,1,54,1,0
183494,348.533255881499,4,2,1,54,1,0
184888,344.827586206897,4,1,1,54,1,0
190405,344.827586206897,4,1,1,90,1,0
195922,-83.3333333333333,4,3,1,100,0,1
216611,-100,4,3,1,100,0,0
220749,-83.3333333333333,4,3,1,100,0,1
239354,344.827586206897,4,3,1,100,1,1
240043,344.827586206897,4,3,1,100,1,0

[Colours]
Combo1 : 81,81,81
Combo2 : 251,201,51
Combo3 : 226,103,50

[HitObjects]
400,160,210,6,0,P|345:148|289:156,1,112.500004291535,2|0,0:0|0:0,0:0:0:0:
184,240,1010,1,2,0:0:0:0:
168,104,1410,1,2,0:0:0:0:
252,208,1810,6,0,P|300:264|352:296,1,112.500004291535,2|2,0:0|0:0,0:0:0:0:
312,116,2610,2,0,P|264:60|212:28,1,112.500004291535,2|2,0:0|0:0,0:0:0:0:
60,276,3410,6,0,P|100:304|168:308,1,112.500004291535,2|0,0:0|0:0,0:0:0:0:
144,176,4210,1,2,0:0:0:0:
260,108,4610,1,2,0:0:0:0:
324,228,5010,6,0,L|336:304,1,56.2500021457673,2|0,0:0|0:0,0:0:0:0:
384,336,5410,1,2,0:0:0:0:
408,192,5810,1,2,0:0:0:0:
380,124,6010,1,0,0:0:0:0:
408,56,6210,2,0,L|432:0,1,56.2500021457673,2|0,0:0|0:0,0:0:0:0:
488,112,6610,6,0,P|496:160|488:248,1,112.500004291535,2|0,0:0|0:0,0:0:0:0:
400,336,7410,1,2,0:0:0:0:
268,272,7810,1,2,0:0:0:0:
132,332,8210,6,0,P|92:328|28:272,1,112.500004291535,2|2,0:0|0:0,0:0:0:0:
256,192,9010,2,0,P|296:196|360:252,1,112.500004291535,2|2,0:0|0:0,0:0:0:0:
168,240,9810,6,0,P|152:188|188:116,1,112.500004291535,2|0,0:0|0:0,0:0:0:0:
308,88,10610,1,2,0:0:0:0:
404,200,11010,1,2,0:0:0:0:
312,312,11410,6,0,P|280:320|248:316,1,56.2500021457673,2|0,0:0|0:0,0:0:0:0:
200,272,11810,1,2,0:0:0:0:
88,112,12210,1,4,0:0:0:0:
216,28,12410,1,8,0:0:0:0:
216,28,12510,1,8,0:0:0:0:
216,28,12610,1,4,0:0:0:0:
224,168,12810,1,4,0:0:0:0:
48,44,13010,6,0,P|16:76|40:172,2,150,4|0|2,0:0|0:0|0:0,0:0:0:0:
116,168,14010,1,0,0:0:0:0:
76,304,14210,2,0,P|32:312|-16:296,1,75,4|0,0:0|0:0,0:0:0:0:
116,168,14610,6,0,P|160:160|208:176,1,75
300,244,15010,1,4,0:0:0:0:
284,156,15210,1,0,0:0:0:0:
208,260,15410,2,0,B|176:300|172:332|172:332|84:348,2,150,2|0|4,0:0|0:0|0:0,0:0:0:0:
336,112,16610,5,0,0:0:0:0:
336,112,17010,2,0,P|376:120|432:160,1,75,2|0,0:0|0:0,0:0:0:0:
244,152,17410,1,4,0:0:0:0:
260,56,17610,1,0,0:0:0:0:
324,192,17810,5,0,0:0:0:0:
236,236,18010,1,0,0:0:0:0:
180,108,18210,1,4,0:0:0:0:
52,136,18410,1,8,0:0:0:0:
20,152,18510,1,8,0:0:0:0:
0,184,18610,1,10,0:0:0:0:
88,224,18810,1,8,0:0:0:0:
20,336,19010,2,0,P|56:352|104:344,1,75,0|8,0:0|0:0,0:0:0:0:
280,244,19410,6,0,P|348:244|404:304,2,150,4|0|2,0:0|0:0|0:0,0:0:0:0:
312,336,20410,1,0,0:0:0:0:
340,168,20610,2,0,L|352:84,1,75,4|0,0:0|0:0,0:0:0:0:
420,0,21010,6,0,L|432:84,1,75
416,172,21410,1,4,0:0:0:0:
356,28,21610,1,0,0:0:0:0:
248,156,21810,2,0,P|224:204|224:252,1,75,2|0,0:0|0:0,0:0:0:0:
348,120,22210,1,0,0:0:0:0:
272,60,22410,1,0,0:0:0:0:
312,192,22610,6,0,B|328:252|328:252|372:264|388:332,2,150,4|0|2,0:0|0:0|0:0,0:0:0:0:
240,256,23610,1,0,0:0:0:0:
344,384,23810,1,4,0:0:0:0:
248,368,24010,1,0,0:0:0:0:
163,231,24210,6,0,P|160:268|172:304,1,75
232,172,24610,2,0,P|235:134|223:99,1,75,4|8,0:0|0:0,0:0:0:0:
192,80,24910,1,8,0:0:0:0:
168,52,25010,1,10,0:0:0:0:
252,0,25210,1,8,0:0:0:0:
328,60,25410,1,0,0:0:0:0:
196,156,25610,1,8,0:0:0:0:
56,76,25810,6,0,P|24:148|40:216,1,150,4|0,0:0|0:0,0:0:0:0:
120,156,26410,1,0,0:0:0:0:
252,88,26610,1,2,0:0:0:0:
288,80,26710,1,0,0:0:0:0:
324,84,26810,1,0,0:0:0:0:
356,104,26910,1,0,0:0:0:0:
380,132,27010,2,0,P|412:152|492:128,1,112.5,4|0,0:0|0:0,0:0:0:0:
436,84,27410,5,0,0:0:0:0:
316,176,27610,1,0,0:0:0:0:
448,232,27810,1,4,0:0:0:0:
476,260,27910,1,0,0:0:0:0:
488,296,28010,1,0,0:0:0:0:
480,332,28110,1,0,0:0:0:0:
456,360,28210,2,0,P|408:368|372:356,1,75,2|0,0:0|0:0,0:0:0:0:
264,232,28610,1,0,0:0:0:0:
260,328,28810,1,0,0:0:0:0:
360,224,29010,5,4,0:0:0:0:
372,188,29110,1,0,0:0:0:0:
376,152,29210,1,0,0:0:0:0:
368,116,29310,1,0,0:0:0:0:
348,84,29410,2,0,P|304:64|264:56,1,75
168,148,29810,5,2,0:0:0:0:
156,184,29910,1,0,0:0:0:0:
152,220,30010,1,0,0:0:0:0:
160,256,30110,1,0,0:0:0:0:
180,288,30210,2,0,P|224:308|264:316,1,75,4|0,0:0|0:0,0:0:0:0:
380,228,30610,5,0,0:0:0:0:
392,324,30810,1,0,0:0:0:0:
316,160,31010,1,4,0:0:0:0:
432,104,31210,1,8,0:0:0:0:
444,68,31310,1,8,0:0:0:0:
440,32,31410,1,10,0:0:0:0:
348,68,31610,1,8,0:0:0:0:
436,192,31810,1,0,0:0:0:0:
308,272,32010,1,8,0:0:0:0:
232,140,32210,6,0,B|192:140|164:168|164:168|128:152|91:159,1,150,4|0,0:0|0:0,0:0:0:0:
116,244,32810,1,0,0:0:0:0:
160,84,33010,1,2,0:0:0:0:
184,56,33110,1,0,0:0:0:0:
216,36,33210,1,0,0:0:0:0:
252,28,33310,1,0,0:0:0:0:
288,32,33410,2,0,P|346:52|380:96,1,112.5,4|0,0:0|0:0,0:0:0:0:
392,160,33810,5,0,0:0:0:0:
304,116,34010,1,0,0:0:0:0:
464,100,34210,1,4,0:0:0:0:
488,128,34310,1,0,0:0:0:0:
504,160,34410,1,0,0:0:0:0:
508,196,34510,1,0,0:0:0:0:
500,232,34610,2,0,P|472:268|436:300,1,75,2|0,0:0|0:0,0:0:0:0:
300,272,35010,1,0,0:0:0:0:
352,356,35210,1,0,0:0:0:0:
376,208,35410,5,4,0:0:0:0:
352,180,35510,1,0,0:0:0:0:
320,160,35610,1,0,0:0:0:0:
284,156,35710,1,0,0:0:0:0:
248,168,35810,2,0,P|192:176|148:164,1,75
48,96,36210,2,0,L|16:124,3,37.5,2|0|0|0,0:0|0:0|0:0|0:0,0:0:0:0:
20,192,36610,2,0,P|28:240|48:284,1,75,4|0,0:0|0:0,0:0:0:0:
172,336,37010,5,0,0:0:0:0:
144,244,37210,1,0,0:0:0:0:
232,104,37410,1,4,0:0:0:0:
260,196,37610,1,0,0:0:0:0:
284,224,37710,1,0,0:0:0:0:
316,240,37810,2,0,P|360:248|416:240,1,75,2|0,0:0|0:0,0:0:0:0:
444,200,38110,2,0,L|464:120,1,75
404,84,38410,1,0,0:0:0:0:
452,280,38610,5,4,0:0:0:0:
344,272,51410,6,0,P|300:280|236:256,1,112.500004291535,0|0,1:0|0:0,0:0:0:0:
128,160,52210,1,0,1:0:0:0:
264,104,52610,1,0,0:0:0:0:
132,252,53010,6,0,P|96:244|40:184,1,112.500004291535,0|0,1:0|0:0,0:0:0:0:
184,156,53810,1,0,1:0:0:0:
288,260,54210,1,0,0:0:0:0:
400,164,54610,6,0,L|432:56,1,112.500004291535,0|0,1:0|0:0,0:0:0:0:
300,120,55410,1,0,1:0:0:0:
352,256,55810,1,0,0:0:0:0:
216,304,56210,6,0,P|160:292|108:248,1,112.500004291535,0|0,1:0|0:0,0:0:0:0:
100,88,57010,6,0,B|156:76|156:76|184:104|224:100,1,131.25,0|0,1:0|0:0,0:0:0:0:
232,96,57810,6,0,P|272:92|316:104,1,75,0|0,1:0|0:0,0:0:0:0:
388,240,58210,2,0,P|348:244|304:232,1,75,0|0,1:0|0:0,0:0:0:0:
184,200,58610,1,0,1:0:0:0:
268,152,58810,1,0,0:0:0:0:
192,300,59010,1,0,1:0:0:0:
108,252,59210,1,0,0:0:0:0:
264,244,59410,5,0,1:0:0:0:
360,304,59610,1,0,1:0:0:0:
348,200,59810,5,0,1:0:0:0:
272,340,60010,1,0,1:0:0:0:
388,332,60210,5,0,1:0:0:0:
240,212,60410,1,0,1:0:0:0:
432,228,60610,5,0,1:0:0:0:
188,300,60810,1,0,1:0:0:0:
264,172,61010,5,0,1:0:0:0:
297,155,61110,1,0,1:0:0:0:
334,153,61210,1,0,1:0:0:0:
369,166,61310,1,0,1:0:0:0:
395,192,61410,1,0,1:0:0:0:
409,227,61510,1,0,1:0:0:0:
407,264,61610,1,0,1:0:0:0:
391,297,61710,1,0,1:0:0:0:
372,328,61810,5,0,1:0:0:0:
336,320,61910,1,0,1:0:0:0:
300,316,62010,1,0,1:0:0:0:
264,324,62110,1,0,1:0:0:0:
232,344,62210,2,0,L|200:348,8,18.75,0|0|0|0|0|0|0|0|4,1:0|1:0|1:0|1:0|1:0|1:0|1:0|1:0|1:0,1:0:0:0:
256,192,62710,12,0,64010,0:0:0:0:
264,192,64210,6,0,B|300:208|316:232|316:232|348:172|416:180,1,179.999994506836,4|0,1:0|0:0,0:0:0:0:
408,179,65010,2,0,P|412:223|392:264,1,89.9999972534181,2|0,0:0|0:0,0:0:0:0:
320,84,65410,1,0,0:0:0:0:
432,52,65610,1,0,0:0:0:0:
336,208,65810,5,4,0:0:0:0:
224,176,66010,1,0,0:0:0:0:
404,112,66210,1,0,0:0:0:0:
452,220,66410,1,0,0:0:0:0:
300,116,66610,1,2,0:0:0:0:
336,292,66810,1,0,0:0:0:0:
460,160,67010,2,0,P|456:84|404:40,1,134.999995880127
360,92,67410,6,0,B|332:116|276:100|276:100|220:84|188:120,1,179.999994506836,4|0,1:0|0:0,0:0:0:0:
244,172,68210,1,2,0:0:0:0:
316,32,68410,1,0,0:0:0:0:
144,180,68610,2,0,P|120:100|152:52,1,134.999995880127
220,60,69010,5,4,0:0:0:0:
308,136,69210,1,0,0:0:0:0:
132,128,69410,1,0,0:0:0:0:
120,12,69610,1,0,0:0:0:0:
296,40,69810,2,0,B|332:52|360:40|360:40|416:60|416:60|448:48|484:60,1,179.999994506836,2|0,0:0|0:0,0:0:0:0:
472,60,70610,6,0,B|448:104|472:152|472:152|440:184|440:228,1,179.999994506836,4|0,1:0|0:0,0:0:0:0:
440,227,71410,2,0,L|352:244,1,89.9999972534181,2|0,0:0|0:0,0:0:0:0:
172,300,71810,1,0,0:0:0:0:
284,340,72010,1,0,0:0:0:0:
164,196,72210,5,4,0:0:0:0:
276,156,72410,1,0,0:0:0:0:
244,268,72610,1,0,0:0:0:0:
200,92,72810,1,0,0:0:0:0:
372,140,73010,2,0,P|395:181|404:236,1,89.9999972534181,2|0,0:0|0:0,0:0:0:0:
284,96,73410,2,0,P|316:60|416:48,1,134.999995880127
428,112,73810,6,0,B|408:164|408:164|408:232|408:232|384:288,1,179.999994506836,4|0,1:0|0:0,0:0:0:0:
385,283,74610,2,0,L|288:304,1,89.9999972534181,2|0,0:0|0:0,0:0:0:0:
184,224,75010,1,0,0:0:0:0:
140,216,75110,1,0,0:0:0:0:
96,228,75210,1,0,0:0:0:0:
64,260,75310,1,0,0:0:0:0:
52,304,75410,6,0,L|48:352,2,44.999998626709,4|0|0,0:0|0:0|0:0,0:0:0:0:
152,324,75810,1,0,0:0:0:0:
116,144,76010,1,8,0:0:0:0:
76,124,76110,1,8,0:0:0:0:
32,120,76210,2,0,P|-12:108|36:44,1,134.999995880127,10|0,0:0|0:0,0:0:0:0:
80,32,76610,1,8,0:0:0:0:
236,40,76810,1,8,0:0:0:0:
236,40,77010,6,0,B|284:64|324:48|324:48|364:76|408:56,1,179.999994506836,4|0,1:0|0:0,0:0:0:0:
408,55,77810,2,0,P|424:100|412:144,1,89.9999972534181,2|0,0:0|0:0,0:0:0:0:
304,296,78210,1,0,0:0:0:0:
268,176,78410,1,0,0:0:0:0:
440,232,78610,5,4,0:0:0:0:
420,356,78810,1,0,0:0:0:0:
236,268,79010,1,0,0:0:0:0:
340,212,79210,1,0,0:0:0:0:
256,352,79410,1,2,0:0:0:0:
204,188,79610,1,0,0:0:0:0:
388,152,79810,2,0,B|440:164|440:164|432:112|464:48,1,134.999995880127
400,32,80210,6,0,B|328:32|328:32|300:80|236:72,1,179.999994506836,4|0,1:0|0:0,0:0:0:0:
235,71,81010,2,0,L|211:175,1,89.9999972534181,2|0,0:0|0:0,0:0:0:0:
152,328,81410,2,0,L|120:192,1,134.999995880127
68,136,81810,5,4,0:0:0:0:
32,248,82010,1,0,0:0:0:0:
164,64,82210,1,0,0:0:0:0:
52,28,82410,1,0,0:0:0:0:
128,184,82610,2,0,P|204:192|252:172,1,89.9999972534181,2|0,0:0|0:0,0:0:0:0:
308,112,83010,2,0,P|336:148|312:256,1,134.999995880127
288,292,83410,6,0,B|352:272|352:272|400:280|400:280|468:260,1,179.999994506836,4|0,1:0|0:0,0:0:0:0:
464,264,84210,2,0,P|476:220|456:144,1,89.9999972534181,2|0,0:0|0:0,0:0:0:0:
360,40,84610,1,0,0:0:0:0:
360,156,84810,1,0,0:0:0:0:
512,284,85010,5,4,0:0:0:0:
458,179,85210,1,0,0:0:0:0:
344,328,85410,1,0,0:0:0:0:
440,260,85610,1,0,0:0:0:0:
288,252,85810,1,2,0:0:0:0:
424,360,86010,1,0,0:0:0:0:
508,208,86210,2,0,P|520:160|484:48,1,134.999995880127
440,32,86610,6,0,P|396:56|260:44,1,179.999994506836,4|0,1:0|0:0,0:0:0:0:
268,52,87410,2,0,B|244:92|244:92|224:172,1,89.9999972534181,2|0,0:0|0:0,0:0:0:0:
304,280,87810,2,0,P|324:292|352:296,1,44.999998626709
448,208,88010,2,0,P|428:196|400:192,1,44.999998626709
256,192,88210,12,8,89410,0:0:0:0:
224,144,89610,5,8,0:0:0:0:
200,288,89810,6,0,P|256:292|348:212,1,179.999994506836,4|0,1:0|0:0,0:0:0:0:
346,216,90610,1,2,0:0:0:0:
440,144,90810,1,0,0:0:0:0:
240,184,91010,1,0,0:0:0:0:
259,300,91210,1,0,0:0:0:0:
340,116,91410,6,0,B|336:84|336:84|344:64|344:64|340:12,1,89.9999972534181,4|0,0:0|0:0,0:0:0:0:
460,192,91810,2,0,B|456:224|456:224|464:244|464:244|460:296,1,89.9999972534181
340,336,92210,1,2,0:0:0:0:
300,348,92310,1,0,0:0:0:0:
256,344,92410,1,0,0:0:0:0:
216,324,92510,1,0,0:0:0:0:
184,292,92610,5,0,0:0:0:0:
144,272,92710,1,0,0:0:0:0:
100,272,92810,1,0,0:0:0:0:
56,288,92910,1,0,0:0:0:0:
20,312,93010,6,0,P|-4:268|32:136,1,179.999994506836,4|0,1:0|0:0,0:0:0:0:
21,146,93810,1,2,0:0:0:0:
168,272,94010,1,0,0:0:0:0:
220,92,94210,2,0,P|260:64|344:52,1,134.999995880127
400,100,94610,6,0,B|436:92|436:92|456:104|456:104|492:96,1,89.9999972534181,4|0,0:0|0:0,0:0:0:0:
336,216,95010,2,0,B|300:208|300:208|280:220|280:220|244:212,1,89.9999972534181
444,172,95410,1,2,0:0:0:0:
416,284,95610,1,0,0:0:0:0:
304,136,95810,1,0,0:0:0:0:
332,24,96010,1,0,0:0:0:0:
392,176,96210,6,0,P|340:224|212:176,1,179.999994506836,4|0,1:0|0:0,0:0:0:0:
236,208,97010,1,2,0:0:0:0:
164,116,97210,1,0,0:0:0:0:
328,128,97410,1,0,0:0:0:0:
344,244,97610,1,0,0:0:0:0:
240,120,97810,6,0,B|224:76|224:76|192:40,1,89.9999972534181,4|0,0:0|0:0,0:0:0:0:
92,232,98210,2,0,B|108:276|108:276|140:312,1,89.9999972534181
140,128,98610,1,2,0:0:0:0:
24,140,98810,1,0,0:0:0:0:
200,256,99010,1,0,0:0:0:0:
316,244,99210,1,0,0:0:0:0:
248,152,99410,5,4,0:0:0:0:
268,312,99610,1,0,0:0:0:0:
360,168,99810,5,0,0:0:0:0:
196,264,100010,1,0,0:0:0:0:
376,292,100210,5,2,0:0:0:0:
212,136,100410,1,0,0:0:0:0:
156,348,100610,2,0,B|100:356|100:356|8:300,1,134.999995880127
20,240,101010,6,0,B|32:212|20:184|20:184|80:176|80:176|76:144|96:112,1,179.999994506836,4|0,0:0|0:0,0:0:0:0:
244,56,101610,1,8,0:0:0:0:
244,56,101710,1,8,0:0:0:0:
244,56,101810,2,0,P|300:88|412:48,1,179.999994506836,10|0,0:0|0:0,0:0:0:0:
98,50,102610,6,0,B|96:76|70:98|70:98|94:158|94:158|72:188|72:212,1,179.999994506836,4|0,1:0|0:0,0:0:0:0:
72,212,103410,2,0,P|124:208|176:228,1,89.9999972534181,2|0,0:0|0:0,0:0:0:0:
280,340,103810,1,0,0:0:0:0:
268,224,104010,1,0,0:0:0:0:
132,352,104210,6,0,P|76:360|28:336,1,89.9999972534181,4|0,0:0|0:0,0:0:0:0:
268,224,104610,2,0,P|324:216|372:240,1,89.9999972534181
464,296,105010,1,2,0:0:0:0:
492,260,105110,1,0,0:0:0:0:
504,216,105210,1,0,0:0:0:0:
500,172,105310,1,0,0:0:0:0:
476,136,105410,5,0,0:0:0:0:
448,100,105510,1,0,0:0:0:0:
408,80,105610,1,0,0:0:0:0:
364,72,105710,1,0,0:0:0:0:
320,80,105810,6,0,B|232:96|232:96|140:68,2,179.999994506836,4|0|2,1:0|0:0|0:0,0:0:0:0:
468,224,106810,1,0,0:0:0:0:
368,256,107010,2,0,L|256:228,1,89.9999972534181
136,141,107410,6,0,B|168:128|168:128|188:132|188:132|224:120,1,89.9999972534181,4|0,0:0|0:0,0:0:0:0:
104,260,107810,2,0,B|72:273|72:273|52:269|52:269|16:281,1,89.9999972534181
200,208,108210,1,2,0:0:0:0:
196,324,108410,1,0,0:0:0:0:
104,140,108610,1,0,0:0:0:0:
205,83,108810,1,0,0:0:0:0:
320,208,109010,6,0,P|360:228|464:128,1,179.999994506836,4|0,1:0|0:0,0:0:0:0:
462,162,109810,1,2,0:0:0:0:
480,276,110010,1,0,0:0:0:0:
376,96,110210,1,0,0:0:0:0:
482,50,110410,1,0,0:0:0:0:
364,204,110610,6,0,P|300:184|276:140,1,89.9999972534181,4|0,0:0|0:0,0:0:0:0:
480,144,111010,2,0,P|505:205|487:252,1,89.9999972534181
368,104,111410,1,2,0:0:0:0:
460,28,111610,1,0,0:0:0:0:
428,200,111810,1,0,0:0:0:0:
336,276,112010,1,0,0:0:0:0:
256,136,112210,5,4,1:0:0:0:
256,136,112610,1,4,1:0:0:0:
164,208,112810,1,8,0:0:0:0:
120,220,112910,1,8,0:0:0:0:
80,204,113010,1,10,0:0:0:0:
172,64,113210,1,0,0:0:0:0:
252,208,113410,2,0,P|296:224|376:156,1,134.999995880127
404,120,113810,6,0,B|448:116|484:72|484:72|476:144|504:168|536:196|508:256,1,281.250010728836,4|0,0:0|0:0,0:0:0:0:
360,316,115010,2,0,L|344:384,1,44.999998626709,8|8,0:0|0:0,0:0:0:0:
288,208,115210,2,0,L|272:140,1,44.999998626709,8|8,0:0|0:0,0:0:0:0:
220,312,115410,5,4,0:0:0:0:
236,232,128210,6,0,P|272:240|312:224,1,75
368,152,128610,1,0,0:0:0:0:
400,244,128810,1,0,0:0:0:0:
276,144,129010,2,0,P|292:96|328:72,1,75
440,20,129410,2,0,P|424:68|388:92,1,75
272,16,129810,6,0,L|184:32,1,75
128,96,130210,1,0,0:0:0:0:
108,0,130410,1,0,0:0:0:0:
212,108,130610,2,0,L|232:208,1,75
284,292,131010,2,0,L|304:192,1,75
336,100,131410,6,0,P|384:88|428:100,1,75
444,260,131810,1,0,0:0:0:0:
380,184,132010,1,0,0:0:0:0:
360,328,132210,2,0,P|300:316|268:304,1,75
200,208,132610,2,0,P|260:220|292:232,1,75
136,296,133010,5,0,1:0:0:0:
120,144,133210,1,0,1:0:0:0:
260,200,133410,2,0,P|320:212|352:224,1,75,0|0,1:0|1:0,1:0:0:0:
180,312,133810,5,0,1:0:0:0:
160,128,134010,1,0,1:0:0:0:
272,300,134210,5,8,0:0:0:0:
72,196,134410,1,8,0:0:0:0:
268,88,134610,6,0,P|312:76|432:104,1,150,4|0,0:0|0:0,0:0:0:0:
476,168,135210,1,0,0:0:0:0:
440,280,135410,2,0,L|424:332,3,37.5,2|0|0|0,0:0|0:0|0:0|0:0,0:0:0:0:
384,340,135810,2,0,P|328:348|292:340,1,75,4|0,0:0|0:0,0:0:0:0:
216,236,136210,5,0,0:0:0:0:
216,332,136410,1,0,0:0:0:0:
352,164,136610,1,4,0:0:0:0:
252,140,136810,1,0,0:0:0:0:
288,288,137010,2,0,P|340:288|380:272,1,75,2|0,0:0|0:0,0:0:0:0:
204,216,137410,2,0,P|152:216|112:232,1,75
40,324,137810,6,0,P|12:284|4:172,1,150,4|0,0:0|0:0,0:0:0:0:
56,104,138410,1,0,0:0:0:0:
224,140,138610,2,0,P|264:144|316:112,1,75,2|0,0:0|0:0,0:0:0:0:
164,76,139010,2,0,P|140:108|142:169,1,75,4|0,0:0|0:0,0:0:0:0:
248,60,139410,6,0,P|200:0|128:4,1,150,0|4,0:0|0:0,0:0:0:0:
40,104,140010,1,8,0:0:0:0:
36,140,140110,1,8,0:0:0:0:
48,176,140210,2,0,P|72:220|88:240,1,75,10|8,0:0|0:0,0:0:0:0:
240,200,140610,1,0,0:0:0:0:
136,316,140810,1,8,0:0:0:0:
188,120,141010,6,0,P|248:104|328:160,1,150,4|0,0:0|0:0,0:0:0:0:
340,240,141610,1,0,0:0:0:0:
452,292,141810,1,2,0:0:0:0:
480,264,141910,1,0,0:0:0:0:
496,228,142010,1,0,0:0:0:0:
500,192,142110,1,0,0:0:0:0:
492,156,142210,2,0,P|468:104|420:56,1,112.5,4|0,0:0|0:0,0:0:0:0:
360,80,142610,5,0,0:0:0:0:
264,104,142810,1,0,0:0:0:0:
360,204,143010,2,0,P|404:212|456:184,1,75,4|0,0:0|0:0,0:0:0:0:
264,104,143410,2,0,P|220:96|168:124,1,75,2|0,0:0|0:0,0:0:0:0:
140,248,143810,1,0,0:0:0:0:
104,156,144010,1,0,0:0:0:0:
240,232,144210,6,0,B|284:244|312:220|312:220|352:232|384:200,1,150,4|0,0:0|0:0,0:0:0:0:
327,130,144810,1,0,0:0:0:0:
316,300,145010,2,0,L|300:392,1,75,2|0,0:0|0:0,0:0:0:0:
240,232,145410,2,0,L|224:140,1,75,4|0,0:0|0:0,0:0:0:0:
108,80,145810,6,0,L|124:172,1,75
120,288,146210,1,4,0:0:0:0:
236,340,146410,1,8,0:0:0:0:
272,336,146510,1,8,0:0:0:0:
308,324,146610,1,10,0:0:0:0:
356,240,146810,1,8,0:0:0:0:
216,160,147010,1,0,0:0:0:0:
384,304,147210,1,8,0:0:0:0:
360,80,147410,6,0,P|316:24|224:20,1,150,4|0,0:0|0:0,0:0:0:0:
172,84,148010,1,0,0:0:0:0:
56,52,148210,1,2,0:0:0:0:
32,80,148310,1,0,0:0:0:0:
20,116,148410,1,0,0:0:0:0:
20,152,148510,1,0,0:0:0:0:
36,184,148610,2,0,B|64:208|56:236|52:268|68:292,1,112.5,4|0,0:0|0:0,0:0:0:0:
128,256,149010,6,0,P|168:256|208:268,1,75
296,372,149410,2,0,P|256:372|216:360,1,75,4|0,0:0|0:0,0:0:0:0:
348,248,149810,1,2,0:0:0:0:
392,336,150010,1,0,0:0:0:0:
248,256,150210,1,0,0:0:0:0:
287,167,150410,1,0,0:0:0:0:
424,252,150610,6,0,P|472:216|464:104,1,150,4|0,0:0|0:0,0:0:0:0:
392,88,151210,1,0,0:0:0:0:
252,136,151410,2,0,P|208:132|148:120,1,75,2|0,0:0|0:0,0:0:0:0:
112,28,151810,2,0,P|156:32|216:44,1,75,4|0,0:0|0:0,0:0:0:0:
80,116,152210,6,0,P|36:112|-24:100,1,75
186,37,152610,1,4,0:0:0:0:
164,168,152810,1,8,0:0:0:0:
152,204,152910,1,8,0:0:0:0:
128,232,153010,1,10,0:0:0:0:
24,256,153210,1,8,0:0:0:0:
80,116,153410,1,0,0:0:0:0:
228,88,153610,1,8,0:0:0:0:
308,208,153810,6,0,B|356:212|372:180|396:140|440:144,1,150,4|0,0:0|0:0,0:0:0:0:
444,224,154410,1,0,0:0:0:0:
304,136,154610,1,2,0:0:0:0:
268,120,154710,1,0,0:0:0:0:
232,112,154810,1,0,0:0:0:0:
196,112,154910,1,0,0:0:0:0:
164,124,155010,2,0,P|112:144|28:140,1,112.5,4|0,0:0|0:0,0:0:0:0:
12,92,155410,6,0,L|0:180,1,75
76,304,155810,2,0,L|64:216,1,75,4|0,0:0|0:0,0:0:0:0:
188,288,156210,2,0,B|224:292|224:292|288:276,1,75,2|0,0:0|0:0,0:0:0:0:
408,264,156610,1,0,0:0:0:0:
340,336,156810,1,0,0:0:0:0:
336,204,157010,6,0,B|372:156|424:164|424:164|464:136,1,150,4|0,0:0|0:0,0:0:0:0:
424,48,157610,1,0,0:0:0:0:
292,92,157810,2,0,P|244:104|192:100,1,75,2|0,0:0|0:0,0:0:0:0:
136,52,158210,2,0,P|88:40|36:44,1,75,4|0,0:0|0:0,0:0:0:0:
76,184,158610,5,0,0:0:0:0:
212,188,158810,1,8,0:0:0:0:
256,188,158910,1,8,0:0:0:0:
300,204,159010,1,10,0:0:0:0:
376,344,159210,1,8,0:0:0:0:
332,344,159310,1,8,0:0:0:0:
288,328,159410,1,10,0:0:0:0:
208,272,159610,1,8,0:0:0:0:
324,136,159810,1,0,0:0:0:0:
432,280,160010,1,8,0:0:0:0:
220,184,160210,5,4,0:0:0:0:
256,192,160310,12,0,166610,0:0:0:0:
120,152,173010,6,8,B|200:140|200:140|224:168|264:168,1,150
280,48,173810,1,8,0:0:0:0:
372,128,174210,1,8,0:0:0:0:
324,316,174610,6,8,P|256:332|172:304,1,150
120,208,175389,1,8,0:0:0:0:
60,312,175778,1,8,0:0:0:0:
208,228,176168,6,8,L|360:164,1,150
468,228,176923,1,8,0:0:0:0:
456,92,177301,1,8,0:0:0:0:
292,76,177678,6,8,B|248:80|220:56|220:56|140:56,1,150
48,152,178426,1,8,0:0:0:0:
176,188,178800,1,8,0:0:0:0:
112,320,179174,6,8,P|196:340|264:300,1,150
336,184,179912,1,8,0:0:0:0:
476,240,180282,1,8,0:0:0:0:
396,92,180651,6,8,P|324:80|252:116,1,150
168,240,181363,1,8,0:0:0:0:
120,96,181719,1,8,0:0:0:0:
264,228,182076,6,8,P|328:256|404:232,1,150
336,132,182785,1,8,0:0:0:0:
236,308,183139,1,8,0:0:0:0:
180,168,183494,6,8,L|36:112,1,150
132,252,184191,1,8,0:0:0:0:
276,168,184539,1,8,0:0:0:0:
424,216,184888,6,8,P|452:156|436:68,2,150
248,304,185922,1,8,0:0:0:0:
248,304,186267,6,8,B|172:320|172:320|80:300,2,150
160,132,187301,1,8,0:0:0:0:
160,132,187646,6,8,B|230:116|230:116|306:132,2,150
328,232,188681,1,8,0:0:0:0:
472,100,189025,5,8,0:0:0:0:
460,296,189370,1,8,0:0:0:0:
272,352,189715,1,8,0:0:0:0:
280,156,190060,1,8,0:0:0:0:
92,112,190405,6,0,P|56:152|48:192,1,75,0|0,0:0|3:0,0:0:0:0:
148,184,190749,2,0,P|184:224|192:264,1,75,0|0,0:0|3:0,0:0:0:0:
96,264,191094,2,0,P|60:304|52:344,1,75,0|0,0:0|3:0,0:0:0:0:
152,340,191439,2,0,P|205:346|242:330,1,75,0|0,0:0|3:0,0:0:0:0:
296,276,191784,5,4,0:0:0:0:
416,312,191956,1,0,0:0:0:0:
416,312,192042,1,0,0:0:0:0:
416,312,192129,1,0,0:0:0:0:
496,224,192301,2,0,L|540:224,2,37.5
360,188,192646,2,0,L|316:188,2,37.5
436,92,192991,1,0,0:0:0:0:
404,72,193077,1,0,0:0:0:0:
364,52,193163,5,4,0:0:0:0:
328,48,193249,1,0,0:0:0:0:
292,48,193336,1,0,0:0:0:0:
256,56,193422,1,0,0:0:0:0:
220,68,193508,1,4,0:0:0:0:
188,88,193594,1,0,0:0:0:0:
168,120,193680,1,0,0:0:0:0:
152,156,193767,1,0,0:0:0:0:
148,192,193853,5,4,0:0:0:0:
128,224,193939,1,0,0:0:0:0:
96,244,194025,1,0,0:0:0:0:
60,252,194111,1,0,0:0:0:0:
24,240,194198,2,4,L|8:184,1,37.5,4|0,0:0|0:0,0:0:0:0:
72,108,194370,2,0,L|56:164,1,37.5
16,48,194542,5,4,0:0:0:0:
256,192,194629,12,0,195749,2:0:0:0:
163,221,195922,6,0,P|211:237|279:145,1,179.999994506836,4|0,1:0|0:0,0:0:0:0:
280,149,196611,2,0,L|372:173,1,89.9999972534181,2|0,0:0|0:0,0:0:0:0:
444,316,196956,1,0,0:0:0:0:
360,268,197129,1,0,0:0:0:0:
460,156,197301,5,4,0:0:0:0:
504,244,197473,1,0,0:0:0:0:
360,168,197646,1,0,0:0:0:0:
408,76,197818,1,0,0:0:0:0:
428,228,197991,2,0,P|400:260|352:288,1,89.9999972534181,2|0,0:0|0:0,0:0:0:0:
264,268,198336,2,0,P|200:268|128:280,1,134.999995880127
92,340,198680,6,0,P|60:296|124:208,1,179.999994506836,4|0,1:0|0:0,0:0:0:0:
124,207,199370,2,0,P|140:160|136:120,1,89.9999972534181,2|0,0:0|0:0,0:0:0:0:
28,0,199715,1,0,0:0:0:0:
28,100,199887,1,0,0:0:0:0:
168,24,200060,5,4,0:0:0:0:
236,96,200232,1,0,0:0:0:0:
348,32,200405,2,0,L|452:36,1,89.9999972534181
437,35,200749,2,0,B|429:103|429:103|480:148|440:224,1,179.999994506836,2|0,0:0|0:0,0:0:0:0:
380,168,201439,6,0,P|380:240|472:280,1,179.999994506836,4|0,1:0|0:0,0:0:0:0:
368,76,202129,2,0,P|321:104|298:134,1,89.9999972534181,2|0,0:0|0:0,0:0:0:0:
256,240,202473,1,0,0:0:0:0:
184,148,202646,1,0,0:0:0:0:
332,216,202818,6,0,P|328:272|256:324,1,134.999995880127,4|0,0:0|0:0,0:0:0:0:
200,304,203163,2,0,L|92:304,1,89.9999972534181
196,232,203508,1,2,0:0:0:0:
148,372,203680,1,0,0:0:0:0:
48,260,203853,2,0,P|24:208|36:148,1,89.9999972534181
32,160,204198,6,0,B|96:128|96:128|148:148|200:108,1,179.999994506836,4|0,1:0|0:0,0:0:0:0:
136,60,204887,1,2,0:0:0:0:
136,60,205060,1,0,0:0:0:0:
208,200,205232,1,0,0:0:0:0:
208,200,205405,1,0,0:0:0:0:
300,72,205577,6,0,P|352:64|432:92,1,134.999995880127,4|0,0:0|0:0,0:0:0:0:
456,156,205922,1,0,0:0:0:0:
400,236,206094,1,8,0:0:0:0:
400,236,206180,1,8,0:0:0:0:
400,236,206267,2,0,P|344:260|236:200,1,179.999994506836,10|8,0:0|0:0,0:0:0:0:
340,120,206784,1,8,0:0:0:0:
242,211,206956,6,0,P|186:235|78:175,1,179.999994506836,4|0,1:0|0:0,0:0:0:0:
80,184,207646,1,2,0:0:0:0:
140,108,207818,1,0,0:0:0:0:
140,272,207991,1,0,0:0:0:0:
40,280,208163,1,0,0:0:0:0:
188,184,208336,5,4,0:0:0:0:
244,268,208508,1,0,0:0:0:0:
96,192,208680,1,0,0:0:0:0:
140,108,208853,1,0,0:0:0:0:
268,176,209025,2,0,P|316:180|372:164,1,89.9999972534181,2|0,0:0|0:0,0:0:0:0:
408,84,209370,2,0,P|444:120|453:200,1,134.999995880127
416,260,209715,6,0,B|360:276|360:276|304:272|304:272|240:292,1,179.999994506836,4|0,1:0|0:0,0:0:0:0:
236,292,210405,1,2,0:0:0:0:
180,212,210577,1,0,0:0:0:0:
168,368,210749,1,0,0:0:0:0:
268,372,210922,1,0,0:0:0:0:
128,268,211094,5,4,0:0:0:0:
28,256,211267,1,0,0:0:0:0:
124,364,211439,1,0,0:0:0:0:
208,312,211611,1,0,0:0:0:0:
136,184,211784,2,0,B|112:136|144:88|144:88|188:96|232:52,1,179.999994506836,2|0,0:0|0:0,0:0:0:0:
216,64,212473,6,0,B|256:96|312:80|312:80|324:128|360:140,1,179.999994506836,4|0,1:0|0:0,0:0:0:0:
358,139,213163,1,2,0:0:0:0:
456,152,213336,1,0,0:0:0:0:
344,48,213508,1,0,0:0:0:0:
272,116,213680,1,0,0:0:0:0:
424,72,213853,6,0,P|468:68|536:132,1,134.999995880127,4|0,0:0|0:0,0:0:0:0:
496,188,214198,2,0,L|420:252,1,89.9999972534181
288,288,214542,1,2,0:0:0:0:
340,204,214715,1,0,0:0:0:0:
356,340,214887,2,0,P|288:372|220:348,1,134.999995880127
180,304,215232,6,0,B|140:276|92:304|92:304|56:272|8:288,1,179.999994506836,4|0,1:0|0:0,0:0:0:0:
36,356,215922,1,2,0:0:0:0:
36,356,216094,1,0,0:0:0:0:
124,220,216267,1,0,0:0:0:0:
124,220,216439,1,0,0:0:0:0:
76,112,216611,6,0,P|132:100|196:140,1,112.5,4|0,0:0|0:0,0:0:0:0:
228,180,216956,2,0,P|260:196|324:192,1,75
416,140,217301,2,0,L|436:76,1,37.5,8|0,0:0|0:0,0:0:0:0:
464,212,217473,2,0,L|484:276,1,37.5,8|0,0:0|0:0,0:0:0:0:
408,300,217646,1,8,0:0:0:0:
480,368,217818,1,8,0:0:0:0:
324,340,217991,6,0,P|272:336|220:316,1,75
164,236,218336,2,0,P|216:240|268:260,1,75
116,312,218680,2,0,P|84:280|104:168,3,150
90,181,220060,1,0,0:0:0:0:
160,132,220232,1,0,0:0:0:0:
232,232,220405,2,0,P|275:240|315:228,1,75,2|0,0:0|0:0,0:0:0:0:
304,233,220749,6,0,B|308:168|308:168|332:120|332:120|336:56,1,179.999994506836,4|0,1:0|0:0,0:0:0:0:
404,244,221267,1,0,2:0:0:0:
404,244,221353,1,0,2:0:0:0:
404,244,221439,2,0,P|368:328|284:340,2,179.999994506836,2|0|4,0:0|0:0|0:0,0:0:0:0:
252,116,222473,1,0,0:0:0:0:
252,116,222818,2,0,B|188:88|188:88|136:116|84:80,1,179.999994506836,2|0,0:0|0:0,0:0:0:0:
280,40,223508,6,0,B|344:68|344:68|396:40|448:76,1,179.999994506836,4|0,1:0|0:0,0:0:0:0:
412,272,224025,1,0,2:0:0:0:
412,272,224111,1,0,2:0:0:0:
412,272,224198,2,0,P|368:308|232:300,2,179.999994506836,2|0|4,0:0|0:0|0:0,0:0:0:0:
232,188,225232,1,0,0:0:0:0:
232,188,225577,2,0,L|132:192,1,89.9999972534181,2|0,0:0|0:0,0:0:0:0:
36,80,225922,1,0,0:0:0:0:
36,80,226267,6,0,L|216:72,1,179.999994506836,4|0,1:0|0:0,0:0:0:0:
293,48,226784,1,0,2:0:0:0:
293,48,226870,1,0,2:0:0:0:
293,48,226956,1,2,0:0:0:0:
373,108,227129,1,0,0:0:0:0:
509,52,227301,1,0,0:0:0:0:
413,28,227473,1,0,0:0:0:0:
404,188,227646,6,0,B|436:220|488:208|488:208|500:300,1,179.999994506836,4|0,0:0|0:0,0:0:0:0:
412,344,228163,1,8,0:0:0:0:
412,344,228249,1,8,0:0:0:0:
412,344,228336,2,0,B|340:344|340:344|316:288|256:288,1,179.999994506836,10|0,0:0|0:0,0:0:0:0:
108,156,229025,6,0,B|180:156|180:156|204:212|264:212,1,179.999994506836,4|0,1:0|0:0,0:0:0:0:
264,124,229542,1,0,2:0:0:0:
264,124,229629,1,0,2:0:0:0:
264,124,229715,2,0,P|320:152|328:264,2,179.999994506836,2|0|4,0:0|0:0|0:0,0:0:0:0:
128,268,230749,1,0,0:0:0:0:
128,268,231094,2,0,P|92:208|96:168,1,89.9999972534181,2|0,0:0|0:0,0:0:0:0:
180,64,231439,1,0,0:0:0:0:
180,64,231784,6,0,B|232:56|268:84|268:84|308:60|352:64,1,179.999994506836,4|0,1:0|0:0,0:0:0:0:
336,148,232301,1,0,2:0:0:0:
336,148,232473,2,0,P|392:140|432:32,2,179.999994506836,2|0|4,0:0|0:0|0:0,0:0:0:0:
256,204,233336,5,0,0:0:0:0:
392,264,233508,1,0,0:0:0:0:
456,188,233680,1,0,0:0:0:0:
324,224,233853,2,0,P|312:292|408:348,1,179.999994506836,2|0,0:0|0:0,0:0:0:0:
324,224,234542,6,0,P|336:156|240:100,1,179.999994506836,4|0,1:0|0:0,0:0:0:0:
240,188,235060,1,0,2:0:0:0:
240,188,235146,1,0,2:0:0:0:
240,188,235232,2,0,P|172:200|56:144,2,179.999994506836,2|0|4,0:0|0:0|0:0,0:0:0:0:
180,60,236267,5,0,0:0:0:0:
136,272,236611,2,0,P|160:328|200:344,1,89.9999972534181,2|0,0:0|0:0,0:0:0:0:
316,300,236956,2,0,P|364:292|464:320,1,134.999995880127
500,360,237301,6,0,L|476:176,1,179.999994506836,4|0,1:0|0:0,0:0:0:0:
404,192,237818,1,0,2:0:0:0:
404,192,237905,1,0,2:0:0:0:
404,192,237991,2,0,P|352:163|320:139,1,89.9999972534181,2|0,0:0|0:0,0:0:0:0:
260,23,238336,1,0,0:0:0:0:
224,107,238508,1,0,0:0:0:0:
408,76,238680,6,0,L|500:52,1,89.9999972534181,4|0,0:0|0:0,0:0:0:0:
404,192,239025,1,0,0:0:0:0:
312,224,239198,1,0,0:0:0:0:
176,160,239354,6,0,L|72:160,2,75,0|0|4,0:0|0:0|0:0,0:0:0:0:
264,116,239871,1,0,0:0:0:0:
372,216,240043,6,0,P|424:224|500:168,1,150,4|0,1:0|0:0,0:0:0:0:
412,124,240560,1,0,0:0:0:0:
324,164,240732,2,0,P|300:216|308:256,1,75,4|0,0:0|0:0,0:0:0:0:
412,124,241078,2,0,P|436:72|428:32,1,75,4|0,1:0|0:0,0:0:0:0:
340,72,241422,5,4,0:0:0:0:
248,44,241595,1,0,0:0:0:0:
172,108,241767,2,0,L|80:132,1,75
52,260,242112,2,0,L|176:224,1,112.5,4|0,1:0|0:0,0:0:0:0:
228,240,242457,2,0,P|304:244|352:224,1,112.5
408,212,242802,6,0,P|428:268|364:324,1,150,4|0,1:0|0:0,0:0:0:0:
272,344,243319,1,0,0:0:0:0:
176,320,243491,2,0,L|92:272,1,75,4|0,0:0|0:0,0:0:0:0:
248,236,243836,2,0,L|332:212,1,75,4|0,1:0|0:0,0:0:0:0:
392,148,244181,5,4,0:0:0:0:
412,244,244354,1,0,0:0:0:0:
308,132,244526,2,0,P|324:92|364:60,1,75
300,212,244871,2,0,P|252:188|244:84,1,150,4|0,1:0|0:0,0:0:0:0:
168,28,245388,1,0,0:0:0:0:
104,100,245560,6,0,P|99:172|39:212,1,150,4|0,1:0|0:0,0:0:0:0:
8,120,246078,1,0,0:0:0:0:
176,180,246249,1,4,0:0:0:0:
188,276,246422,1,0,0:0:0:0:
72,168,246595,1,4,1:0:0:0:
132,92,246767,1,0,0:0:0:0:
228,112,246940,6,0,L|256:196,1,75,4|0,0:0|0:0,0:0:0:0:
328,80,247285,2,0,L|300:-4,1,75
312,156,247629,2,0,P|364:148|404:84,1,112.5,4|0,1:0|0:0,0:0:0:0:
444,52,247974,2,0,L|472:168,1,112.5
464,228,248319,6,0,B|444:256|400:252|360:248|332:288,1,150,4|0,1:0|0:0,0:0:0:0:
252,348,248836,1,0,0:0:0:0:
164,308,249009,2,0,P|124:296|64:292,1,75,4|0,0:0|0:0,0:0:0:0:
0,220,249354,2,0,P|40:208|100:204,1,75,4|0,1:0|0:0,0:0:0:0:
256,192,249698,12,4,251078,1:0:0:0:
