osu file format v14

[General]
AudioFilename: Extra Terra & Urbanstep - Lost In Time.mp3
AudioLeadIn: 0
PreviewTime: 194542
Countdown: 0
SampleSet: None
StackLeniency: 0.7
Mode: 0
LetterboxInBreaks: 0
WidescreenStoryboard: 0

[Editor]
DistanceSpacing: 1
BeatDivisor: 4
GridSize: 4
TimelineZoom: 1.6

[Metadata]
Title:Lost In Time
TitleUnicode:Lost In Time
Artist:Extra Terra & Urbanstep
ArtistUnicode:Extra Terra & Urbanstep
Creator:NazuSan
Version:Hard
Source:
Tags:dubstep electronic Ren DeRandom Otaku 6th
BeatmapID:926177
BeatmapSetID:429241

[Difficulty]
HPDrainRate:6
CircleSize:4
OverallDifficulty:6
ApproachRate:7.5
SliderMultiplier:1.3
SliderTickRate:1

[Events]
//Background and Video events
0,0,"time_bgr.jpg",0,0
//Break Periods
2,38810,50585
2,115610,127385
2,166810,172185
//Storyboard Layer 0 (Background)
//Storyboard Layer 1 (Fail)
//Storyboard Layer 2 (Pass)
//Storyboard Layer 3 (Foreground)
//Storyboard Sound Samples

[TimingPoints]
210,400,4,2,1,100,1,0
210,-133.333333333333,4,2,1,50,0,0
12210,-100,4,3,1,50,0,0
13010,-100,4,3,1,70,0,0
51410,-133.333333333333,4,3,1,70,0,0
57810,-100,4,3,1,100,0,0
64210,-83.3333333333333,4,3,1,100,0,1
88210,-83.3333333333333,4,3,1,100,0,0
89810,-83.3333333333333,4,3,1,100,0,1
115410,-100,4,2,1,70,0,0
129810,-100,4,2,1,80,0,0
131410,-100,4,2,1,90,0,0
133010,-100,4,3,1,100,0,0
166610,-100,4,2,1,30,0,0
173010,-100,4,2,1,70,0,0
174610,389.61038961039,4,2,1,54,1,0
176168,377.714825306893,4,2,1,54,1,0
177678,374.064837905237,4,2,1,54,1,0
179174,369.458128078818,4,2,1,54,1,0
180651,356.294536817102,4,2,1,54,1,0
182076,354.505169867061,4,2,1,54,1,0
183494,348.533255881499,4,2,1,54,1,0
184888,344.827586206897,4,1,1,54,1,0
190405,344.827586206897,4,1,1,90,1,0
195922,-83.3333333333333,4,3,1,100,0,1
216611,-100,4,3,1,100,0,0
220749,-83.3333333333333,4,3,1,100,0,1
239354,344.827586206897,4,3,1,100,1,1
240043,344.827586206897,4,3,1,100,1,0

[Colours]
Combo1 : 81,81,81
Combo2 : 251,201,51
Combo3 : 226,103,50

[HitObjects]
28,144,210,6,0,P|80:128|128:132,1,97.50000371933,6|0,0:0|0:0,0:0:0:0:
212,172,1010,1,2,0:0:0:0:
308,152,1410,1,2,0:0:0:0:
396,196,1810,2,0,P|408:156|392:100,1,97.50000371933,2|2,0:0|0:0,0:0:0:0:
316,60,2610,2,0,L|196:56,1,97.50000371933,2|2,0:0|0:0,0:0:0:0:
160,212,3410,6,0,L|280:216,1,97.50000371933,6|0,0:0|0:0,0:0:0:0:
336,272,4210,1,2,0:0:0:0:
420,224,4610,1,2,0:0:0:0:
432,128,5010,2,0,P|464:136|488:156,2,48.750001859665,2|0|2,0:0|0:0|0:0,0:0:0:0:
336,140,5810,2,0,P|300:148|272:144,1,48.750001859665,2|0,0:0|0:0,0:0:0:0:
232,104,6210,1,2,0:0:0:0:
88,48,6610,6,0,B|72:96|72:96|80:152,1,97.50000371933,6|0,0:0|0:0,0:0:0:0:
136,220,7410,1,2,0:0:0:0:
136,316,7810,1,2,0:0:0:0:
224,352,8210,2,0,L|328:356,1,97.50000371933,2|2,0:0|0:0,0:0:0:0:
380,276,9010,2,0,L|276:272,1,97.50000371933,2|2,0:0|0:0,0:0:0:0:
144,184,9810,6,0,L|248:188,1,97.50000371933,6|0,0:0|0:0,0:0:0:0:
332,148,10610,1,2,0:0:0:0:
412,204,11010,1,2,0:0:0:0:
511,200,11410,2,0,P|507:224|500:248,2,48.750001859665,2|0|2,0:0|0:0|0:0,0:0:0:0:
440,92,12210,6,0,L|372:52,1,65,8|8,0:0|0:0,0:0:0:0:
364,56,12510,1,8,0:0:0:0:
344,56,12610,1,4,0:0:0:0:
244,100,12810,1,4,0:0:0:0:
168,48,13010,6,0,P|152:104|184:168,1,130,4|0,0:0|0:0,0:0:0:0:
304,300,13810,2,0,L|380:308,1,65,2|0,0:0|0:0,0:0:0:0:
444,320,14210,2,0,B|436:252|436:252|444:176,1,130,4|0,0:0|0:0,0:0:0:0:
476,120,14810,1,0,0:0:0:0:
424,64,15010,2,0,L|344:68,1,65,4|0,0:0|0:0,0:0:0:0:
280,76,15410,2,0,P|204:80|140:60,2,130,2|0|4,0:0|0:0|0:0,0:0:0:0:
416,172,16610,5,0,0:0:0:0:
416,172,17010,2,0,P|392:216|364:236,1,65,2|0,0:0|0:0,0:0:0:0:
304,244,17410,2,0,P|332:288|420:296,2,130,4|0|0,0:0|0:0|0:0,0:0:0:0:
276,172,18410,1,8,0:0:0:0:
276,172,18510,1,8,0:0:0:0:
276,172,18610,2,0,L|276:92,1,65,2|8,0:0|0:0,0:0:0:0:
212,24,19010,1,0,0:0:0:0:
144,104,19210,1,8,0:0:0:0:
156,208,19410,6,0,P|93:201|45:152,1,130,4|0,0:0|0:0,0:0:0:0:
332,196,20210,2,0,P|372:192|408:200,1,65,2|0,0:0|0:0,0:0:0:0:
280,260,20610,2,0,P|256:220|284:128,1,130,4|0,0:0|0:0,0:0:0:0:
336,96,21210,1,0,0:0:0:0:
412,116,21410,2,0,P|448:140|464:176,1,65,4|0,0:0|0:0,0:0:0:0:
472,320,21810,2,0,P|436:296|420:260,1,65,2|0,0:0|0:0,0:0:0:0:
392,188,22210,1,0,0:0:0:0:
392,188,22610,6,0,B|372:160|340:152|308:148|292:108,1,130,4|0,0:0|0:0,0:0:0:0:
364,76,23210,1,0,0:0:0:0:
444,68,23410,2,0,P|476:96|492:128,1,65,2|0,0:0|0:0,0:0:0:0:
476,192,23810,2,0,P|472:240|432:320,2,130,4|0|0,0:0|0:0|0:0,0:0:0:0:
412,72,24810,1,8,0:0:0:0:
412,72,24910,1,8,0:0:0:0:
412,72,25010,2,0,P|384:48|336:48,1,65,2|8,0:0|0:0,0:0:0:0:
288,120,25410,1,0,0:0:0:0:
348,204,25610,1,8,0:0:0:0:
280,284,25810,6,0,P|212:288|144:268,1,130,4|0,0:0|0:0,0:0:0:0:
152,196,26410,1,0,0:0:0:0:
240,120,26610,2,0,L|272:96,3,32.5,2|0|0|0,0:0|0:0|0:0|0:0,0:0:0:0:
300,84,27010,2,0,P|336:92|432:72,1,130,4|0,0:0|0:0,0:0:0:0:
500,52,27610,1,0,0:0:0:0:
408,152,27810,6,0,L|356:184,3,32.5
356,200,28210,2,0,L|340:276,1,65,2|0,0:0|0:0,0:0:0:0:
264,212,28610,2,0,L|280:136,1,65
172,224,29010,6,0,L|156:272,3,32.5,4|0|0|0,0:0|0:0|0:0|0:0,0:0:0:0:
160,292,29410,2,0,P|204:328|264:312,1,97.5
280,316,29810,2,0,L|312:272,3,32.5,2|0|0|0,0:0|0:0|0:0|0:0,0:0:0:0:
340,292,30210,2,0,P|400:288|428:248,1,97.5,4|0,0:0|0:0,0:0:0:0:
444,228,30610,6,0,L|420:144,1,65
388,96,31010,1,4,0:0:0:0:
308,48,31210,1,8,0:0:0:0:
308,48,31310,1,8,0:0:0:0:
308,48,31410,2,0,L|240:40,1,65,2|8,0:0|0:0,0:0:0:0:
140,52,31810,1,0,0:0:0:0:
104,152,32010,1,8,0:0:0:0:
176,228,32210,6,0,B|244:228|244:228|308:184,1,130,4|0,0:0|0:0,0:0:0:0:
432,116,33010,2,0,L|472:144,3,32.5,2|0|0|0,0:0|0:0|0:0|0:0,0:0:0:0:
492,156,33410,2,0,P|500:204|464:292,1,130,4|0,0:0|0:0,0:0:0:0:
412,328,34010,1,0,0:0:0:0:
396,216,34210,6,0,L|388:172,3,32.5,4|0|0|0,0:0|0:0|0:0|0:0,0:0:0:0:
360,160,34610,2,0,L|296:112,1,65,2|0,0:0|0:0,0:0:0:0:
232,124,35010,1,0,0:0:0:0:
168,80,35210,1,0,0:0:0:0:
52,136,35410,6,0,L|32:176,3,32.5,4|0|0|0,0:0|0:0|0:0|0:0,0:0:0:0:
24,204,35810,2,0,P|44:248|100:296,1,97.5
112,300,36210,2,0,L|168:300,3,32.5,2|0|0|0,0:0|0:0|0:0|0:0,0:0:0:0:
184,304,36610,2,0,L|288:292,1,97.5,4|0,0:0|0:0,0:0:0:0:
320,304,37010,6,0,P|368:292|388:268,2,65,0|0|4,0:0|0:0|0:0,0:0:0:0:
324,228,37610,1,8,0:0:0:0:
324,228,37710,1,8,0:0:0:0:
324,228,37810,2,0,P|344:176|380:148,2,97.5,10|8|8,0:0|0:0|0:0,0:0:0:0:
428,240,38610,5,4,0:0:0:0:
68,120,51410,6,0,P|112:108|176:116,1,97.50000371933,0|0,1:0|0:0,0:0:0:0:
280,180,52210,1,0,1:0:0:0:
404,120,52610,1,0,0:0:0:0:
472,236,53010,2,0,P|460:284|424:324,1,97.50000371933,0|0,1:0|0:0,0:0:0:0:
344,224,53810,1,0,1:0:0:0:
236,156,54210,1,0,0:0:0:0:
136,76,54610,6,0,P|104:140|112:180,1,97.50000371933,0|0,1:0|0:0,0:0:0:0:
176,260,55410,1,0,1:0:0:0:
56,328,55810,1,0,0:0:0:0:
172,176,56210,2,0,L|264:116,1,97.50000371933,0|0,1:0|0:0,0:0:0:0:
372,136,57010,2,0,B|376:168|404:188|404:188|404:232|404:232|432:248|436:288,1,170.625006508827,0|0,1:0|0:0,0:0:0:0:
416,312,57810,6,0,P|376:328|344:332,1,65,0|0,1:0|0:0,0:0:0:0:
280,316,58210,2,0,P|224:312|192:324,1,65,0|0,1:0|0:0,0:0:0:0:
140,304,58610,2,0,L|80:256,1,65,0|0,1:0|0:0,0:0:0:0:
96,156,59010,2,0,L|152:204,1,65,0|0,1:0|0:0,0:0:0:0:
220,224,59410,5,0,1:0:0:0:
296,240,59610,1,0,1:0:0:0:
344,176,59810,1,0,1:0:0:0:
308,108,60010,1,0,1:0:0:0:
232,104,60210,2,0,L|160:88,2,65,0|0|0,1:0|1:0|1:0,0:0:0:0:
120,152,60810,1,0,1:0:0:0:
96,240,61010,6,0,L|120:288,3,32.5,0|0|0|0,1:0|1:0|1:0|1:0,1:0:0:0:
140,296,61410,2,0,L|184:284,3,32.5,0|0|0|0,1:0|1:0|1:0|1:0,1:0:0:0:
204,304,61810,2,0,L|244:320,3,32.5,0|0|0|0,1:0|1:0|1:0|1:0,1:0:0:0:
272,320,62210,2,0,L|296:308,8,16.25,0|0|0|0|0|0|0|0|4,1:0|1:0|1:0|1:0|1:0|1:0|1:0|1:0|1:0,1:0:0:0:
256,192,62710,12,0,63810,0:0:0:0:
256,192,64210,6,0,B|292:200|308:212|308:212|344:196|344:196|376:208|404:188,1,155.999995239258,4|0,1:0|0:0,0:0:0:0:
252,76,65010,1,2,0:0:0:0:
168,116,65210,1,0,0:0:0:0:
88,64,65410,2,0,P|76:104|80:140,1,77.999997619629
152,200,65810,1,4,0:0:0:0:
152,200,66010,1,0,0:0:0:0:
164,292,66210,2,0,L|256:300,1,77.999997619629
332,272,66610,2,0,P|380:260|416:264,2,77.999997619629,2|0|0,0:0|0:0|0:0,0:0:0:0:
332,272,67410,6,0,B|336:240|324:216|324:216|348:168|348:168|328:104,1,155.999995239258,4|0,1:0|0:0,0:0:0:0:
120,76,68210,2,0,L|28:100,1,77.999997619629,2|0,0:0|0:0,0:0:0:0:
132,164,68610,2,0,P|204:120|212:72,1,116.999996429443
244,48,69010,1,4,0:0:0:0:
336,36,69210,1,0,0:0:0:0:
416,84,69410,2,0,P|416:136|428:180,1,77.999997619629
460,248,69810,2,0,B|420:256|396:288|396:288|356:288|324:316,1,155.999995239258,2|0,0:0|0:0,0:0:0:0:
140,336,70610,6,0,P|108:300|180:260,1,155.999995239258,4|0,1:0|0:0,0:0:0:0:
364,296,71410,1,2,0:0:0:0:
448,252,71610,1,0,0:0:0:0:
364,208,71810,2,0,L|308:136,1,77.999997619629
216,40,72210,1,4,0:0:0:0:
224,132,72410,1,0,0:0:0:0:
304,8,72610,1,0,0:0:0:0:
364,80,72810,1,0,0:0:0:0:
316,160,73010,2,0,P|368:176|396:168,1,77.999997619629,2|0,0:0|0:0,0:0:0:0:
460,236,73410,2,0,B|429:264|416:308|416:308|365:271,1,116.999996429443
352,268,73810,6,0,B|288:264|288:264|252:292|168:280,1,155.999995239258,4|0,1:0|0:0,0:0:0:0:
44,176,74610,2,0,P|36:132|56:88,1,77.999997619629,2|0,0:0|0:0,0:0:0:0:
132,40,75010,1,0,0:0:0:0:
155,37,75110,1,0,0:0:0:0:
178,44,75210,1,0,0:0:0:0:
200,55,75310,1,0,0:0:0:0:
219,69,75410,6,0,L|258:115,2,38.9999988098145,4|0|0,0:0|0:0|0:0,0:0:0:0:
264,176,75810,1,0,0:0:0:0:
344,228,76010,1,8,0:0:0:0:
344,228,76110,1,8,0:0:0:0:
344,228,76210,2,0,P|408:224|464:148,1,155.999995239258,2|8,0:0|0:0,0:0:0:0:
372,140,76810,1,8,0:0:0:0:
292,92,77010,6,0,P|228:96|172:172,1,155.999995239258,4|0,1:0|0:0,0:0:0:0:
280,344,77810,1,2,0:0:0:0:
316,256,78010,1,0,0:0:0:0:
192,320,78210,2,0,B|156:332|156:332|115:332,1,77.999997619629
24,208,78610,2,0,B|65:208|65:208|101:220,1,77.999997619629,4|0,0:0|0:0,0:0:0:0:
224,240,79010,1,0,0:0:0:0:
168,164,79210,1,0,0:0:0:0:
160,288,79410,1,2,0:0:0:0:
248,160,79610,1,0,0:0:0:0:
120,92,79810,2,0,P|92:128|112:220,1,116.999996429443
96,244,80210,6,0,B|76:272|76:300|76:300|56:312|40:340|40:340|24:292,1,155.999995239258,4|0,1:0|0:0,0:0:0:0:
96,24,81010,2,0,P|140:24|190:49,1,77.999997619629,2|0,0:0|0:0,0:0:0:0:
232,108,81410,2,0,B|292:116|292:116|352:100,1,116.999996429443
388,80,81810,2,0,P|404:120|408:168,1,77.999997619629,4|0,0:0|0:0,0:0:0:0:
292,200,82210,1,0,0:0:0:0:
356,268,82410,1,0,0:0:0:0:
296,340,82610,2,0,P|232:356|240:280,1,155.999995239258,2|0,0:0|0:0,0:0:0:0:
328,124,83410,6,0,B|348:92|348:92|284:100|232:64,1,155.999995239258,4|0,1:0|0:0,0:0:0:0:
48,48,84210,2,0,P|32:92|36:144,1,77.999997619629,2|0,0:0|0:0,0:0:0:0:
108,244,84610,1,0,0:0:0:0:
20,212,84810,1,0,0:0:0:0:
156,172,85010,2,0,P|200:148|232:136,1,77.999997619629,4|0,0:0|0:0,0:0:0:0:
312,232,85410,1,0,0:0:0:0:
220,228,85610,1,0,0:0:0:0:
140,100,85810,2,0,L|92:16,1,77.999997619629,2|0,0:0|0:0,0:0:0:0:
32,96,86210,2,0,B|24:156|24:156|44:220,1,116.999996429443
48,256,86610,6,0,B|68:280|72:308|72:308|96:320|116:352|116:352|124:316,1,155.999995239258,4|0,1:0|0:0,0:0:0:0:
244,176,87410,2,0,P|300:180|332:208,1,77.999997619629,2|0,0:0|0:0,0:0:0:0:
408,280,87810,2,0,L|456:284,3,38.9999988098145
256,192,88210,12,8,89410,0:0:0:0:
228,192,89810,6,0,P|200:160|108:224,1,155.999995239258,4|0,1:0|0:0,0:0:0:0:
276,288,90610,2,0,P|332:292|364:280,1,77.999997619629,2|0,0:0|0:0,0:0:0:0:
384,156,91010,1,0,0:0:0:0:
316,216,91210,1,0,0:0:0:0:
452,192,91410,2,0,P|460:152|449:117,1,77.999997619629,4|0,0:0|0:0,0:0:0:0:
388,48,91810,2,0,P|348:40|313:51,1,77.999997619629
204,104,92210,2,0,L|140:116,3,38.9999988098145,2|0|0|0,0:0|0:0|0:0|0:0,0:0:0:0:
120,108,92610,2,0,L|88:80,3,38.9999988098145
44,88,93010,6,0,P|32:144|88:228,2,155.999995239258,4|0|2,1:0|0:0|0:0,0:0:0:0:
136,108,94010,1,0,0:0:0:0:
160,200,94210,2,0,P|160:248|128:288,1,77.999997619629
84,344,94610,2,0,B|120:356|120:356|172:352,1,77.999997619629,4|0,0:0|0:0,0:0:0:0:
244,312,95010,2,0,B|283:308|283:308|319:320,1,77.999997619629
440,364,95410,1,2,0:0:0:0:
400,280,95610,1,0,0:0:0:0:
476,224,95810,2,0,P|480:180|464:132,1,77.999997619629
500,40,96210,6,0,B|464:20|428:36|428:36|388:24|352:52,1,155.999995239258,4|0,1:0|0:0,0:0:0:0:
204,168,97010,2,0,P|168:184|112:180,1,77.999997619629,2|0,0:0|0:0,0:0:0:0:
68,72,97410,1,0,0:0:0:0:
152,108,97610,1,0,0:0:0:0:
72,228,97810,2,0,B|100:260|100:260|140:260,1,77.999997619629,4|0,0:0|0:0,0:0:0:0:
228,252,98210,2,0,B|263:252|263:252|291:284,1,77.999997619629
376,376,98610,1,2,0:0:0:0:
384,284,98810,1,0,0:0:0:0:
291,284,99010,1,0,0:0:0:0:
296,192,99210,1,0,0:0:0:0:
296,192,99410,6,0,P|248:160|200:148,1,77.999997619629,4|0,0:0|0:0,0:0:0:0:
135,148,99810,2,0,P|150:112|174:80,1,77.999997619629
292,8,100210,1,2,0:0:0:0:
284,100,100410,1,0,0:0:0:0:
192,8,100610,2,0,P|144:12|112:36,1,77.999997619629
68,108,101010,2,0,L|112:260,1,155.999995239258,4|0,0:0|0:0,0:0:0:0:
184,336,101610,1,8,0:0:0:0:
184,336,101710,1,8,0:0:0:0:
184,336,101810,2,0,P|104:364|40:340,2,155.999995239258,2|0|4,0:0|0:0|1:0,0:0:0:0:
324,168,103010,5,0,0:0:0:0:
324,168,103410,2,0,P|360:148|396:148,1,77.999997619629,2|0,0:0|0:0,0:0:0:0:
320,276,103810,1,0,0:0:0:0:
240,224,104010,1,0,0:0:0:0:
376,224,104210,2,0,B|410:222|410:222|429:230|429:230|484:232,1,77.999997619629,4|0,0:0|0:0,0:0:0:0:
340,352,104610,2,0,B|305:353|305:353|286:345|286:345|231:343,1,77.999997619629
124,288,105010,2,0,L|112:248,3,38.9999988098145,2|0|0|0,0:0|0:0|0:0|0:0,0:0:0:0:
144,204,105410,2,0,L|176:140,3,38.9999988098145
184,128,105810,6,0,B|236:112|264:132|292:152|336:120,1,155.999995239258,4|0,1:0|0:0,0:0:0:0:
164,44,106610,1,2,0:0:0:0:
92,104,106810,1,0,0:0:0:0:
240,60,107010,2,0,P|284:44|336:40,1,77.999997619629
432,44,107410,2,0,B|476:44|476:44|504:88,1,77.999997619629,4|0,0:0|0:0,0:0:0:0:
496,164,107810,2,0,B|477:192|477:192|433:192,1,77.999997619629
324,112,108210,1,2,0:0:0:0:
340,204,108410,1,0,0:0:0:0:
412,92,108610,1,0,0:0:0:0:
344,24,108810,1,0,0:0:0:0:
232,100,109010,6,0,L|72:100,1,155.999995239258,4|0,1:0|0:0,0:0:0:0:
32,280,109810,2,0,P|32:332|56:368,1,77.999997619629,2|0,0:0|0:0,0:0:0:0:
112,224,110210,1,0,0:0:0:0:
24,196,110410,1,0,0:0:0:0:
116,316,110610,2,0,B|152:324|152:324|204:320,1,77.999997619629,4|0,0:0|0:0,0:0:0:0:
300,240,111010,2,0,B|264:232|264:232|212:236,1,77.999997619629
376,280,111410,2,0,P|384:240|372:188,1,77.999997619629,2|0,0:0|0:0,0:0:0:0:
324,88,111810,1,0,0:0:0:0:
412,124,112010,1,0,0:0:0:0:
264,168,112210,5,4,1:0:0:0:
264,168,112610,2,0,L|172:168,1,77.999997619629,4|8,1:0|0:0,0:0:0:0:
144,192,112910,1,8,0:0:0:0:
144,192,113010,2,0,P|124:264|140:296,2,77.999997619629,2|0|0,0:0|0:0|0:0,0:0:0:0:
256,192,113810,12,4,115410,0:0:0:0:
220,148,128210,6,0,L|200:216,1,65
152,272,128610,1,0,0:0:0:0:
108,208,128810,1,0,0:0:0:0:
36,176,129010,2,0,P|32:228|48:268,1,65
96,128,129410,2,0,P|100:76|84:36,1,65
52,0,129810,6,0,L|136:4,1,65
180,52,130210,2,0,L|268:40,1,65
320,32,130610,2,0,B|352:28|352:28|400:36,2,65
288,104,131210,1,0,0:0:0:0:
256,176,131410,6,0,P|316:180|340:164,1,65
396,172,131810,1,0,0:0:0:0:
460,216,132010,1,0,0:0:0:0:
500,148,132210,2,0,L|512:80,1,65
460,216,132610,2,0,L|448:284,1,65
368,324,133010,6,0,P|300:344|280:344,1,65,0|0,1:0|1:0,1:0:0:0:
236,288,133410,1,0,1:0:0:0:
144,280,133610,1,0,1:0:0:0:
80,184,133810,2,0,P|76:148|96:108,1,65,0|0,1:0|1:0,1:0:0:0:
168,160,134210,1,8,0:0:0:0:
236,220,134410,1,8,0:0:0:0:
340,236,134610,6,0,P|384:204|400:124,1,130,4|0,0:0|0:0,0:0:0:0:
312,148,135210,1,0,0:0:0:0:
228,112,135410,2,0,L|192:96,3,32.5,2|0|0|0,0:0|0:0|0:0|0:0,0:0:0:0:
152,92,135810,2,0,P|112:124|92:224,1,130,4|0,0:0|0:0,0:0:0:0:
144,268,136410,1,0,0:0:0:0:
56,288,136610,2,0,P|20:264|4:232,1,65,4|0,0:0|0:0,0:0:0:0:
8,156,137010,2,0,L|16:68,1,65,2|0,0:0|0:0,0:0:0:0:
84,32,137410,1,0,0:0:0:0:
160,84,137610,1,0,0:0:0:0:
244,52,137810,6,0,L|380:88,1,130,4|0,0:0|0:0,0:0:0:0:
444,136,138410,1,0,0:0:0:0:
472,224,138610,2,0,P|464:272|448:312,1,65,2|0,0:0|0:0,0:0:0:0:
348,340,139010,2,0,P|356:292|372:252,1,65,4|0,0:0|0:0,0:0:0:0:
404,196,139410,2,0,P|320:192|288:220,1,130,0|4,0:0|0:0,0:0:0:0:
244,300,140010,1,8,0:0:0:0:
228,316,140110,1,8,0:0:0:0:
208,324,140210,2,0,P|160:336|128:328,1,65,2|8,0:0|0:0,0:0:0:0:
156,232,140610,1,0,0:0:0:0:
64,184,140810,1,8,0:0:0:0:
32,84,141010,6,0,P|84:68|164:84,1,130,4|0,0:0|0:0,0:0:0:0:
220,144,141610,1,0,0:0:0:0:
328,88,141810,2,0,L|364:80,3,32.5,2|0|0|0,0:0|0:0|0:0|0:0,0:0:0:0:
404,76,142210,2,0,B|456:116|456:116|448:148|468:188,1,130,4|0,0:0|0:0,0:0:0:0:
436,264,142810,1,0,0:0:0:0:
356,224,143010,2,0,B|340:254|348:286|348:286|296:326,1,130,4|2,0:0|0:0,0:0:0:0:
204,320,143610,1,0,0:0:0:0:
124,280,143810,2,0,P|142:253|172:236,1,65
100,356,144210,6,0,P|60:332|56:244,1,130,4|0,0:0|0:0,0:0:0:0:
96,176,144810,1,0,0:0:0:0:
164,112,145010,2,0,P|200:92|240:88,1,65,2|0,0:0|0:0,0:0:0:0:
236,176,145410,2,0,P|277:178|312:197,1,65,4|0,0:0|0:0,0:0:0:0:
340,268,145810,2,0,P|376:228|372:140,1,130,0|4,0:0|0:0,0:0:0:0:
324,80,146410,1,8,0:0:0:0:
304,72,146510,1,8,0:0:0:0:
284,64,146610,2,0,L|192:68,1,65,2|8,0:0|0:0,0:0:0:0:
120,116,147010,1,0,0:0:0:0:
36,52,147210,1,8,0:0:0:0:
36,52,147410,6,0,P|12:116|32:176,1,130,4|0,0:0|0:0,0:0:0:0:
96,228,148010,1,0,0:0:0:0:
192,312,148210,2,0,L|232:344,3,32.5,2|0|0|0,0:0|0:0|0:0|0:0,0:0:0:0:
260,328,148610,2,0,B|312:320|312:320|344:328|344:328|388:324,1,130,4|0,0:0|0:0,0:0:0:0:
456,260,149210,1,0,0:0:0:0:
488,176,149410,2,0,P|480:112|424:68,1,130,4|2,0:0|0:0,0:0:0:0:
400,156,150010,1,0,0:0:0:0:
444,236,150210,2,0,P|492:252|520:244,1,65
400,156,150610,6,0,P|352:140|268:156,1,130,4|0,0:0|0:0,0:0:0:0:
216,220,151210,1,0,0:0:0:0:
264,296,151410,2,0,P|228:308|192:308,1,65,2|0,0:0|0:0,0:0:0:0:
344,264,151810,2,0,P|380:252|416:252,1,65,4|0,0:0|0:0,0:0:0:0:
480,224,152210,2,0,P|508:180|480:92,1,130,0|4,0:0|0:0,0:0:0:0:
404,108,152810,1,8,0:0:0:0:
380,112,152910,1,8,0:0:0:0:
356,108,153010,2,0,P|312:96|280:80,1,65,2|8,0:0|0:0,0:0:0:0:
200,48,153410,1,0,0:0:0:0:
120,112,153610,1,8,0:0:0:0:
16,132,153810,6,0,P|32:176|124:216,1,130,4|0,0:0|0:0,0:0:0:0:
184,204,154410,1,0,0:0:0:0:
264,288,154610,2,0,L|296:316,3,32.5,2|0|0|0,0:0|0:0|0:0|0:0,0:0:0:0:
324,336,155010,2,0,P|368:320|340:236,1,130,4|0,0:0|0:0,0:0:0:0:
296,184,155610,1,0,0:0:0:0:
212,152,155810,2,0,P|236:116|268:96,1,65,4|0,0:0|0:0,0:0:0:0:
344,92,156210,2,0,L|412:144,1,65,2|0,0:0|0:0,0:0:0:0:
460,196,156610,1,0,0:0:0:0:
448,288,156810,1,0,0:0:0:0:
364,328,157010,6,0,B|316:324|316:324|288:336|288:336|236:332,1,130,4|0,0:0|0:0,0:0:0:0:
156,292,157610,1,0,0:0:0:0:
220,228,157810,2,0,L|296:228,1,65,2|0,0:0|0:0,0:0:0:0:
156,292,158210,2,0,L|80:292,1,65,4|0,0:0|0:0,0:0:0:0:
24,232,158610,2,0,P|16:184|32:144,1,65,0|8,0:0|0:0,0:0:0:0:
32,148,158910,1,8,0:0:0:0:
48,132,159010,1,10,0:0:0:0:
136,104,159210,2,8,L|164:80,2,32.5,8|8|10,0:0|0:0|0:0,0:0:0:0:
164,192,159610,1,8,0:0:0:0:
256,192,159810,2,0,P|304:196|336:208,1,65,0|8,0:0|0:0,0:0:0:0:
404,300,160210,5,4,0:0:0:0:
256,192,160310,12,0,166610,0:0:0:0:
260,196,173010,5,12,0:0:0:0:
372,264,173410,1,8,0:0:0:0:
444,156,173810,1,8,0:0:0:0:
336,84,174210,1,8,0:0:0:0:
216,160,174610,6,8,P|168:168|72:120,1,130
172,36,175389,1,8,0:0:0:0:
300,52,175778,1,8,0:0:0:0:
376,216,176168,5,8,0:0:0:0:
300,328,176545,1,8,0:0:0:0:
172,352,176923,1,8,0:0:0:0:
64,280,177301,1,8,0:0:0:0:
108,156,177678,6,8,P|184:152|252:168,1,130
336,252,178426,1,8,0:0:0:0:
456,200,178800,1,8,0:0:0:0:
316,72,179174,5,8,0:0:0:0:
208,164,179543,1,8,0:0:0:0:
112,80,179912,1,8,0:0:0:0:
20,172,180282,1,8,0:0:0:0:
132,328,180651,5,8,0:0:0:0:
244,260,181007,1,8,0:0:0:0:
356,324,181363,1,8,0:0:0:0:
460,244,181719,1,8,0:0:0:0:
372,144,182076,6,8,P|280:112|240:120,1,130
128,156,182785,1,8,0:0:0:0:
220,248,183139,1,8,0:0:0:0:
384,152,183494,5,8,0:0:0:0:
480,236,183842,1,8,0:0:0:0:
392,332,184191,1,8,0:0:0:0:
296,244,184539,1,8,0:0:0:0:
192,176,184888,6,8,L|68:96,1,130
208,76,185577,2,8,L|332:156,1,130
444,184,186267,5,8,0:0:0:0:
392,304,186612,1,8,0:0:0:0:
316,200,186956,1,8,0:0:0:0:
436,256,187301,1,8,0:0:0:0:
416,128,187646,5,8,0:0:0:0:
296,72,187991,1,8,0:0:0:0:
172,112,188336,1,8,0:0:0:0:
52,60,188681,1,8,0:0:0:0:
32,188,189025,6,8,P|88:276|136:288,1,130
220,216,189715,1,8,0:0:0:0:
332,280,190060,1,8,0:0:0:0:
420,188,190405,6,0,P|440:144|432:100,1,65,0|0,0:0|3:0,0:0:0:0:
376,64,190749,2,0,L|300:56,1,65,0|0,0:0|3:0,0:0:0:0:
232,104,191094,2,0,L|148:120,1,65,0|0,0:0|3:0,0:0:0:0:
224,188,191439,2,0,L|312:172,1,65,0|0,0:0|3:0,0:0:0:0:
380,176,191784,5,0,0:0:0:0:
428,252,191956,2,0,L|452:284,2,32.5
324,272,192301,2,0,L|300:240,2,32.5
216,328,192646,2,0,L|240:360,2,32.5
164,252,192991,1,0,0:0:0:0:
164,252,193077,1,0,0:0:0:0:
164,252,193163,6,0,L|160:196,3,32.5
176,176,193508,2,0,L|208:128,3,32.5
232,124,193853,2,0,L|276:96,3,32.5
296,80,194198,2,0,L|324:40,3,32.5
360,52,194542,5,4,0:0:0:0:
256,192,194629,12,0,195577,0:0:0:0:
256,192,195922,6,0,B|300:208|340:260|340:260|348:196,1,155.999995239258,4|0,1:0|0:0,0:0:0:0:
412,80,196611,2,0,P|456:100|480:148,1,77.999997619629,2|0,0:0|0:0,0:0:0:0:
468,204,196956,1,0,0:0:0:0:
488,288,197129,1,0,0:0:0:0:
424,348,197301,2,0,L|332:352,1,77.999997619629,4|0,0:0|0:0,0:0:0:0:
284,292,197646,2,0,L|184:272,1,77.999997619629
120,280,197991,1,2,0:0:0:0:
68,212,198163,1,0,0:0:0:0:
108,136,198336,2,0,P|116:84|100:40,1,77.999997619629
32,96,198680,6,0,L|196:104,1,155.999995239258,4|0,1:0|0:0,0:0:0:0:
356,144,199370,1,2,0:0:0:0:
356,144,199542,1,0,0:0:0:0:
436,108,199715,2,0,P|444:156|424:200,1,77.999997619629
360,296,200060,2,0,P|352:248|372:204,1,77.999997619629,4|0,0:0|0:0,0:0:0:0:
436,260,200405,2,0,L|524:260,1,77.999997619629
409,353,200749,2,0,B|356:388|308:352|308:352|244:352,1,155.999995239258,2|0,0:0|0:0,0:0:0:0:
96,348,201439,6,0,P|64:284|112:224,1,155.999995239258,4|0,1:0|0:0,0:0:0:0:
284,228,202129,2,0,P|336:224|372:192,1,77.999997619629,2|0,0:0|0:0,0:0:0:0:
300,144,202473,1,0,0:0:0:0:
236,88,202646,1,0,0:0:0:0:
152,88,202818,2,0,B|104:92|80:120|80:120|108:228,1,155.999995239258,4|0,0:0|0:0,0:0:0:0:
164,260,203336,1,0,0:0:0:0:
248,300,203508,2,0,P|300:300|336:276,2,77.999997619629,2|0|0,0:0|0:0|0:0,0:0:0:0:
424,332,204198,6,0,P|440:276|376:204,1,155.999995239258,4|0,1:0|0:0,0:0:0:0:
196,84,204887,2,0,L|120:24,1,77.999997619629,2|0,0:0|0:0,0:0:0:0:
72,92,205232,1,0,0:0:0:0:
104,172,205405,1,0,0:0:0:0:
188,168,205577,2,0,B|216:188|228:228|228:228|272:224|312:248,1,155.999995239258,4|0,0:0|0:0,0:0:0:0:
400,288,206094,1,8,0:0:0:0:
428,280,206180,1,8,0:0:0:0:
448,260,206267,2,0,P|476:220|440:124,1,155.999995239258,2|8,0:0|0:0,0:0:0:0:
364,116,206784,1,8,0:0:0:0:
240,160,206956,6,0,B|204:188|164:172|164:172|132:192|92:172,1,155.999995239258,4|0,1:0|0:0,0:0:0:0:
44,8,207646,1,2,0:0:0:0:
116,52,207818,1,0,0:0:0:0:
200,48,207991,2,0,P|244:44|280:56,1,77.999997619629
384,100,208336,1,4,0:0:0:0:
304,128,208508,1,0,0:0:0:0:
352,28,208680,1,0,0:0:0:0:
436,40,208853,1,0,0:0:0:0:
440,152,209025,2,0,L|356:192,1,77.999997619629,2|0,0:0|0:0,0:0:0:0:
292,224,209370,2,0,P|248:240|192:304,1,116.999996429443
180,328,209715,6,0,P|128:344|125:263,1,155.999995239258,4|0,1:0|0:0,0:0:0:0:
160,100,210405,1,2,0:0:0:0:
92,152,210577,1,0,0:0:0:0:
216,164,210749,2,0,B|251:151|251:151|283:127,1,77.999997619629
316,48,211094,2,0,B|353:35|353:35|400:33,1,77.999997619629,4|0,0:0|0:0,0:0:0:0:
508,112,211439,2,0,B|470:124|470:124|423:126,1,77.999997619629
356,116,211784,2,0,B|356:204|356:204|288:279,1,155.999995239258,2|0,0:0|0:0,0:0:0:0:
310,254,212473,6,0,B|310:166|310:166|242:90,1,155.999995239258,4|0,1:0|0:0,0:0:0:0:
52,128,213163,1,2,0:0:0:0:
52,128,213336,1,0,0:0:0:0:
12,204,213508,2,0,L|12:288,1,77.999997619629
76,340,213853,2,0,P|120:348|176:296,1,116.999996429443,4|0,0:0|0:0,0:0:0:0:
204,272,214198,2,0,L|296:256,1,77.999997619629
356,220,214542,2,0,P|364:264|348:312,1,77.999997619629,2|0,0:0|0:0,0:0:0:0:
292,180,214887,2,0,P|336:148|396:160,1,116.999996429443
420,192,215232,6,0,P|460:224|500:140,1,155.999995239258,4|0,1:0|0:0,0:0:0:0:
292,28,215922,1,2,0:0:0:0:
312,112,216094,1,0,0:0:0:0:
208,48,216267,2,0,L|128:32,1,77.999997619629
52,96,216611,6,0,P|44:148|68:232,1,130,4|0,0:0|0:0,0:0:0:0:
112,284,217129,1,0,0:0:0:0:
184,312,217301,2,0,L|232:300,3,32.5
256,304,217646,2,0,L|336:332,1,65
392,300,217991,6,0,L|460:272,1,65,4|0,0:0|0:0,0:0:0:0:
408,208,218336,2,0,L|456:152,1,65
420,84,218680,1,0,0:0:0:0:
272,132,219025,1,0,0:0:0:0:
128,76,219370,1,0,0:0:0:0:
128,280,219715,1,0,0:0:0:0:
128,280,220060,2,0,L|208:280,1,65
268,304,220405,2,0,B|296:296|316:296|316:296|332:280|356:264,1,97.5,2|0,0:0|0:0,0:0:0:0:
380,228,220749,6,0,B|400:200|424:196|424:196|428:172|456:144|456:144|400:144,1,155.999995239258,4|0,1:0|0:0,0:0:0:0:
236,188,221439,2,0,B|190:200|158:175|158:175|122:176|98:137,2,155.999995239258,2|0|4,0:0|0:0|0:0,0:0:0:0:
404,104,222473,1,0,0:0:0:0:
404,104,222818,2,0,B|404:136|420:160|420:160|408:208|408:208|420:228|420:260,1,155.999995239258,2|0,0:0|0:0,0:0:0:0:
104,336,223508,6,0,B|104:304|88:280|88:280|100:232|100:232|88:212|88:180,1,155.999995239258,4|0,1:0|0:0,0:0:0:0:
220,64,224198,2,0,B|272:84|278:139|278:139|340:176,2,155.999995239258,2|0|4,0:0|0:0|0:0,0:0:0:0:
196,236,225232,1,0,0:0:0:0:
196,236,225577,2,0,P|240:256|276:256,1,77.999997619629,2|0,0:0|0:0,0:0:0:0:
344,256,225922,1,0,0:0:0:0:
460,128,226267,6,0,P|388:88|304:92,1,155.999995239258,4|0,1:0|0:0,0:0:0:0:
160,164,226956,2,0,P|112:180|80:176,1,77.999997619629,2|0,0:0|0:0,0:0:0:0:
104,60,227301,1,0,0:0:0:0:
188,52,227473,1,0,0:0:0:0:
248,156,227646,2,0,B|264:232|264:232|296:260|288:304,1,155.999995239258,4|0,0:0|0:0,0:0:0:0:
204,292,228163,1,8,0:0:0:0:
204,292,228249,1,8,0:0:0:0:
204,292,228336,2,0,B|176:248|168:184|168:184|152:200|144:232,1,155.999995239258,2|0,0:0|0:0,0:0:0:0:
272,340,229025,6,0,B|300:328|328:336|328:336|344:316|364:316|364:316|416:264,1,155.999995239258,4|0,1:0|0:0,0:0:0:0:
352,112,229715,2,0,B|312:88|276:112|276:112|240:100|200:128,2,155.999995239258,2|0|4,0:0|0:0|0:0,0:0:0:0:
244,244,230749,1,0,0:0:0:0:
244,244,231094,2,0,P|200:260|144:256,1,77.999997619629,2|0,0:0|0:0,0:0:0:0:
120,188,231439,2,0,P|88:168|72:92,1,116.999996429443
116,88,231784,6,0,P|200:72|272:92,1,155.999995239258,4|0,1:0|0:0,0:0:0:0:
444,308,232473,2,0,P|360:324|288:304,1,155.999995239258,2|0,0:0|0:0,0:0:0:0:
136,232,233163,1,4,0:0:0:0:
204,180,233336,1,0,0:0:0:0:
172,308,233508,2,0,P|112:312|68:292,1,77.999997619629
52,236,233853,2,0,B|52:140|52:140|36:112|48:72,1,155.999995239258,2|0,0:0|0:0,0:0:0:0:
244,32,234542,6,0,B|288:28|320:48|320:48|352:32|396:44,1,155.999995239258,4|0,1:0|0:0,0:0:0:0:
240,176,235232,2,0,B|204:164|168:184|132:204|88:184,2,155.999995239258,2|0|4,0:0|0:0|0:0,0:0:0:0:
388,320,236267,1,0,0:0:0:0:
388,320,236611,2,0,L|432:224,1,77.999997619629,2|0,0:0|0:0,0:0:0:0:
464,176,236956,2,0,P|400:176|332:144,1,116.999996429443
309,138,237301,6,0,B|278:143|253:130|253:130|210:143|210:143|186:131|158:135,1,155.999995239258,4|0,1:0|0:0,0:0:0:0:
158,136,237991,2,0,L|140:224,1,77.999997619629,2|0,0:0|0:0,0:0:0:0:
108,332,238336,1,0,0:0:0:0:
180,284,238508,1,0,0:0:0:0:
64,256,238680,2,0,P|48:212|40:176,1,77.999997619629,4|0,0:0|0:0,0:0:0:0:
64,100,239025,1,0,0:0:0:0:
136,52,239198,1,0,0:0:0:0:
220,76,239354,2,0,L|296:84,2,65,0|0|4,0:0|0:0|0:0,0:0:0:0:
60,248,240043,6,0,P|104:280|184:284,1,130,4|0,1:0|0:0,0:0:0:0:
256,268,240560,1,0,0:0:0:0:
180,288,240732,2,0,L|156:368,1,65,4|0,0:0|0:0,0:0:0:0:
144,216,241077,2,0,L|184:88,1,130,4|4,1:0|0:0,0:0:0:0:
260,84,241594,1,0,0:0:0:0:
248,160,241767,2,0,L|228:224,1,65
328,176,242111,2,0,L|352:88,2,65,4|0|0,1:0|0:0|0:0,0:0:0:0:
352,252,242629,1,0,0:0:0:0:
348,328,242801,6,0,P|408:304|428:244,1,130,4|0,1:0|0:0,0:0:0:0:
400,172,243318,1,0,0:0:0:0:
432,100,243491,2,0,P|484:92|512:104,1,65,4|0,0:0|0:0,0:0:0:0:
508,172,243836,2,0,P|504:264|472:320,1,130,4|4,1:0|0:0,0:0:0:0:
432,348,244353,1,0,0:0:0:0:
352,348,244525,2,0,L|288:328,1,65
212,340,244870,2,0,P|152:313|101:273,1,130,4|0,1:0|0:0,0:0:0:0:
64,204,245387,1,0,0:0:0:0:
64,204,245560,6,0,P|96:192|176:136,1,130,4|0,1:0|0:0,0:0:0:0:
220,76,246077,1,0,0:0:0:0:
260,144,246249,2,0,L|304:216,1,65,4|0,0:0|0:0,0:0:0:0:
296,276,246594,2,0,P|336:264|368:176,1,130,4|4,1:0|0:0,0:0:0:0:
340,116,247111,1,0,0:0:0:0:
392,60,247284,2,0,P|428:65|451:82,1,65
340,116,247629,2,0,P|303:110|280:93,1,65,4|0,1:0|0:0,0:0:0:0:
228,36,247974,2,0,L|116:36,1,97.5
92,48,248318,6,0,P|72:108|100:168,1,130,4|0,1:0|0:0,0:0:0:0:
148,228,248836,1,0,0:0:0:0:
224,224,249008,2,0,P|260:232|292:256,1,65,4|0,0:0|0:0,0:0:0:0:
316,352,249353,2,0,P|280:344|248:320,1,65,4|0,1:0|0:0,0:0:0:0:
256,192,249698,12,4,251077,1:0:0:0:
