osu file format v14

[General]
AudioFilename: audio.mp3
AudioLeadIn: 0
PreviewTime: 66934
Countdown: 1
SampleSet: Soft
StackLeniency: 0.7
Mode: 0
LetterboxInBreaks: 0
WidescreenStoryboard: 0

[Editor]
Bookmarks: 22819,33854,44888,55906,66934,89003,111072,133141
DistanceSpacing: 1
BeatDivisor: 4
GridSize: 4
TimelineZoom: 3.499999

[Metadata]
Title:Falling
TitleUnicode:Falling
Artist:Extan
ArtistUnicode:Extan
Creator:Rave-up
Version:Insane
Source:
Tags:
BeatmapID:1061990
BeatmapSetID:498917

[Difficulty]
HPDrainRate:7
CircleSize:4
OverallDifficulty:7
ApproachRate:8.8
SliderMultiplier:1.8
SliderTickRate:1

[Events]
//Background and Video events
0,0,"i have cancer.jpg",0,0
//Break Periods
//Storyboard Layer 0 (Background)
//Storyboard Layer 1 (Fail)
//Storyboard Layer 2 (Pass)
//Storyboard Layer 3 (Foreground)
//Storyboard Sound Samples

[TimingPoints]
738,344.827586206897,4,2,1,40,1,0
738,-142.857142857143,4,2,1,40,0,0
22806,-125,4,2,1,40,0,0
55910,-111.111111111111,4,2,1,50,0,0
66944,-100,4,1,1,60,0,0
87634,-142.857142857143,4,1,1,60,0,0
89013,-100,4,1,1,60,0,0
110738,-200,4,1,1,60,0,0
110910,-200,4,1,1,5,0,0
111082,-142.857142857143,4,2,1,60,0,0
112462,-58.8235294117647,4,1,1,60,0,1
112806,-90.9090909090909,4,1,1,60,0,1
131772,-125,4,2,1,60,0,0
133151,-142.857142857143,4,2,1,40,0,0

[Colours]
Combo1 : 117,186,255
Combo2 : 255,136,17
Combo3 : 255,224,193
Combo4 : 0,128,255

[HitObjects]
80,76,738,38,0,L|224:80,1,125.999996154785
256,168,1427,2,0,L|130:171,1,125.999996154785
68,248,1944,1,0,0:0:0:0:
68,248,2289,6,0,L|76:320,2,62.9999980773926
156,200,2979,2,0,L|148:272,2,62.9999980773926
236,264,3669,2,0,L|244:336,2,62.9999980773926
324,216,4358,6,0,L|316:288,2,62.9999980773926
256,140,5048,2,0,L|249:77,2,62.9999980773926
356,116,5738,2,0,L|418:109,2,62.9999980773926
336,164,6255,6,0,B|344:252|344:252|312:300,1,125.999996154785
236,336,6944,2,0,B|228:248|228:248|260:200,1,125.999996154785
336,164,7462,1,0,0:0:0:0:
336,164,7806,6,0,L|328:92,2,62.9999980773926
248,212,8496,2,0,L|256:140,2,62.9999980773926
168,148,9186,2,0,L|160:76,2,62.9999980773926
80,196,9875,6,0,L|88:124,2,62.9999980773926
140,280,10565,2,0,L|148:352,2,62.9999980773926
184,188,11255,2,0,L|246:181,2,62.9999980773926
147,156,11772,6,0,P|162:96|128:46,1,125.999996154785
60,120,12462,2,0,P|45:179|79:229,1,125.999996154785
176,256,12979,1,0,0:0:0:0:
176,256,13324,6,0,L|182:318,2,62.9999980773926
268,296,14013,2,0,L|262:359,2,62.9999980773926
352,240,14703,2,0,L|358:302,2,62.9999980773926
444,280,15393,6,0,L|438:343,2,62.9999980773926
388,196,16082,2,0,L|382:133,2,62.9999980773926
352,292,16772,2,0,L|415:286,2,62.9999980773926
316,328,17289,6,0,B|232:336|232:336|197:312,1,125.999996154785
152,224,17979,2,0,B|236:216|236:216|270:239,1,125.999996154785
197,312,18496,1,0,0:0:0:0:
197,312,18841,2,0,L|135:306,2,62.9999980773926
94,226,19531,2,0,L|157:220,2,62.9999980773926
213,136,20220,2,0,L|151:130,2,62.9999980773926
110,50,20910,6,0,L|173:44,2,62.9999980773926
116,152,21600,2,0,L|53:146,2,62.9999980773926
208,192,22289,2,0,L|214:129,2,62.9999980773926
160,264,22806,6,0,P|164:312|300:292,1,216
360,248,23496,2,0,L|444:252,2,72
300,184,24013,1,0,0:0:0:0:
300,184,24358,6,0,L|311:112,1,72
384,64,24703,1,0,0:0:0:0:
210,216,25048,2,0,L|191:147,1,72
236,72,25393,1,0,0:0:0:0:
136,280,25738,2,0,L|88:225,1,72
98,139,26082,1,0,0:0:0:0:
98,139,26427,6,0,L|180:136,2,72
108,48,27117,2,0,L|26:45,2,72
164,116,27806,2,0,L|161:198,2,72
224,52,28324,6,0,P|284:40|280:176,1,216
278,240,29013,2,0,P|313:247|347:240,2,72
228,172,29531,1,0,0:0:0:0:
228,172,29875,6,0,L|216:100,1,72
144,52,30220,1,0,0:0:0:0:
317,204,30565,2,0,L|336:134,1,72
292,60,30910,1,0,0:0:0:0:
392,268,31255,2,0,L|439:213,1,72
430,127,31599,1,0,0:0:0:0:
430,127,31944,6,0,L|348:124,2,72
420,36,32634,2,0,L|502:33,2,72
364,104,33324,2,0,L|367:186,2,72
308,36,33841,6,0,B|240:36|240:36|184:64|184:64|92:56,1,216
36,116,34531,2,0,L|43:187,2,72
104,248,35048,1,0,0:0:0:0:
37,305,35393,6,0,P|63:328|98:335,1,72
184,316,35738,1,0,0:0:0:0:
104,248,36082,2,0,P|139:245|169:225,1,72
217,151,36427,1,0,0:0:0:0:
113,161,36772,2,0,P|136:134|143:99,1,72
124,12,37117,1,0,0:0:0:0:
204,40,37462,6,0,L|275:42,2,72
312,120,38151,2,0,L|232:122,2,72
360,192,38841,2,0,L|439:194,2,72
292,255,39358,6,0,B|264:292|256:344|256:344|172:368|189:286,1,216
196,199,40048,2,0,P|214:169|242:146,2,72
116,236,40565,1,0,0:0:0:0:
60,304,40910,6,0,P|37:278|30:243,1,72
49,157,41255,1,0,0:0:0:0:
117,237,41599,2,0,P|120:202|140:172,1,72
214,124,41944,1,0,0:0:0:0:
204,228,42289,2,0,P|231:205|266:198,1,72
353,217,42634,1,0,0:0:0:0:
320,136,42979,6,0,L|317:64,2,72
240,28,43668,2,0,L|237:107,2,72
160,60,44358,2,0,L|80:62,2,72
204,136,44875,6,0,B|192:184|192:184|204:224|204:224|192:275,1,144
92,356,45565,1,0,0:0:0:0:
35,291,45738,2,0,P|28:257|34:222,1,72
92,160,46082,6,0,P|150:139|104:100,1,144
32,60,46600,1,0,0:0:0:0:
32,60,46772,2,0,L|184:60,1,144
256,24,47289,1,0,0:0:0:0:
256,24,47462,6,0,P|264:76|356:112,1,144
412,68,47979,1,0,0:0:0:0:
412,68,48151,2,0,L|348:228,1,144
392,284,48669,1,0,0:0:0:0:
391,283,48841,6,0,P|345:230|275:223,1,144
200,268,49358,1,0,0:0:0:0:
200,268,49531,2,0,P|130:258|94:199,1,144
148,132,50048,2,0,L|236:124,1,72
348,56,50393,6,0,P|376:123|348:188,1,144
212,288,51082,1,0,0:0:0:0:
212,288,51255,2,0,L|283:294,1,72
232,180,51600,6,0,L|88:192,1,144
32,128,52117,1,0,0:0:0:0:
32,126,52289,2,0,P|81:79|145:102,1,144
200,172,52806,1,0,0:0:0:0:
200,172,52979,6,0,P|264:194|313:147,1,144
348,68,53496,1,0,0:0:0:0:
348,68,53669,2,0,B|368:160|368:160|420:192,1,144
484,232,54186,1,0,0:0:0:0:
484,232,54358,6,0,L|312:224,1,144
260,196,54875,1,0,0:0:0:0:
259,196,55048,2,0,P|207:163|258:129,1,144
332,84,55565,2,0,P|344:50|341:14,1,72
255,36,55910,5,0,0:0:0:0:
336,200,56082,2,0,L|512:208,1,161.999995056153
452,296,56600,2,0,L|364:300,1,80.9999975280763
185,323,56944,2,0,L|201:235,1,80.9999975280763
117,99,57289,5,0,0:0:0:0:
117,99,57462,2,0,L|131:178,1,80.9999975280763
200,244,57806,2,0,P|276:260|338:211,1,161.999995056153
364,116,58324,2,0,L|285:98,1,80.9999975280763
344,20,58669,5,0,0:0:0:0:
337,209,58841,2,0,P|376:215|413:198,1,80.9999975280763
452,108,59186,2,0,B|452:156|452:156|444:192|444:192|448:236|448:236|443:268,1,161.999995056153
367,331,59703,2,0,P|329:320|291:330,1,80.9999975280763
132,280,60048,6,0,P|92:252|152:184,1,161.999995056153
236,140,60565,1,0,0:0:0:0:
236,139,60738,2,0,P|280:82|219:42,1,161.999995056153
144,104,61255,1,0,0:0:0:0:
264,232,61427,6,0,L|345:232,1,80.9999975280763
420,292,61772,1,0,0:0:0:0:
247,327,61944,2,0,P|179:289|166:212,1,161.999995056153
260,85,62462,2,0,P|264:125|252:164,1,80.9999975280763
166,211,62806,5,0,0:0:0:0:
284,332,62979,2,0,P|324:335|362:325,1,80.9999975280763
488,160,63324,2,0,B|380:176|380:176|332:148,1,161.999995056153
236,27,63841,2,0,L|248:108,1,80.9999975280763
284,320,64186,5,0,0:0:0:0:
284,320,64358,2,0,L|296:240,1,80.9999975280763
368,171,64703,2,0,P|423:117|411:40,1,161.999995056153
245,62,65220,2,0,L|324:84,1,80.9999975280763
368,171,65565,6,0,P|376:210|368:250,1,80.9999975280763
284,296,65910,2,0,P|275:256|283:216,1,80.9999975280763
368,171,66255,1,0,0:0:0:0:
381,180,66341,1,0,0:0:0:0:
393,191,66427,1,0,0:0:0:0:
402,204,66513,1,0,0:0:0:0:
410,218,66599,1,0,0:0:0:0:
415,233,66686,1,0,0:0:0:0:
418,249,66772,1,0,0:0:0:0:
417,265,66858,1,0,0:0:0:0:
412,279,66944,22,0,L|322:279,1,90,6|0,0:0|0:0,0:0:0:0:
216,172,67289,2,0,L|306:172,1,90,8|0,0:0|0:0,0:0:0:0:
484,48,67633,1,0,0:0:0:0:
396,112,67805,1,0,0:0:0:0:
492,240,67978,2,0,P|499:283|488:327,1,90
399,199,68323,6,0,P|387:155|395:111,1,90
395,111,68581,1,0,0:0:0:0:
395,111,68668,1,0,0:0:0:0:
496,152,68840,1,0,0:0:0:0:
308,248,69012,1,0,0:0:0:0:
492,272,69185,1,0,0:0:0:0:
352,340,69358,1,0,0:0:0:0:
399,199,69530,1,0,0:0:0:0:
316,132,69703,6,0,B|304:88|304:88|307:43,1,90
493,43,70047,2,0,B|496:88|496:88|484:132,1,90
399,199,70392,1,0,0:0:0:0:
399,199,70478,1,0,0:0:0:0:
399,199,70564,1,0,0:0:0:0:
248,288,70737,2,0,L|148:292,1,90
72,228,71082,6,0,P|60:184|67:141,1,90
124,68,71426,1,0,0:0:0:0:
300,104,71599,1,0,0:0:0:0:
168,180,71771,1,0,0:0:0:0:
216,36,71943,1,0,0:0:0:0:
268,224,72116,1,0,0:0:0:0:
180,288,72288,1,0,0:0:0:0:
332,332,72461,6,0,L|421:335,1,90
404,228,72806,2,0,P|391:185|402:142,1,90
474,2,73151,2,0,P|484:45|472:88,1,90
324,52,73496,2,0,L|212:64,1,90
78,154,73840,6,0,L|168:164,1,90
168,164,74099,1,0,0:0:0:0:
168,164,74185,1,0,0:0:0:0:
136,268,74357,1,0,0:0:0:0:
383,156,74530,1,0,0:0:0:0:
268,124,74702,1,0,0:0:0:0:
341,83,74874,1,0,0:0:0:0:
309,199,75048,1,0,0:0:0:0:
136,268,75220,6,0,P|124:225|133:181,1,90
213,25,75565,2,0,P|225:68|216:112,1,90
112,80,75910,2,0,L|64:84,2,45
235,198,76254,2,0,P|274:177|299:140,1,90
299,139,76513,1,0,0:0:0:0:
299,139,76599,5,0,0:0:0:0:
184,292,76771,1,0,0:0:0:0:
384,256,76943,1,0,0:0:0:0:
296,344,77116,1,0,0:0:0:0:
420,136,77289,1,0,0:0:0:0:
244,191,77461,1,0,0:0:0:0:
384,256,77633,1,0,0:0:0:0:
320,92,77805,1,0,0:0:0:0:
247,287,77979,6,0,P|203:287|160:301,1,90
48,188,78324,2,0,P|92:187|135:201,1,90
80,292,78669,1,0,0:0:0:0:
132,96,78841,1,0,0:0:0:0:
228,143,79013,2,0,P|243:102|233:59,1,90
233,59,79272,1,0,0:0:0:0:
233,59,79358,5,0,0:0:0:0:
132,96,79531,1,0,0:0:0:0:
180,240,79703,1,0,0:0:0:0:
264,112,79875,1,0,0:0:0:0:
72,228,80048,1,0,0:0:0:0:
112,328,80220,1,0,0:0:0:0:
204,272,80393,2,0,L|300:272,1,90
392,164,80738,6,0,L|296:164,1,90
208,112,81082,2,0,P|196:69|205:25,1,90
304,68,81427,1,0,0:0:0:0:
304,68,81513,1,0,0:0:0:0:
304,68,81600,1,0,0:0:0:0:
216,220,81772,2,0,L|200:308,1,90
104,216,82117,6,0,L|88:128,1,90
268,44,82462,1,0,0:0:0:0:
87,127,82634,1,0,0:0:0:0:
168,20,82806,1,0,0:0:0:0:
188,172,82979,1,0,0:0:0:0:
288,196,83151,2,0,L|400:192,1,90
456,84,83496,6,0,L|344:80,1,90
178,39,83841,2,0,L|268:36,1,90
280,144,84186,1,0,0:0:0:0:
280,144,84272,1,0,0:0:0:0:
280,144,84358,1,0,0:0:0:0:
348,228,84531,2,0,P|360:270|349:313,1,90
214,317,84875,6,0,P|203:274|216:232,1,90
215,232,85134,1,0,0:0:0:0:
215,232,85220,1,0,0:0:0:0:
260,84,85393,1,0,0:0:0:0:
128,208,85565,1,0,0:0:0:0:
300,164,85738,1,0,0:0:0:0:
152,316,85910,1,0,0:0:0:0:
88,128,86082,1,0,0:0:0:0:
240,252,86255,6,0,B|296:268|296:268|326:260,1,90
323,77,86600,2,0,L|300:164,1,90
240,252,86944,2,0,L|263:338,2,90
212,156,87462,1,0,0:0:0:0:
140,84,87634,6,0,L|97:37,1,62.9999980773926
112,164,87979,2,0,L|40:176,1,62.9999980773926
160,240,88324,2,0,L|118:287,1,62.9999980773926
118,287,88582,1,0,0:0:0:0:
118,287,88669,1,0,0:0:0:0:
324,200,88841,1,0,0:0:0:0:
212,96,89013,6,0,L|92:88,1,90
52,172,89358,2,0,P|42:215|57:257,1,90
304,280,89703,1,0,0:0:0:0:
120,348,89875,1,0,0:0:0:0:
172,204,90048,2,0,L|292:196,1,90
364,84,90393,6,0,L|244:76,1,90
274,78,90651,1,0,0:0:0:0:
274,78,90738,1,0,0:0:0:0:
128,120,90910,1,0,0:0:0:0:
268,196,91082,1,0,0:0:0:0:
144,228,91254,1,0,0:0:0:0:
284,88,91427,1,0,0:0:0:0:
228,300,91600,1,0,0:0:0:0:
372,200,91772,2,0,B|428:196|428:196|458:210,1,90
408,304,92117,6,0,L|312:312,1,90
264,216,92462,1,0,0:0:0:0:
264,216,92548,1,0,0:0:0:0:
264,216,92634,1,0,0:0:0:0:
196,132,92806,2,0,P|184:89|192:45,1,90
335,45,93151,6,0,P|343:89|332:132,1,90
440,48,93496,1,0,0:0:0:0:
264,216,93669,1,0,0:0:0:0:
468,144,93841,1,0,0:0:0:0:
356,272,94013,1,0,0:0:0:0:
376,92,94185,1,0,0:0:0:0:
252,312,94358,1,0,0:0:0:0:
184,228,94531,6,0,P|141:215|98:227,1,90
96,336,94875,2,0,P|138:348|181:336,1,90
424,260,95220,1,0,0:0:0:0:
280,292,95393,1,0,0:0:0:0:
336,200,95565,2,0,L|317:111,1,90
456,40,95910,6,0,L|437:128,1,90
437,128,96169,1,0,0:0:0:0:
437,128,96255,1,0,0:0:0:0:
317,111,96427,1,0,0:0:0:0:
416,228,96600,1,0,0:0:0:0:
280,212,96772,1,0,0:0:0:0:
416,68,96944,1,0,0:0:0:0:
216,124,97117,1,0,0:0:0:0:
340,312,97289,6,0,L|429:304,1,90
468,204,97634,2,0,B|448:148|448:148|450:117,1,90
380,36,97979,2,0,L|425:36,2,45
296,104,98324,2,0,L|251:104,3,45
200,80,98669,5,0,0:0:0:0:
360,188,98841,1,0,0:0:0:0:
172,252,99013,1,0,0:0:0:0:
296,104,99186,1,0,0:0:0:0:
108,168,99358,1,0,0:0:0:0:
292,256,99531,1,0,0:0:0:0:
168,348,99703,1,0,0:0:0:0:
224,168,99875,1,0,0:0:0:0:
100,256,100048,6,0,B|76:220|76:220|72:173,1,90
120,28,100393,2,0,B|144:64|144:64|147:110,1,90
40,96,100738,1,0,0:0:0:0:
100,256,100910,1,0,0:0:0:0:
195,196,101082,2,0,P|228:165|244:123,1,90
324,48,101427,6,0,L|424:48,1,90
414,48,101686,1,0,0:0:0:0:
414,48,101772,1,0,0:0:0:0:
195,196,101944,1,0,0:0:0:0:
339,248,102117,1,0,0:0:0:0:
223,348,102289,1,0,0:0:0:0:
287,168,102462,1,0,0:0:0:0:
159,280,102634,1,0,0:0:0:0:
339,248,102806,6,0,L|443:240,1,90
456,136,103151,2,0,L|352:128,1,90
283,80,103496,1,0,0:0:0:0:
283,80,103582,1,0,0:0:0:0:
283,80,103669,1,0,0:0:0:0:
140,224,103841,2,0,P|182:236|225:224,1,90
138,48,104186,6,0,L|116:136,1,90
348,104,104531,1,0,0:0:0:0:
116,136,104703,1,0,0:0:0:0:
240,60,104874,1,0,0:0:0:0:
244,212,105047,1,0,0:0:0:0:
120,140,105220,2,0,B|79:142|79:142|31:130,1,90
31,258,105565,6,0,B|79:246|79:246|120:247,1,90
216,192,105910,2,0,P|238:154|238:110,1,90
168,24,106255,1,0,0:0:0:0:
168,24,106341,1,0,0:0:0:0:
168,24,106427,1,0,0:0:0:0:
208,312,106600,2,0,L|304:316,1,90
400,192,106944,6,0,L|304:196,1,90
310,195,107203,1,0,0:0:0:0:
310,195,107289,1,0,0:0:0:0:
136,96,107462,1,0,0:0:0:0:
236,52,107634,2,0,P|245:95|234:138,1,90
162,306,107979,2,0,P|153:263|164:220,1,90
272,40,108324,5,0,0:0:0:0:
310,195,108496,1,0,0:0:0:0:
148,87,108669,2,0,P|105:99|61:90,1,90
36,140,108927,1,0,0:0:0:0:
36,140,109013,2,0,L|28:229,2,90
132,224,109531,6,0,L|221:231,1,90
316,180,109875,1,0,0:0:0:0:
267,8,110048,2,0,P|248:47|252:92,1,90
336,64,110393,1,0,0:0:0:0:
180,160,110565,1,0,0:0:0:0:
336,228,110738,2,0,P|368:236|401:229,1,67.5
424,200,111082,6,0,L|424:300,2,94.499997116089
320,128,111772,1,0,0:0:0:0:
488,44,112031,2,0,L|488:144,1,94.499997116089
320,128,112462,6,0,P|316:208|356:196,1,153.000002918243
404,304,112806,2,0,L|300:296,1,99.0000030212403
219,244,113151,2,0,P|201:289|213:336,1,99.0000030212403
288,172,113496,2,0,P|299:124|281:79,1,99.0000030212403
236,64,113755,1,0,0:0:0:0:
236,64,113841,6,0,B|344:72|344:72|392:52,1,148.50000453186
288,172,114186,2,0,L|276:280,1,99.0000030212403
303,368,114531,2,0,P|347:346|372:304,1,99.0000030212403
404,212,114875,2,0,P|447:235|467:279,1,99.0000030212403
308,228,115220,6,0,P|268:168|293:101,1,148.50000453186
224,264,115565,2,0,P|257:300|304:316,1,99.0000030212403
372,156,115910,2,0,L|472:156,1,99.0000030212403
296,60,116255,2,0,L|196:60,1,99.0000030212403
72,167,116600,6,0,P|139:191|164:259,1,148.50000453186
84,360,116944,2,0,L|64:264,1,99.0000030212403
26,78,117289,2,0,P|73:64|120:80,1,99.0000030212403
289,144,117634,2,0,P|242:159|195:143,1,99.0000030212403
348,224,117979,6,0,P|386:163|372:92,1,148.50000453186
285,46,118324,2,0,L|289:150,1,99.0000030212403
207,203,118669,2,0,P|161:187|113:195,1,99.0000030212403
144,386,119013,2,0,L|152:288,1,99.0000030212403
40,108,119358,6,0,P|109:98|124:30,1,148.50000453186
215,104,119703,2,0,L|207:202,1,99.0000030212403
156,288,120048,2,0,L|254:294,1,99.0000030212403
402,201,120393,2,0,L|304:208,1,99.0000030212403
260,188,120651,1,0,0:0:0:0:
260,188,120738,6,0,B|276:96|276:96|251:46,1,148.50000453186
77,119,121082,2,0,L|176:112,1,99.0000030212403
360,164,121427,1,0,0:0:0:0:
168,240,121600,1,0,0:0:0:0:
368,296,121772,1,0,0:0:0:0:
260,188,121944,1,0,0:0:0:0:
76,119,122117,6,0,P|43:182|71:249,1,148.50000453186
153,337,122462,2,0,L|169:229,1,99.0000030212403
360,152,122806,1,0,0:0:0:0:
172,132,122979,1,0,0:0:0:0:
340,48,123151,1,0,0:0:0:0:
260,220,123324,1,0,0:0:0:0:
153,337,123496,2,0,P|101:286|97:213,1,148.50000453186
160,136,123927,2,0,L|264:124,1,99.0000030212403
464,224,124186,1,0,0:0:0:0:
303,179,124358,2,0,P|277:138|279:90,1,99.0000030212403
376,112,124703,1,0,0:0:0:0:
375,248,124875,6,0,P|310:279|241:257,1,148.50000453186
148,224,125220,2,0,L|162:321,1,99.0000030212403
228,164,125565,1,0,0:0:0:0:
68,284,125738,1,0,0:0:0:0:
156,92,125910,1,0,0:0:0:0:
48,168,126082,1,0,0:0:0:0:
162,321,126255,6,0,B|248:292|248:292|316:296,1,148.50000453186
348,212,126600,2,0,L|237:204,1,99.0000030212403
56,232,126944,1,0,0:0:0:0:
192,100,127116,2,0,L|303:108,1,99.0000030212403
348,212,127461,1,0,0:0:0:0:
240,332,127634,6,0,P|177:287|168:216,1,148.50000453186
216,39,127978,2,0,B|228:88|228:88|216:136,1,99.0000030212403
128,88,128324,2,0,L|16:92,2,99.0000030212403
216,136,128840,1,0,0:0:0:0:
343,79,129013,6,0,P|413:85|441:21,1,148.50000453186
404,180,129358,2,0,L|396:284,1,99.0000030212403
316,340,129703,2,0,L|308:241,2,99.0000030212403
224,300,130219,1,0,0:0:0:0:
360,148,130392,6,0,B|464:132|464:132|416:92,1,148.50000453186
344,60,130737,2,0,L|245:71,1,99.0000030212403
176,140,131082,2,0,L|77:129,2,99.0000030212403
244,216,131599,1,0,0:0:0:0:
360,148,131772,6,0,B|360:96|360:96|344:40,2,96
244,216,132462,2,0,B|244:268|244:268|260:324,2,96
340,252,133151,1,0,0:0:0:0:
