osu file format v14

[General]
AudioFilename: lonesome.mp3
AudioLeadIn: 0
PreviewTime: 58154
Countdown: 0
SampleSet: Soft
StackLeniency: 0.7
Mode: 0
LetterboxInBreaks: 0
EpilepsyWarning: 1
WidescreenStoryboard: 1

[Editor]
DistanceSpacing: 0.2
BeatDivisor: 8
GridSize: 4
TimelineZoom: 1.5

[Metadata]
Title:So Long, Lonesome
TitleUnicode:So Long, Lonesome
Artist:Explosions in the Sky
ArtistUnicode:Explosions in the Sky
Creator:Mortem
Version:Goodbye
Source:
Tags:all of a sudden i miss everyone calm relaxing post-rock
BeatmapID:792280
BeatmapSetID:360454

[Difficulty]
HPDrainRate:5
CircleSize:4.5
OverallDifficulty:5
ApproachRate:7
SliderMultiplier:1.6
SliderTickRate:1

[Events]
//Background and Video events
0,0,"bg.jpg",0,0
//Break Periods
//Storyboard Layer 0 (Background)
//Storyboard Layer 1 (Fail)
//Storyboard Layer 2 (Pass)
//Storyboard Layer 3 (Foreground)
//Storyboard Sound Samples

[TimingPoints]
30825,576.923076923077,3,2,1,30,1,0
32411,-100,3,2,1,30,0,0
32699,-100,3,2,1,30,0,0
33692,571.428571428571,3,2,1,30,1,0
34250,571.428571428571,3,2,1,30,1,0
35821,-100,3,2,1,30,0,0
36107,-100,3,2,1,30,0,0
37086,571.428571428571,3,2,1,30,1,0
37682,571.428571428571,3,2,1,30,1,0
39253,-100,3,2,1,30,0,0
39539,-100,3,2,1,30,0,0
40967,-100,3,2,1,30,0,0
41253,-100,3,2,1,30,0,0
42682,-100,3,2,1,30,0,0
42967,-100,3,2,1,30,0,0
43955,571.428571428571,3,2,1,30,1,0
44240,545.454545454546,3,2,1,30,1,0
44512,571.428571428571,3,2,1,30,1,0
53660,571.428571428571,3,2,1,30,1,0
54797,571.428571428571,3,2,1,30,1,0
58225,-100,3,2,2,45,0,0
61670,571.864277544796,3,2,2,45,1,0
78794,571.428571428571,3,2,2,45,1,0
79936,571.428571428571,3,2,2,45,1,0
82257,571.428571428571,3,2,2,45,1,0
90221,571.428571428571,3,2,2,45,1,0
92541,571.428571428571,3,2,4,45,1,0
92541,-133.333333333333,3,2,4,45,0,0
98255,-133.333333333333,3,2,5,30,0,0
98840,571.428571428571,3,2,5,30,1,0
99401,571.428571428571,3,2,4,45,1,0
99401,-133.333333333333,3,2,4,45,0,0
105975,-133.333333333333,3,2,1,30,0,0
107978,571.428571428571,3,2,1,30,1,0
107978,-133.333333333333,3,2,1,30,0,0
114828,571.428571428571,3,2,1,30,1,0
114828,-133.333333333333,3,2,1,30,0,0
119935,571.428571428571,3,2,2,30,1,0
126810,571.755288736421,3,2,2,45,1,0
130832,571.755288736421,3,2,2,45,1,0
131955,571.755288736421,3,2,2,45,1,0
154253,-133.333333333333,3,2,4,45,0,0
157675,571.428571428571,3,2,4,45,1,0
157675,-133.333333333333,3,2,4,45,0,0
160000,571.428571428571,3,2,5,30,1,0
160000,-133.333333333333,3,2,5,30,0,0
161103,571.428571428571,3,2,4,45,1,0
161103,-133.333333333333,3,2,4,45,0,0
167960,-100,3,3,1,55,0,1
170555,571.428571428571,3,3,1,55,1,1
171388,571.428571428571,3,3,1,55,1,1
178230,571.428571428571,3,3,1,55,1,1
195087,-100,3,2,1,55,0,1
195515,-100,3,2,3,15,0,0

[Colours]
Combo1 : 145,145,145
Combo2 : 50,139,177
Combo3 : 173,188,211
Combo4 : 150,141,173
Combo5 : 192,192,192

[HitObjects]
256,192,30824,53,4,0:1:0:0:
144,306,31401,2,0,L|117:228,1,80
167,166,31978,2,0,P|179:91|113:41,1,160,0|8,0:0|0:0,0:0:0:0:
41,181,33132,1,0,0:0:0:0:
144,306,33692,1,0,0:0:0:0:
383,306,34250,6,0,P|398:264|386:221,1,80,4|0,0:1|0:0,0:0:0:0:
335,171,34821,1,0,0:0:0:0:
175,171,35392,1,0,0:0:0:0:
38,254,35964,2,0,P|5:191|41:106,1,160,8|0,0:0|0:0,0:0:0:0:
175,171,37086,1,0,0:0:0:0:
366,227,37682,54,0,L|445:215,1,80,4|0,0:1|0:0,0:0:0:0:
390,297,38253,2,0,L|310:308,1,80,0|0,0:1|0:0,0:0:0:0:
242,267,38824,2,0,P|166:249|91:303,1,160,0|8,0:0|0:0,0:0:0:0:
40,176,39967,2,0,P|69:136|71:99,1,80
123,45,40539,2,0,P|145:77|149:116,1,80
246,187,41110,6,0,P|304:232|367:179,1,160,4|0,0:1|0:0,0:0:0:0:
406,118,41967,1,0,0:0:0:0:
462,175,42253,2,0,L|474:264,1,80
421,316,42824,1,8,0:0:0:0:
421,316,43396,2,0,P|391:283|385:237,1,80
315,207,43955,1,0,0:0:0:0:
193,207,44240,1,2,0:1:0:0:
193,207,44376,1,2,0:1:0:0:
193,207,44512,54,0,P|118:219|59:152,1,160,2|0,0:1|0:0,0:0:0:0:
92,90,45369,1,0,0:0:0:0:
164,55,45654,1,0,0:0:0:0:
242,98,45940,1,2,0:1:0:0:
242,98,46083,1,2,0:1:0:0:
242,98,46226,1,2,0:1:0:0:
306,54,46512,1,0,0:0:0:0:
360,112,46797,1,0,0:0:0:0:
364,191,47083,2,0,L|411:195,2,40,2|2|2,0:1|0:1|0:1,0:0:0:0:
259,249,47654,1,2,0:1:0:0:
259,249,47797,1,2,0:1:0:0:
259,249,47940,6,0,P|188:243|132:321,1,160,2|0,0:1|0:0,0:0:0:0:
215,319,48797,1,0,0:0:0:0:
296,328,49083,1,0,0:0:0:0:
340,261,49369,1,2,0:1:0:0:
340,261,49512,1,2,0:1:0:0:
340,261,49654,2,0,P|379:245|421:250,1,80,2|0,0:1|0:0,0:0:0:0:
482,203,50226,1,0,0:0:0:0:
439,135,50511,1,2,0:1:0:0:
439,135,50654,1,2,0:1:0:0:
439,135,50797,1,2,0:1:0:0:
324,97,51083,1,2,0:1:0:0:
324,97,51226,1,2,0:1:0:0:
324,97,51369,54,0,B|284:121|246:89|246:89|203:55|153:88,1,160,2|0,0:1|0:0,0:0:0:0:
102,110,52226,1,0,0:0:0:0:
83,187,52511,1,0,0:0:0:0:
126,254,52797,1,2,0:1:0:0:
126,254,52940,1,2,0:1:0:0:
126,254,53083,2,0,P|176:275|265:215,1,160,2|0,0:1|0:0,0:0:0:0:
322,171,53945,2,0,L|321:129,2,40,2|2|2,0:1|0:1|0:1,0:0:0:0:
401,272,54517,1,2,0:1:0:0:
401,272,54660,1,2,0:1:0:0:
401,272,54797,6,0,L|429:195,1,80,2|0,0:1|0:0,0:0:0:0:
416,117,55368,2,0,P|351:63|255:72,1,160
207,98,56225,1,2,0:1:0:0:
207,98,56368,1,2,0:1:0:0:
207,98,56511,2,0,P|162:79|104:89,1,80,2|0,0:1|0:0,0:0:0:0:
65,125,57082,1,0,0:0:0:0:
109,201,57368,1,2,0:1:0:0:
109,201,57511,1,2,0:1:0:0:
109,201,57654,1,2,0:1:0:0:
346,218,58225,6,0,L|355:129,1,80,4|0,0:1|0:1,0:1:0:0:
286,70,58797,2,0,L|277:159,1,80,2|0,0:1|0:1,0:1:0:0:
209,217,59368,1,2,0:1:0:0:
126,168,59654,1,0,0:1:0:0:
53,231,59939,2,0,P|42:276|58:327,1,80,2|0,0:1|0:1,0:1:0:0:
138,275,60511,2,0,P|182:286|220:324,1,80,2|0,0:1|0:1,0:1:0:0:
297,271,61082,2,0,L|312:179,1,80,2|0,0:1|0:1,0:1:0:0:
379,158,61670,6,0,L|460:189,1,80,4|0,0:1|0:1,0:1:0:0:
385,253,62241,1,2,0:1:0:0:
302,204,62527,1,0,0:1:0:0:
215,245,62813,2,0,P|170:234|128:246,1,80,2|0,0:1|0:1,0:1:0:0:
47,207,63385,2,0,L|38:124,1,80,2|0,0:1|0:1,0:1:0:0:
125,85,63957,1,2,0:1:0:0:
125,85,64243,1,0,0:1:0:0:
211,127,64529,2,0,L|292:136,1,80,2|0,0:1|0:1,0:1:0:0:
358,262,65101,6,0,L|277:253,1,80,4|0,0:1|0:1,0:1:0:0:
194,206,65673,1,2,0:1:0:0:
194,206,65958,1,0,0:1:0:0:
110,252,66244,2,0,P|97:209|105:173,1,80,2|0,0:1|0:1,0:1:0:0:
194,206,66816,2,0,P|237:219|273:211,1,80,2|0,0:1|0:1,0:1:0:0:
365,195,67388,2,0,L|400:271,2,80,2|0|2,0:1|0:1|0:1,0:1:0:0:
422,117,68246,1,0,0:1:0:0:
287,50,68532,38,0,L|260:127,1,80,4|0,0:1|0:1,0:1:0:0:
343,174,69104,2,0,P|342:214|358:254,1,80,2|0,0:1|0:1,0:1:0:0:
338,345,69676,2,0,P|296:330|252:332,1,80,2|0,0:1|0:1,0:1:0:0:
181,342,70247,1,2,0:1:0:0:
95,169,70820,2,0,P|130:100|207:90,1,160,2|2,0:1|0:1,0:1:0:0:
393,305,71963,6,0,P|411:269|401:223,1,80,4|0,0:1|0:1,0:1:0:0:
342,157,72535,2,0,L|360:79,1,80,2|0,0:1|0:1,0:1:0:0:
275,33,73106,1,2,0:1:0:0:
275,33,73393,1,0,0:1:0:0:
199,92,73679,2,0,P|154:93|119:72,2,80,2|0|2,0:1|0:1|0:1,0:1:0:0:
258,167,74536,1,0,0:1:0:0:
201,245,74822,2,0,P|154:264|111:256,1,80,2|0,0:1|0:1,0:1:0:0:
40,144,75394,6,4,P|80:123|191:163,1,160,4|2,0:1|0:1,0:1:0:0:
261,211,76252,1,0,0:1:0:0:
342,262,76538,2,0,P|357:225|350:179,1,80,2|0,0:1|0:1,0:1:0:0:
433,133,77110,2,0,P|448:170|441:216,1,80,2|0,0:1|0:1,0:1:0:0:
429,304,77682,1,2,0:1:0:0:
342,262,77968,1,0,0:1:0:0:
261,211,78254,2,0,P|223:226|177:214,1,80,2|0,0:1|0:1,0:1:0:0:
63,142,78794,38,0,L|37:217,2,80,4|0|2,0:1|0:1|0:1,0:1:0:0:
151,104,79651,1,0,0:1:0:0:
240,137,79936,2,0,P|279:152|329:140,1,80,2|0,0:1|0:1,0:1:0:0:
365,63,80507,2,0,P|326:48|276:60,1,80,2|0,0:1|0:1,0:1:0:0:
196,52,81078,1,2,0:1:0:0:
240,137,81364,1,0,0:1:0:0:
197,222,81650,1,2,0:1:0:0:
244,305,81936,1,0,0:1:0:0:
377,251,82257,6,0,P|425:245|463:259,2,80,4|0|2,0:1|0:1|0:1,0:1:0:0:
285,222,83114,1,0,0:1:0:0:
244,305,83400,2,0,P|208:278|195:241,1,80,2|0,0:1|0:1,0:1:0:0:
134,172,83971,1,2,0:1:0:0:
49,126,84257,1,0,0:1:0:0:
15,215,84543,2,0,L|12:310,1,80,2|0,0:1|0:1,0:1:0:0:
102,327,85114,1,2,0:1:0:0:
187,283,85399,1,0,0:1:0:0:
323,330,85686,6,0,P|353:257|308:182,1,160,4|2,0:1|0:1,0:1:0:0:
232,232,86543,1,0,0:1:0:0:
232,232,86829,2,0,P|184:218|144:225,1,80,2|0,0:1|0:1,0:1:0:0:
170,308,87400,2,0,P|121:319|90:345,1,80,2|0,0:1|0:1,0:1:0:0:
40,260,87971,2,0,P|62:226|69:187,1,80,2|0,0:1|0:1,0:1:0:0:
147,131,88543,2,0,P|180:153|219:160,1,80,2|0,0:1|0:1,0:1:0:0:
340,82,89114,38,0,P|397:130|389:214,1,160,4|2,0:1|0:1,0:1:0:0:
239,326,90221,1,2,0:1:0:0:
146,303,90507,1,0,0:1:0:0:
146,303,90792,2,0,P|147:253|120:212,1,80,2|0,0:1|0:1,0:1:0:0:
216,177,91364,2,0,P|215:227|242:268,1,80,2|0,0:1|0:1,0:1:0:0:
307,199,91935,2,0,L|393:193,1,80,2|0,0:1|0:1,0:1:0:0:
463,134,92542,37,6,0:1:0:0:
463,134,94256,1,4,0:1:0:0:
443,120,94827,1,4,0:1:0:0:
422,106,95399,1,4,0:1:0:0:
402,92,95970,6,0,B|356:74|314:109|310:140|310:140|238:129|216:190|216:190|250:244|202:321,1,360.000013732911,6|4,0:1|0:1,0:1:0:0:
106,246,98256,1,2,0:1:0:0:
80,225,98840,1,2,0:1:0:0:
102,128,99401,54,0,B|142:113|189:123|204:165|204:165|228:130|274:104|341:115|361:166|349:211|321:234,1,360.000013732911,6|4,0:1|0:1,0:1:0:0:
310,252,101686,1,4,0:1:0:0:
294,270,102258,1,4,0:1:0:0:
274,283,102829,6,0,B|228:241|172:298|172:298|141:330|96:323|46:304|32:248|71:179|131:198,1,360.000013732911,6|4,0:1|0:1,0:1:0:0:
182,165,104829,1,4,0:1:0:0:
231,112,105115,2,0,L|302:105,1,60.0000022888184,4|4,0:1|0:1,0:1:0:0:
348,149,105686,1,4,0:1:0:0:
415,195,105972,1,2,0:1:0:0:
415,195,106115,1,2,0:1:0:0:
415,195,106258,1,2,0:1:0:0:
253,131,107686,54,0,L|254:95,2,30.0000011444092,2|2|2,0:1|0:1|0:1,0:1:0:0:
159,241,108835,1,2,0:1:0:0:
159,241,108978,1,2,0:1:0:0:
159,241,109120,1,2,0:1:0:0:
239,293,109406,2,0,L|238:329,2,30.0000011444092,2|2|2,0:1|0:1|0:1,0:1:0:0:
403,193,110263,5,0,0:1:0:0:
403,193,110835,1,0,0:1:0:0:
322,139,111120,1,2,0:1:0:0:
322,139,111263,1,2,0:1:0:0:
322,139,111406,2,0,P|285:158|208:122,1,120.000004577637,2|0,0:1|0:1,0:1:0:0:
139,95,112263,1,2,0:1:0:0:
139,95,112406,1,2,0:1:0:0:
139,95,112549,1,2,0:1:0:0:
93,165,112835,1,2,0:1:0:0:
93,165,112978,1,2,0:1:0:0:
93,165,113120,54,0,P|122:213|106:285,2,120.000004577637,2|0|0,0:1|0:1|0:1,0:1:0:0:
46,94,114549,1,2,0:1:0:0:
46,94,114692,1,2,0:1:0:0:
46,94,114828,2,0,P|106:80|161:123,1,120.000004577637,2|0,0:1|0:1,0:1:0:0:
235,124,115685,2,0,L|280:118,2,30.0000011444092,2|2|2,0:1|0:1|0:1,0:1:0:0:
189,194,116256,1,2,0:1:0:0:
189,194,116399,1,2,0:1:0:0:
189,194,116542,6,0,L|213:311,1,120.000004577637,2|0,0:1|0:1,0:1:0:0:
370,253,117685,1,0,0:1:0:0:
424,189,117970,1,2,0:1:0:0:
424,189,118113,1,2,0:1:0:0:
424,189,118256,1,2,0:1:0:0:
329,105,119113,2,0,L|332:61,2,30.0000011444092,2|2|2,0:1|0:1|0:1,0:1:0:0:
247,278,119935,6,0,L|161:277,1,80,4|0,0:1|0:1,0:1:0:0:
226,198,120506,2,0,L|141:162,1,80,2|0,0:1|0:1,0:1:0:0:
237,122,121077,2,0,L|194:53,1,80,2|0,0:1|0:1,0:1:0:0:
287,27,121649,1,2,0:1:0:0:
354,94,121934,1,0,0:1:0:0:
297,172,122220,1,2,0:1:0:0:
364,239,122506,1,0,0:1:0:0:
364,239,122792,2,0,P|333:268|286:277,1,80,2|0,0:1|0:1,0:1:0:0:
156,305,123363,6,0,P|112:312|86:202,1,160,4|2,0:1|0:1,0:1:0:0:
103,132,124220,1,0,0:1:0:0:
103,132,124506,1,2,0:1:0:0:
351,303,125077,2,0,P|395:310|421:200,1,160,2|2,0:1|0:1,0:1:0:0:
372,150,125934,1,0,0:1:0:0:
279,174,126220,2,0,P|235:178|202:164,1,80,2|0,0:1|0:1,0:1:0:0:
92,257,126810,6,0,L|59:341,1,80,4|0,0:1|0:1,0:1:0:0:
156,312,127381,2,0,L|189:228,1,80,2|0,0:1|0:1,0:1:0:0:
278,214,127953,1,2,0:1:0:0:
373,214,128239,1,0,0:1:0:0:
440,146,128525,1,2,0:1:0:0:
372,78,128811,1,0,0:1:0:0:
275,78,129097,2,0,P|243:103|200:107,1,80,2|0,0:1|0:1,0:1:0:0:
118,66,129668,2,0,L|32:84,1,80,2|0,0:1|0:1,0:1:0:0:
106,210,130240,38,0,P|138:285|98:350,1,165.75,4|2,0:1|0:1,0:1:0:0:
36,275,131117,1,0,0:1:0:0:
106,210,131403,2,0,P|123:164|123:132,1,80,2|0,0:1|0:1,0:1:0:0:
218,134,131955,2,0,P|262:113|285:90,1,80,2|0,0:1|0:1,0:1:0:0:
379,81,132526,2,0,L|390:242,1,160,2|2,0:1|0:1,0:1:0:0:
113,321,133670,6,0,P|70:332|22:318,2,80,4|0|2,0:1|0:1|0:1,0:1:0:0:
188,263,134527,1,0,0:1:0:0:
276,298,134813,2,0,L|357:313,1,80,2|0,0:1|0:1,0:1:0:0:
372,217,135385,2,0,L|453:232,2,80,2|0|2,0:1|0:1|0:1,0:1:0:0:
292,162,136243,1,0,0:1:0:0:
208,114,136529,1,2,0:1:0:0:
117,145,136814,1,0,0:1:0:0:
60,277,137100,6,0,P|97:302|191:240,1,160,4|2,0:1|0:1,0:1:0:0:
266,196,137958,1,0,0:1:0:0:
316,277,138245,2,0,L|393:295,1,80,2|0,0:1|0:1,0:1:0:0:
479,250,138816,2,0,P|486:217|476:165,1,80,2|0,0:1|0:1,0:1:0:0:
418,97,139387,2,0,P|379:77|338:77,1,80,2|0,0:1|0:1,0:1:0:0:
351,171,139959,2,0,P|312:191|271:191,1,80,2|0,0:1|0:1,0:1:0:0:
145,130,140531,38,0,L|107:207,1,80,4|0,0:1|0:1,0:1:0:0:
131,296,141103,1,2,0:1:0:0:
223,270,141388,1,0,0:1:0:0:
304,321,141674,2,0,P|346:326|390:297,1,80,2|0,0:1|0:1,0:1:0:0:
446,241,142246,2,0,P|451:199|422:155,1,80,2|0,0:1|0:1,0:1:0:0:
346,128,142818,1,2,0:1:0:0:
252,149,143104,1,0,0:1:0:0:
158,169,143390,1,2,0:1:0:0:
181,76,143675,1,0,0:1:0:0:
252,149,143961,6,0,P|256:196|236:235,2,80,4|0|2,0:1|0:1|0:1,0:1:0:0:
315,76,144819,1,0,0:1:0:0:
315,76,145105,1,2,0:1:0:0:
430,229,145677,2,0,L|432:313,1,80,2|0,0:1|0:1,0:1:0:0:
341,276,146248,2,0,L|339:192,1,80,2|0,0:1|0:1,0:1:0:0:
252,153,146820,1,2,0:1:0:0:
181,217,147106,1,0,0:1:0:0:
73,121,147392,6,0,P|44:157|37:191,1,80,4|0,0:1|0:1,0:1:0:0:
96,265,147964,2,0,P|125:229|132:195,1,80,2|0,0:1|0:1,0:1:0:0:
199,128,148535,2,0,P|244:137|277:128,1,80,2|0,0:1|0:1,0:1:0:0:
343,59,149107,1,2,0:1:0:0:
432,228,149679,2,0,L|352:242,1,80,2|0,0:1|0:1,0:1:0:0:
257,241,150251,2,0,L|178:227,1,80,2|0,0:1|0:1,0:1:0:0:
97,107,150822,38,0,P|169:122|228:66,1,160,4|2,0:1|0:1,0:1:0:0:
315,28,151680,1,0,0:1:0:0:
393,83,151966,2,0,L|392:162,1,80,2|0,0:1|0:1,0:1:0:0:
459,230,152538,2,0,L|458:309,2,80,2|0|2,0:1|0:1|0:1,0:1:0:0:
502,143,153395,1,0,0:1:0:0:
502,143,153681,1,2,0:1:0:0:
256,192,154253,37,6,0:1:0:0:
256,192,155968,2,0,L|256:316,2,120.000004577637,4|4|4,0:1|0:1|0:1,0:1:0:0:
256,71,157675,6,0,B|294:62|318:83|318:83|344:106|401:99|401:99|357:145|358:190|396:218|396:218|351:247|380:295,1,360.000013732911,6|4,0:1|0:1,0:1:0:0:
256,312,160000,1,2,0:1:0:0:
256,192,160571,1,2,0:1:0:0:
256,71,161103,54,0,B|218:30|159:26|111:61|97:125|144:171|144:171|105:233|143:294,1,360.000013732911,4|4,0:1|0:1,0:1:0:0:
255,326,163388,2,0,P|312:309|382:338,1,120.000004577637,4|4,0:1|0:1,0:1:0:0:
465,256,164531,6,0,B|437:214|472:158|472:158|469:106|407:71|346:105|343:151|343:151|307:114|259:122,1,360.000013732911,4|4,0:1|0:1,0:1:0:0:
226,164,166531,1,0,0:1:0:0:
175,214,166817,1,0,0:1:0:0:
102,214,167103,1,4,0:1:0:0:
60,155,167388,1,4,0:1:0:0:
130,124,167674,1,2,0:1:0:0:
130,124,167817,1,2,0:1:0:0:
130,124,167960,6,0,P|202:97|282:135,1,160,8|0,0:0|0:0,0:0:0:0:
349,189,168817,1,0,0:0:0:0:
331,283,169103,1,0,0:0:0:0:
246,318,169388,1,2,0:0:0:0:
246,318,169531,1,2,0:0:0:0:
246,318,169674,6,0,P|170:333|96:279,1,160,4|0,0:0|0:0,0:0:0:0:
54,208,170555,2,0,L|29:160,2,40,2|2|2,0:0|0:0|0:0,0:0:0:0:
142,169,171126,1,2,0:0:0:0:
142,169,171269,1,2,0:0:0:0:
142,169,171388,6,0,L|226:189,1,80,8|0,0:0|0:0,0:0:0:0:
298,131,171959,1,0,0:0:0:0:
355,209,172245,2,0,L|435:191,1,80,8|0,0:0|0:0,0:0:0:0:
305,56,172816,1,2,0:0:0:0:
305,56,172959,1,2,0:0:0:0:
305,56,173102,38,0,P|263:65|240:178,1,160,4|0,0:0|0:0,0:0:0:0:
209,259,173959,2,0,L|187:295,2,40,2|2|2,0:0|0:0|0:0,0:0:0:0:
122,217,174530,1,2,0:0:0:0:
122,217,174673,1,2,0:0:0:0:
122,217,174816,6,0,P|137:178|93:66,1,160,8|0,0:0|0:0,0:0:0:0:
46,151,175673,1,8,0:0:0:0:
122,217,175959,1,0,0:0:0:0:
258,172,176245,1,2,0:0:0:0:
258,172,176388,1,2,0:0:0:0:
258,172,176530,6,0,P|283:248|250:325,1,160,4|0,0:0|0:0,0:0:0:0:
158,321,177388,1,2,0:0:0:0:
158,321,177530,1,2,0:0:0:0:
158,321,177673,1,2,0:0:0:0:
80,264,177959,1,2,0:0:0:0:
80,264,178102,1,2,0:0:0:0:
80,264,178230,38,0,L|82:178,1,80,8|8,0:0|0:0,0:0:0:0:
182,79,178801,1,0,0:0:0:0:
182,79,179087,2,0,L|180:165,1,80,8|0,0:0|0:0,0:0:0:0:
268,272,179658,1,2,0:0:0:0:
268,272,179801,1,2,0:0:0:0:
268,272,179944,6,0,B|310:293|342:263|342:263|379:228|433:260,1,160,4|0,0:0|0:0,0:0:0:0:
494,196,180801,2,0,L|493:147,2,40,2|2|2,0:0|0:0|0:0,0:0:0:0:
439,329,181372,1,2,0:0:0:0:
439,329,181515,1,2,0:0:0:0:
439,329,181658,6,8,L|277:344,1,160,8|0,0:0|0:0,0:0:0:0:
211,275,182515,2,0,P|227:231|218:190,1,80,8|0,0:0|0:0,0:0:0:0:
183,110,183087,1,8,0:0:0:0:
325,124,183372,38,0,P|379:136|467:79,1,160,4|0,0:0|0:0,0:0:0:0:
487,274,184515,1,0,0:0:0:0:
406,326,184801,1,2,0:0:0:0:
406,326,184944,1,2,0:0:0:0:
406,326,185087,6,0,L|372:248,1,80,8|8,0:0|0:0,0:0:0:0:
282,223,185658,1,0,0:0:0:0:
190,252,185944,2,0,L|156:330,1,80,8|0,0:0|0:0,0:0:0:0:
60,325,186515,1,8,0:0:0:0:
129,199,186801,6,0,B|161:168|213:179|213:179|234:137|290:141,1,160,4|0,0:0|0:0,0:0:0:0:
397,283,187944,1,0,0:0:0:0:
313,330,188230,1,2,0:0:0:0:
313,330,188372,1,2,0:0:0:0:
313,330,188515,38,0,B|235:307|235:307|150:332,1,160,8|0,0:0|0:0,0:0:0:0:
73,286,189372,1,8,0:0:0:0:
121,203,189658,1,0,0:0:0:0:
102,108,189944,1,8,0:0:0:0:
237,155,190230,6,0,L|319:167,1,80,4|0,0:0|0:0,0:0:0:0:
392,107,190801,2,0,P|411:154|365:249,1,160
271,253,191658,1,2,0:0:0:0:
271,253,191801,1,2,0:0:0:0:
271,253,191944,6,0,P|252:302|253:342,1,80,8|0,0:0|0:0,0:0:0:0:
346,313,192515,1,0,0:0:0:0:
413,245,192801,2,0,P|432:196|431:156,1,80,8|0,0:0|0:0,0:0:0:0:
372,94,193372,1,0,0:0:0:0:
233,132,193658,37,4,0:0:0:0:
154,186,193944,1,0,0:0:0:0:
154,186,194087,1,4,0:0:0:0:
154,186,194230,2,0,L|136:274,1,80,8|0,0:0|0:0,0:0:0:0:
69,331,194801,1,4,0:0:0:0:
213,331,195087,1,2,0:1:0:0:
213,331,195230,1,2,0:1:0:0:
213,331,195373,5,2,3:1:0:0:
256,192,195515,12,0,200515,0:0:0:0:
