osu file format v14

[General]
AudioFilename: lonesome.mp3
AudioLeadIn: 0
PreviewTime: 58154
Countdown: 0
SampleSet: Soft
StackLeniency: 0.7
Mode: 0
LetterboxInBreaks: 0
EpilepsyWarning: 1
WidescreenStoryboard: 1

[Editor]
DistanceSpacing: 1
BeatDivisor: 4
GridSize: 4
TimelineZoom: 1

[Metadata]
Title:So Long, Lonesome
TitleUnicode:So Long, Lonesome
Artist:Explosions in the Sky
ArtistUnicode:Explosions in the Sky
Creator:Mortem
Version:Advanced
Source:
Tags:all of a sudden i miss everyone calm relaxing post-rock
BeatmapID:794602
BeatmapSetID:360454

[Difficulty]
HPDrainRate:4
CircleSize:3.5
OverallDifficulty:4
ApproachRate:5
SliderMultiplier:1.2
SliderTickRate:1

[Events]
//Background and Video events
0,0,"bg.jpg",0,0
//Break Periods
//Storyboard Layer 0 (Background)
//Storyboard Layer 1 (Fail)
//Storyboard Layer 2 (Pass)
//Storyboard Layer 3 (Foreground)
//Storyboard Sound Samples

[TimingPoints]
30825,576.923076923077,3,2,1,30,1,0
32411,-100,3,2,1,30,0,0
32699,-100,3,2,1,30,0,0
33692,571.428571428571,3,2,1,30,1,0
34250,571.428571428571,3,2,1,30,1,0
35821,-100,3,2,1,30,0,0
36107,-100,3,2,1,30,0,0
37086,571.428571428571,3,2,1,30,1,0
37682,571.428571428571,3,2,1,30,1,0
39253,-100,3,2,1,30,0,0
39539,-100,3,2,1,30,0,0
40967,-100,3,2,1,30,0,0
41253,-100,3,2,1,30,0,0
42682,-100,3,2,1,30,0,0
42967,-100,3,2,1,30,0,0
43955,571.428571428571,3,2,1,30,1,0
44240,545.454545454546,3,2,1,30,1,0
44512,571.428571428571,3,2,1,30,1,0
53660,571.428571428571,3,2,1,30,1,0
54797,571.428571428571,3,2,1,30,1,0
58225,-100,3,2,2,45,0,0
61670,571.864277544796,3,2,2,45,1,0
78794,571.428571428571,3,2,2,45,1,0
79936,571.428571428571,3,2,2,45,1,0
82257,571.428571428571,3,2,2,45,1,0
90221,571.428571428571,3,2,2,45,1,0
92541,571.428571428571,3,2,4,45,1,0
92541,-133.333333333333,3,2,4,45,0,0
98255,-133.333333333333,3,2,5,30,0,0
98840,571.428571428571,3,2,5,30,1,0
99401,571.428571428571,3,2,4,45,1,0
99401,-133.333333333333,3,2,4,45,0,0
105975,-133.333333333333,3,2,1,30,0,0
107978,571.428571428571,3,2,1,30,1,0
107978,-133.333333333333,3,2,1,30,0,0
114828,571.428571428571,3,2,1,30,1,0
114828,-133.333333333333,3,2,1,30,0,0
119935,571.428571428571,3,2,2,30,1,0
126810,571.755288736421,3,2,2,45,1,0
130832,571.755288736421,3,2,2,45,1,0
131955,571.755288736421,3,2,2,45,1,0
154253,-133.333333333333,3,2,4,45,0,0
157675,571.428571428571,3,2,4,45,1,0
157675,-133.333333333333,3,2,4,45,0,0
160000,571.428571428571,3,2,5,30,1,0
160000,-133.333333333333,3,2,5,30,0,0
161103,571.428571428571,3,2,4,45,1,0
161103,-133.333333333333,3,2,4,45,0,0
167960,-100,3,3,1,55,0,1
170555,571.428571428571,3,3,1,55,1,1
171388,571.428571428571,3,3,1,55,1,1
178230,571.428571428571,3,3,1,55,1,1
195087,-100,3,2,1,55,0,1
195515,-100,3,2,3,15,0,0

[Colours]
Combo1 : 145,145,145
Combo2 : 50,139,177
Combo3 : 173,188,211
Combo4 : 150,141,173
Combo5 : 192,192,192

[HitObjects]
256,258,30825,53,4,0:1:0:0:
146,306,31401,2,0,P|138:244|173:175,1,120,0|0,0:0|0:0,0:0:0:0:
274,159,32555,2,0,P|322:124|346:70,1,120,8|0,0:0|0:0,0:0:0:0:
231,47,33692,1,0,0:0:0:0:
114,56,34250,5,4,0:1:0:0:
43,153,34821,2,0,L|31:279,1,120,0|0,0:0|0:0,0:0:0:0:
144,313,35964,2,0,P|202:327|265:302,1,120,8|0,0:0|0:0,0:0:0:0:
360,255,37086,1,0,0:0:0:0:
452,170,37682,54,0,P|470:114|451:44,1,120,4|0,0:1|0:0,0:0:0:0:
355,117,38824,1,0,0:0:0:0:
255,183,39396,2,0,P|238:237|273:309,1,120,8|0,0:0|0:0,0:0:0:0:
361,357,40539,1,0,0:0:0:0:
445,272,41110,6,0,P|465:216|448:160,1,120,4|0,0:1|0:0,0:0:0:0:
365,73,42253,1,0,0:0:0:0:
282,159,42824,2,0,P|225:183|153:166,1,120,8|0,0:0|0:0,0:0:0:0:
148,299,44240,1,2,0:1:0:0:
204,294,44512,54,0,P|264:285|334:312,1,120,2|0,0:1|0:0,0:0:0:0:
463,194,45940,1,2,0:1:0:0:
414,160,46226,2,0,P|363:175|292:155,1,120,2|0,0:1|0:0,0:0:0:0:
258,116,47083,2,0,L|192:124,1,60,2|2,0:1|0:1,0:0:0:0:
148,157,47654,1,2,0:1:0:0:
108,201,47940,6,0,P|127:233|109:321,1,120,2|0,0:1|0:0,0:0:0:0:
286,295,49369,1,2,0:1:0:0:
338,266,49654,2,0,P|395:254|472:277,1,120,2|0,0:1|0:0,0:0:0:0:
503,231,50511,2,0,L|509:168,1,60,2|2,0:1|0:1,0:0:0:0:
465,129,51083,1,2,0:1:0:0:
412,100,51369,54,0,L|288:113,1,120,2|0,0:1|0:0,0:0:0:0:
125,46,52797,1,2,0:1:0:0:
135,105,53083,2,0,L|58:198,1,120,2|0,0:1|0:0,0:0:0:0:
72,256,53945,2,0,P|86:289|84:319,1,60,2|2,0:1|0:1,0:0:0:0:
133,349,54517,1,2,0:1:0:0:
174,306,54797,6,0,B|227:276|227:276|252:210,1,120,2|0,0:1|0:0,0:0:0:0:
409,141,56225,1,2,0:1:0:0:
441,191,56511,2,0,L|451:317,1,120,2|0,0:1|0:0,0:0:0:0:
400,343,57368,2,0,B|368:349|368:349|331:340,1,60,2|2,0:1|0:1,0:0:0:0:
256,257,58225,6,0,P|266:208|244:143,1,120,4|2,0:1|0:1,0:0:0:0:
145,212,59368,1,2,0:1:0:0:
79,111,59939,1,2,0:1:0:0:
184,54,60511,2,0,P|232:50|293:99,1,120,2|2,0:1|0:1,0:0:0:0:
368,183,61670,6,0,L|388:303,2,120,4|2|2,0:1|0:1|0:1,0:0:0:0:
247,183,63385,2,0,L|267:63,2,120,2|2|2,0:1|0:1|0:1,0:0:0:0:
162,267,65101,6,0,P|118:238|84:175,1,120,4|2,0:1|0:1,0:0:0:0:
170,95,66244,1,2,0:1:0:0:
276,151,66816,1,2,0:1:0:0:
377,87,67388,2,0,P|391:119|376:213,1,120,2|2,0:1|0:1,0:0:0:0:
300,289,68532,38,0,P|345:318|411:317,2,120,4|2|2,0:1|0:1|0:1,0:0:0:0:
214,203,70247,2,0,P|169:174|103:172,2,120,2|2|2,0:1|0:1|0:1,0:0:0:0:
131,290,71963,6,0,L|53:295,2,60,4|0|2,0:1|0:1|0:1,0:0:0:0:
241,337,73107,1,2,0:1:0:0:
348,284,73679,2,0,P|379:301|411:301,1,60,2|0,0:1|0:1,0:0:0:0:
456,274,74251,2,0,L|481:142,1,120,2|2,0:1|0:1,0:0:0:0:
383,82,75394,6,0,P|335:112|250:104,1,120,4|2,0:1|0:1,0:0:0:0:
160,69,76538,1,2,0:1:0:0:
72,151,77110,2,0,P|92:203|69:269,2,120,2|2|2,0:1|0:1|0:1,0:0:0:0:
161,77,78794,38,0,L|222:70,2,60,4|0|2,0:1|0:1|0:1,0:0:0:0:
72,151,79935,1,2,0:1:0:0:
155,237,80507,2,0,L|219:257,1,60,2|0,0:1|0:1,0:0:0:0:
272,254,81078,2,0,L|332:228,1,60,2|0,0:1|0:1,0:0:0:0:
386,239,81650,1,2,0:1:0:0:
434,120,82257,6,0,L|461:61,2,60,4|0|2,0:1|0:1|0:1,0:0:0:0:
313,120,83400,1,2,0:1:0:0:
193,120,83971,2,0,L|166:61,2,60,2|0|2,0:1|0:1|0:1,0:0:0:0:
108,204,85114,2,0,L|96:273,1,60,2|0,0:1|0:1,0:0:0:0:
135,309,85686,6,0,P|188:291|261:326,1,120,4|2,0:1|0:1,0:0:0:0:
351,253,86829,1,2,0:1:0:0:
444,177,87400,2,0,L|450:116,1,60,2|0,0:1|0:1,0:0:0:0:
396,89,87971,2,0,P|348:111|272:96,1,120,2|2,0:1|0:1,0:0:0:0:
204,192,89114,38,0,P|217:243|201:314,1,120,4|2,0:1|0:1,0:0:0:0:
105,254,90221,1,2,0:1:0:0:
204,192,90792,2,0,L|269:182,1,60,2|0,0:1|0:1,0:0:0:0:
323,183,91364,2,0,L|382:192,1,60,2|0,0:1|0:1,0:0:0:0:
430,227,91935,1,2,0:1:0:0:
420,286,92221,1,0,0:1:0:0:
389,326,92541,37,6,0:1:0:0:
113,328,94256,2,0,L|94:239,1,90.0000034332277,4|4,0:1|0:1,0:0:0:0:
116,152,95399,1,4,0:1:0:0:
174,221,95970,6,0,P|217:246|231:105,1,270.000010299683,6|4,0:1|0:1,0:0:0:0:
194,32,98256,1,2,0:1:0:0:
122,89,98840,1,2,0:1:0:0:
59,150,99401,54,0,B|74:181|142:203|193:161|206:121|206:121|256:160|301:121,1,270.000010299683,6|4,0:1|0:1,0:0:0:0:
375,116,101686,2,0,L|447:174,1,90.0000034332277,4|4,0:1|0:1,0:0:0:0:
420,258,102829,6,0,B|376:251|341:294|341:294|229:268|175:349,1,270.000010299683,6|4,0:1|0:1,0:0:0:0:
139,327,104829,2,0,L|101:285,1,45.0000017166138,4|4,0:1|0:1,0:0:0:0:
82,256,105401,1,4,0:1:0:0:
82,210,105686,1,4,0:1:0:0:
113,178,105972,1,2,0:1:0:0:
157,178,106258,53,2,0:1:0:0:
220,241,106829,1,0,0:0:0:0:
309,241,107401,1,0,0:0:0:0:
340,209,107686,1,2,0:1:0:0:
371,177,107978,2,0,P|420:164|446:134,1,90.0000034332277,0|0,0:0|0:0,0:0:0:0:
444,89,108835,2,0,L|399:79,1,45.0000017166138,2|2,0:1|0:1,0:0:0:0:
355,83,109406,1,2,0:1:0:0:
316,106,109692,6,0,P|274:118|215:97,1,90.0000034332277,2|0,0:1|0:1,0:0:0:0:
150,64,110835,1,0,0:1:0:0:
106,76,111120,1,2,0:1:0:0:
65,95,111406,2,0,P|78:139|71:185,1,90.0000034332277,2|0,0:1|0:1,0:0:0:0:
58,224,112263,2,0,L|101:247,1,45.0000017166138
139,262,112835,1,0,0:0:0:0:
182,250,113120,54,0,L|292:246,1,90.0000034332277,2|0,0:1|0:1,0:0:0:0:
351,204,114263,1,0,0:1:0:0:
391,190,114549,1,2,0:1:0:0:
433,199,114828,2,0,P|450:232|443:290,1,90.0000034332277,2|0,0:1|0:1,0:0:0:0:
413,314,115685,2,0,L|361:311,1,45.0000017166138,2|2,0:1|0:1,0:0:0:0:
323,304,116256,1,2,0:1:0:0:
278,301,116542,6,0,P|193:296|150:217,1,180.000006866455,2|0,0:1|0:1,0:0:0:0:
154,174,117970,1,2,0:1:0:0:
185,142,118256,2,0,L|203:50,1,90.0000034332277,2|0,0:1|0:0,0:0:0:0:
243,34,119113,2,0,L|289:52,1,45.0000017166138,2|2,0:1|0:1,0:0:0:0:
376,115,119935,6,0,P|405:138|428:226,1,120,4|2,0:1|0:1,0:0:0:0:
462,330,121077,1,2,0:1:0:0:
342,316,121649,1,2,0:1:0:0:
265,223,122220,1,2,0:1:0:0:
347,135,122792,1,2,0:1:0:0:
262,50,123363,6,0,P|204:46|131:53,1,120,4|2,0:1|0:1,0:0:0:0:
63,141,124506,1,2,0:1:0:0:
141,231,125077,2,0,P|199:235|272:228,1,120,2|2,0:1|0:1,0:0:0:0:
377,203,126220,1,2,0:1:0:0:
453,303,126810,5,4,0:1:0:0:
339,341,127381,1,2,0:1:0:0:
226,298,127953,1,2,0:1:0:0:
110,330,128525,2,0,P|107:284|139:208,1,120,2|2,0:1|0:1,0:0:0:0:
212,126,129668,1,2,0:1:0:0:
283,221,130240,38,0,L|405:243,1,124.25,4|2,0:1|0:1,0:0:0:0:
484,153,131403,1,2,0:1:0:0:
401,72,131955,2,0,L|279:50,1,120,2|2,0:1|0:1,0:0:0:0:
198,135,133098,1,2,0:1:0:0:
113,220,133670,6,0,L|53:196,2,60,4|0|2,0:1|0:1|0:1,0:0:0:0:
197,304,134813,1,2,0:1:0:0:
309,261,135385,2,0,P|340:269|383:261,1,60,2|0,0:1|0:1,0:0:0:0:
420,238,135957,2,0,L|453:113,1,120,2|2,0:1|0:1,0:0:0:0:
350,55,137100,6,0,P|295:45|225:84,1,120,4|2,0:1|0:1,0:0:0:0:
171,170,138244,1,2,0:1:0:0:
59,215,138816,2,0,P|46:161|82:86,2,120,2|2|2,0:1|0:1|0:1,0:0:0:0:
106,251,140245,1,0,0:1:0:0:
152,289,140531,38,0,L|229:297,1,60,4|0,0:1|0:1,0:0:0:0:
262,327,141103,1,2,0:1:0:0:
379,305,141674,1,2,0:1:0:0:
432,197,142246,2,0,P|461:212|485:242,2,60,2|0|2,0:1|0:1|0:1,0:0:0:0:
374,178,143104,1,0,0:1:0:0:
320,150,143390,1,2,0:1:0:0:
289,98,143675,1,0,0:1:0:0:
235,71,143961,6,0,P|187:100|114:90,1,120,4|2,0:1|0:1,0:0:0:0:
57,195,145105,1,2,0:1:0:0:
141,280,145677,2,0,L|128:341,2,60,2|0|2,0:1|0:1|0:1,0:0:0:0:
199,264,146534,1,0,0:1:0:0:
258,273,146820,2,0,P|289:281|327:275,1,60,2|0,0:1|0:1,0:0:0:0:
372,257,147392,6,0,P|425:248|489:277,2,120,4|2|2,0:1|0:1|0:1,0:0:0:0:
287,172,149107,2,0,P|234:181|170:152,2,120,2|2|2,0:1|0:1|0:1,0:0:0:0:
329,129,150537,1,0,0:1:0:0:
384,150,150822,38,0,L|413:213,1,60,4|0,0:1|0:0,0:0:0:0:
388,260,151394,2,0,P|358:301|289:320,1,120,2|2,0:1|0:1,0:0:0:0:
185,268,152538,2,0,L|163:206,1,60,2|0,0:1|0:1,0:0:0:0:
207,168,153109,2,0,L|229:106,1,60,2|0,0:1|0:1,0:0:0:0:
282,88,153681,2,0,L|347:89,1,60,2|0,0:1|0:0,0:0:0:0:
381,111,154253,37,6,0:1:0:0:
180,291,155968,2,0,L|77:292,2,90.0000034332277,4|4|4,0:1|0:1|0:1,0:0:0:0:
254,242,157675,6,0,P|276:264|373:130,1,270.000010299683,6|4,0:1|0:1,0:0:0:0:
301,92,160000,2,0,P|242:104|203:90,1,90.0000034332277,2|2,0:1|0:1,0:0:0:0:
134,118,161103,54,0,B|148:170|194:184|194:184|166:214|163:254|163:254|173:314|123:344,1,270.000010299683,4|4,0:1|0:1,0:0:0:0:
61,280,163388,1,4,0:1:0:0:
30,195,163960,1,4,0:1:0:0:
61,110,164531,6,0,B|103:78|137:123|178:165|222:97|222:97|261:128|304:100,1,270.000010299683,4|4,0:1|0:1,0:0:0:0:
343,120,166531,1,0,0:1:0:0:
371,154,166817,2,0,L|378:218,1,45.0000017166138,0|4,0:1|0:1,0:0:0:0:
411,226,167388,2,0,L|418:290,1,45.0000017166138,4|2,0:1|0:1,0:0:0:0:
379,319,167960,6,0,P|317:329|260:275,1,120,8|0,0:0|0:0,0:0:0:0:
225,260,168817,2,0,L|162:252,1,60,0|0,0:0|0:0,0:0:0:0:
109,272,169388,1,2,0:0:0:0:
53,295,169674,2,0,L|37:152,1,120,4|0,0:0|0:0,0:0:0:0:
76,121,170555,1,2,0:0:0:0:
127,151,170840,2,0,B|154:162|154:162|193:145,1,60,2|2,0:0|0:0,0:0:0:0:
235,121,171388,6,0,L|306:122,1,60,8|0,0:0|0:0,0:0:0:0:
393,190,172245,1,8,0:0:0:0:
433,234,172530,2,0,L|432:301,1,60,0|2,0:0|0:0,0:0:0:0:
386,333,173102,2,0,P|321:342|277:303,1,120,4|0,0:0|0:0,0:0:0:0:
238,267,173959,1,2,0:0:0:0:
188,232,174245,2,0,P|156:236|112:223,1,60,2|2,0:0|0:0,0:0:0:0:
86,188,174816,6,0,L|117:72,1,120,8|0,0:0|0:0,0:0:0:0:
174,52,175673,2,0,P|209:66|240:64,1,60,8|0,0:0|0:0,0:0:0:0:
287,87,176245,1,2,0:0:0:0:
334,123,176530,1,4,0:0:0:0:
376,235,177102,1,0,0:0:0:0:
338,281,177388,2,0,L|278:282,1,60,2|2,0:0|0:0,0:0:0:0:
235,239,177959,1,2,0:0:0:0:
193,199,178230,38,0,L|133:200,1,60,8|8,0:0|0:0,0:0:0:0:
74,94,179087,2,0,P|28:134|15:208,1,120,8|2,0:0|0:0,0:0:0:0:
44,240,179944,2,0,L|178:266,1,120,4|0,0:0|0:0,0:0:0:0:
203,305,180801,1,2,0:0:0:0:
258,281,181087,2,0,P|288:274|323:277,1,60,2|2,0:0|0:0,0:0:0:0:
365,312,181658,6,0,L|404:196,1,120,8|0,0:0|0:0,0:0:0:0:
379,143,182515,2,0,P|320:160|247:124,1,120,8|8,0:0|0:0,0:0:0:0:
213,113,183372,1,4,0:0:0:0:
96,140,183944,2,0,L|82:262,1,120,0|0,0:0|0:0,0:0:0:0:
124,302,184801,1,2,0:0:0:0:
182,289,185087,6,0,P|234:286|249:290,1,60,8|8,0:0|0:0,0:0:0:0:
348,341,185944,2,0,P|363:273|341:218,1,120,8|8,0:0|0:0,0:0:0:0:
297,193,186801,1,4,0:0:0:0:
176,193,187372,1,0,0:0:0:0:
91,108,187944,1,0,0:0:0:0:
133,65,188230,1,2,0:0:0:0:
191,49,188515,38,0,P|229:84|297:88,1,120,8|0,0:0|0:0,0:0:0:0:
352,105,189372,2,0,L|362:173,1,60,8|0,0:0|0:0,0:0:0:0:
403,206,189944,1,8,0:0:0:0:
371,256,190230,2,0,L|249:273,1,120,4|0,0:0|0:0,0:0:0:0:
139,230,191372,2,0,P|129:194|132:168,1,60,0|2,0:0|0:0,0:0:0:0:
171,126,191944,6,0,L|235:125,1,60,8|0,0:0|0:0,0:0:0:0:
334,185,192801,1,8,0:0:0:0:
374,229,193087,2,0,P|379:261|375:297,1,60,0|0,0:0|0:0,0:0:0:0:
326,320,193658,2,0,L|227:313,2,90,4|0|0,0:0|0:0|0:0,0:0:0:0:
376,288,194801,1,4,0:0:0:0:
426,320,195087,2,0,P|452:304|470:275,1,60,2|2,0:1|3:1,0:0:0:0:
256,192,195515,12,0,200515,0:0:0:0:
