osu file format v14

[General]
AudioFilename: audio.mp3
AudioLeadIn: 0
PreviewTime: 425
Countdown: 0
SampleSet: Soft
StackLeniency: 0.7
Mode: 0
LetterboxInBreaks: 0
WidescreenStoryboard: 1

[Editor]
Bookmarks: 53824,91157,101824
DistanceSpacing: 0.6
BeatDivisor: 3
GridSize: 32
TimelineZoom: 2

[Metadata]
Title:subtractive
TitleUnicode:subtractive
Artist:Expander
ArtistUnicode:Expander
Creator:anna apple
Version:12
Source:beatmania IIDX 22 PENDUAL
Tags:Syameimaru-Aya ylvy Yukiya bor instrumental Sota Fujimori video game electronic
BeatmapID:1912048
BeatmapSetID:889514

[Difficulty]
HPDrainRate:3
CircleSize:3.7
OverallDifficulty:6.5
ApproachRate:8
SliderMultiplier:1.4
SliderTickRate:2

[Events]
//Background and Video events
0,0,"despacito.png",0,0
//Break Periods
2,75375,79257
//Storyboard Layer 0 (Background)
//Storyboard Layer 1 (Fail)
//Storyboard Layer 2 (Pass)
//Storyboard Layer 3 (Foreground)
//Storyboard Layer 4 (Overlay)
//Storyboard Sound Samples

[TimingPoints]
509,333.333333333333,4,2,1,65,1,0
9842,-83.3333333333333,4,2,1,65,0,0
11175,-100,4,2,1,65,0,0
32508,-100,4,2,1,65,0,0
33175,-100,4,2,1,65,0,0
33842,-100,4,2,1,65,0,0
34508,-100,4,2,1,65,0,0
39175,-100,4,2,1,65,0,0
39842,-100,4,2,1,65,0,0
40175,-100,4,2,1,65,0,0
40675,-100,4,2,1,65,0,0
42842,-100,4,2,1,65,0,0
44008,-100,4,2,1,65,0,0
44508,-100,4,2,1,65,0,0
50508,-100,4,2,1,65,0,0
51175,-100,4,2,1,65,0,0
53842,-117.647058823529,4,2,1,65,0,0
69842,-100,4,2,1,65,0,0
70758,-100,4,2,1,65,0,0
75175,-100,4,2,1,65,0,0
78175,300,4,2,1,65,1,0
78175,-100,4,2,1,65,0,0
78675,333.333333333333,4,2,1,65,1,0
80508,333.333333333333,4,2,1,65,1,0
80508,-100,4,2,1,65,0,0
101842,-83.3333333333333,4,2,1,65,0,0

[Colours]
Combo1 : 154,168,216
Combo2 : 202,138,138
Combo3 : 204,190,170
Combo4 : 167,169,169

[HitObjects]
72,115,509,5,4,3:2:0:0:
164,95,675,1,2,0:0:0:0:
77,124,842,1,2,0:0:0:0:
49,266,1175,2,0,P|116:229|117:349,1,245,10|0,0:0|0:0,0:0:0:0:
101,360,1842,6,0,L|180:357,1,70,2|0,0:0|0:0,0:0:0:0:
294,352,2175,2,0,L|356:350,3,35,2|2|2|2,0:0|0:0|0:0|0:0,0:0:0:0:
265,354,2508,1,8,3:2:0:0:
243,250,2675,1,8,3:2:0:0:
326,186,2842,2,0,P|342:193|368:197,3,35,2|2|2|2,0:0|0:0|3:2|0:0,0:0:0:0:
411,222,3175,6,0,B|437:201|447:165|447:165|478:196|514:200,1,140,4|2,0:0|3:2,0:0:0:0:
499,96,3675,1,2,3:2:0:0:
499,96,3758,1,0,3:0:0:0:
499,96,3842,2,0,P|450:76|426:57,1,70,10|0,0:0|0:0,0:0:0:0:
256,27,4342,1,2,0:0:0:0:
256,27,4425,1,2,0:0:0:0:
256,27,4508,6,0,P|239:92|240:124,1,70,2|2,0:0|0:0,0:0:0:0:
307,240,5008,1,0,3:2:0:0:
247,313,5175,2,0,B|177:309|177:309|157:377|157:377|80:370|80:370|48:329,1,233.333333333333,10|8,0:0|0:0,0:0:0:0:
35,283,5842,6,0,L|15:208,2,70,4|2|0,3:2|0:0|0:0,0:0:0:0:
136,308,6342,1,0,3:0:0:0:
136,308,6425,1,0,3:0:0:0:
136,308,6508,2,0,P|133:213|66:100,1,210,10|8,0:0|0:0,0:0:0:0:
79,113,7342,6,0,L|68:69,1,35,2|0,3:2|0:0,0:0:0:0:
119,72,7508,2,0,L|128:22,1,35,2|0,0:0|0:0,0:0:0:0:
176,47,7675,2,0,L|196:9,1,35,2|0,3:2|3:2,0:0:0:0:
231,52,7842,2,0,L|273:28,1,35,12|0,0:0|0:0,0:0:0:0:
271,94,8008,6,0,P|320:82|353:60,2,70,2|2|10,0:0|0:0|0:0,0:0:0:0:
219,277,8675,1,0,0:0:0:0:
288,338,8842,2,0,P|331:315|354:286,1,70,2|2,3:2|0:0,0:0:0:0:
372,214,9175,2,0,L|367:170,2,35,10|0|2,0:0|0:0|3:2,0:0:0:0:
427,291,9508,2,0,P|452:314|484:329,1,70,2|10,3:2|0:0,0:0:0:0:
484,329,10008,6,0,B|398:281|334:337|331:342|327:349|272:385|202:361|158:311,1,335.999989746094,2|2,3:2|3:2,0:0:0:0:
91,266,10842,1,12,0:0:0:0:
91,266,11175,6,0,L|16:271,1,70,2|2,3:2|0:0,0:0:0:0:
61,353,11508,2,0,L|134:348,1,70,2|0,0:0|3:0,0:0:0:0:
205,299,11842,1,8,0:0:0:0:
205,299,12008,2,0,B|207:230|207:230|127:156,1,175,2|0,0:0|0:0,0:0:0:0:
106,133,12508,6,0,P|94:93|102:50,1,70,4|0,0:0|0:0,0:0:0:0:
214,49,12842,2,0,L|230:5,2,35,2|2|2,0:0|0:0|3:2,0:0:0:0:
284,100,13175,2,0,L|296:161,2,46.6666666666667,8|0|2,0:0|0:0|3:2,0:0:0:0:
363,56,13508,2,0,L|372:19,2,35,2|2|2,0:0|0:0|3:2,0:0:0:0:
426,127,13842,5,2,3:2:0:0:
426,127,14008,1,0,0:0:0:0:
503,189,14175,1,0,0:0:0:0:
503,189,14342,1,0,3:0:0:0:
429,264,14508,1,10,0:0:0:0:
429,264,14842,2,0,L|434:347,1,70,2|2,0:0|3:2,0:0:0:0:
349,377,15175,5,2,0:0:0:0:
349,377,15342,2,0,B|287:343|287:343|188:372,1,140,0|0,3:2|3:2,0:0:0:0:
140,384,15842,1,8,0:0:0:0:
203,259,16064,1,8,0:0:0:0:
203,259,16175,2,0,L|146:273,2,46.6666666666667,2|0|0,3:2|3:0|3:0,0:0:0:0:
290,269,16508,6,0,L|302:189,1,70,4|0,3:2|0:0,0:0:0:0:
390,165,16842,2,0,L|377:245,1,70,2|0,0:0|3:0,0:0:0:0:
442,298,17175,1,8,0:0:0:0:
442,298,17342,1,2,0:0:0:0:
502,143,17675,1,10,0:0:0:0:
502,143,17842,6,0,L|421:136,1,70,2|8,3:2|0:0,0:0:0:0:
341,129,18175,2,0,P|298:132|256:106,1,70,2|8,3:2|0:0,0:0:0:0:
181,112,18508,2,0,B|146:122|146:122|92:92,1,70,2|8,3:2|0:0,0:0:0:0:
22,82,18842,1,0,3:2:0:0:
22,82,18925,1,0,3:2:0:0:
22,82,19008,2,0,L|13:134,1,35,8|8,3:2|3:2,0:0:0:0:
13,158,19175,6,0,L|32:232,1,70,4|0,3:2|0:0,0:0:0:0:
105,287,19508,2,0,L|133:204,1,70,2|0,0:0|3:0,0:0:0:0:
224,203,19842,1,10,0:0:0:0:
250,293,20008,1,0,0:0:0:0:
186,365,20175,1,0,0:0:0:0:
186,365,20342,1,10,0:0:0:0:
98,349,20508,6,0,P|64:317|45:281,1,70,2|2,0:0|3:2,0:0:0:0:
139,254,20842,2,0,P|149:210|144:181,1,70,2|2,0:0|0:0,0:0:0:0:
78,117,21175,1,10,0:0:0:0:
78,117,21342,1,2,3:2:0:0:
50,29,21508,2,0,L|85:18,3,35,8|8|0|0,0:0|0:0|3:2|3:2,0:0:0:0:
126,27,21842,5,4,3:2:0:0:
299,79,22175,2,0,P|321:55|323:17,1,70,2|2,0:0|3:2,0:0:0:0:
228,33,22508,2,0,L|136:45,1,70,10|0,0:0|0:0,0:0:0:0:
239,121,22842,2,0,L|334:135,1,70,2|0,0:0|0:0,0:0:0:0:
431,146,23175,5,2,0:0:0:0:
480,61,23342,2,0,L|482:17,2,35,2|0|0,3:2|0:0|0:0,0:0:0:0:
431,146,23675,1,0,3:0:0:0:
433,248,23842,1,10,0:0:0:0:
379,336,24008,2,0,L|319:352,2,35,2|0|2,0:0|0:0|3:2,0:0:0:0:
433,248,24342,1,10,0:0:0:0:
343,220,24508,6,0,P|311:241|277:280,2,70,0|2|2,3:2|0:0|0:0,0:0:0:0:
433,248,25008,1,0,3:0:0:0:
453,228,25092,1,0,3:0:0:0:
473,208,25175,2,0,B|485:173|485:173|472:134,1,70,12|0,0:0|0:0,0:0:0:0:
382,95,25508,2,0,B|373:59|373:59|383:19,1,70,2|8,0:0|0:0,0:0:0:0:
476,34,25842,5,2,3:2:0:0:
394,99,26008,2,0,L|404:153,2,35,0|0|10,3:2|3:2|0:0,0:0:0:0:
293,56,26342,1,2,0:0:0:0:
240,142,26508,1,0,3:2:0:0:
136,89,26675,2,0,L|124:39,2,35,2|0|10,3:2|3:0|0:0,0:0:0:0:
122,109,26925,2,0,L|122:166,1,35,8|2,0:0|3:2,0:0:0:0:
29,241,27175,6,0,P|117:236|99:342,1,210,0|2,3:0|3:2,0:0:0:0:
33,356,27842,2,0,L|124:348,1,70,12|0,0:0|0:0,0:0:0:0:
216,312,28175,2,0,L|300:324,1,70,0|8,0:0|0:0,0:0:0:0:
396,358,28508,5,0,3:2:0:0:
457,268,28675,2,0,L|517:259,2,35,8|0|2,0:0|0:0|0:0,0:0:0:0:
365,217,29008,1,8,0:0:0:0:
379,114,29175,1,2,3:2:0:0:
284,69,29342,2,0,L|245:68,4,35,8|0|2|0|0,0:0|3:0|3:2|3:0|3:2,0:0:0:0:
373,14,29842,5,2,3:2:0:0:
373,14,30008,1,2,0:0:0:0:
437,106,30175,2,0,L|443:145,3,35,2|2|2|2,0:0|0:0|3:2|3:2,0:0:0:0:
415,173,30508,2,0,L|408:211,2,35,10|0|2,0:0|0:0|0:0,0:0:0:0:
499,210,30842,2,0,P|508:254|504:286,1,70,2|10,0:0|0:0,0:0:0:0:
442,350,31175,5,2,3:2:0:0:
442,350,31342,1,2,3:2:0:0:
341,305,31508,2,0,P|296:290|253:299,1,70,8|0,0:0|0:0,0:0:0:0:
190,358,31842,1,0,0:0:0:0:
190,358,31925,1,0,3:2:0:0:
190,358,32008,2,0,L|142:363,1,35,2|0,3:2|3:2,0:0:0:0:
116,343,32175,2,0,L|72:334,3,35,10|8|2|0,0:0|0:0|3:2|3:2,0:0:0:0:
43,349,32508,6,0,B|30:285|30:285|80:233|80:233|74:152,1,210,8|0,3:2|0:0,0:0:0:0:
61,59,33175,2,0,L|56:20,6,35,12|0|0|0|0|0|0,0:0|0:0|0:0|0:0|0:0|0:0|0:0,0:0:0:0:
159,7,33842,6,0,B|164:43|164:43|158:56|158:56|164:74|164:74|155:91|155:91|161:107|161:107|155:126|155:126|161:139|161:139|159:155,2,140,4|0|10,3:2|0:0|0:0,0:0:0:0:
254,58,34675,2,0,P|257:104|398:106,1,210,2|0,0:0|3:2,0:0:0:0:
473,5,35508,6,0,L|522:-1,4,35,0|0|0|0|12,0:0|0:0|0:0|0:0|0:0,0:0:0:0:
430,112,36008,1,0,0:0:0:0:
430,112,36092,1,0,0:0:0:0:
430,112,36175,2,0,L|523:127,1,70,0|10,3:2|0:0,0:0:0:0:
487,258,36675,5,2,0:0:0:0:
487,258,36842,1,2,3:2:0:0:
371,354,37175,2,0,L|357:311,3,35,8|8|8|0,0:0|0:0|0:0|0:0,0:0:0:0:
319,295,37508,2,0,L|287:324,3,35,8|8|8|0,0:0|0:0|0:0|0:0,0:0:0:0:
256,349,37842,6,0,L|95:339,1,140,2|2,3:2|0:0,0:0:0:0:
46,258,38342,2,0,L|143:264,1,70,0|10,0:2|0:0,0:0:0:0:
187,201,38675,1,2,0:0:0:0:
187,201,38842,1,2,0:0:0:0:
187,201,39008,1,2,0:0:0:0:
187,201,39175,6,0,B|136:152|136:152|38:167,1,140,4|0,3:2|0:0,0:0:0:0:
10,69,39675,1,2,0:0:0:0:
10,69,39758,1,0,0:0:0:0:
10,69,39842,2,0,P|45:43|59:11,1,70,10|2,0:0|0:0,0:0:0:0:
149,8,40175,2,0,P|155:47|204:104,1,105,2|0,0:0|0:0,0:0:0:0:
232,113,40508,5,2,3:2:0:0:
317,81,40675,2,0,B|322:58|322:58|314:30|314:30|320:-2,1,70,2|0,0:0|0:0,0:0:0:0:
465,84,41175,1,12,0:0:0:0:
471,248,41508,2,0,L|518:240,1,46.6666666666667,12|0,0:0|0:0,0:0:0:0:
371,340,41842,5,2,3:2:0:0:
371,340,42008,2,0,L|282:350,2,70,2|2|2,0:0|0:0|0:0,0:0:0:0:
375,238,42508,1,10,0:0:0:0:
375,238,42675,1,2,0:0:0:0:
267,253,42842,2,0,B|198:263|198:263|207:348,1,140,2|2,3:2|0:0,0:0:0:0:
205,332,43342,5,0,3:0:0:0:
61,353,43675,1,2,3:2:0:0:
61,353,43842,2,0,B|81:301|81:301|70:252|70:252|98:207|98:207|85:138,1,210,10|2,0:0|3:2,0:0:0:0:
152,81,44508,6,0,B|128:72|128:72|109:71|109:71|97:62|97:62|81:65|81:65|66:56|66:56|42:55|42:55|29:47|29:47|14:45,2,140,4|0|10,3:2|0:0|0:0,0:0:0:0:
244,37,45342,2,0,P|250:108|370:110,1,210,2|2,3:2|3:2,0:0:0:0:
454,6,46175,6,0,L|505:-2,4,35,0|0|0|0|8,0:0|0:0|0:0|0:0|0:0,0:0:0:0:
415,98,46675,1,2,0:0:0:0:
415,98,46758,1,2,0:0:0:0:
415,98,46842,2,0,L|507:108,1,70,2|12,0:0|0:0,0:0:0:0:
385,216,47342,5,2,0:0:0:0:
385,216,47508,1,2,0:0:0:0:
279,115,47842,2,0,L|269:62,3,35,8|0|10|0,0:0|0:0|0:0|0:0,0:0:0:0:
236,56,48175,2,0,L|188:93,3,35,10|0|2|0,0:0|0:0|0:0|0:0,0:0:0:0:
175,95,48508,6,0,L|34:74,1,140,4|2,3:2|0:0,0:0:0:0:
84,170,49008,2,0,L|173:184,1,70,2|0,0:0|0:0,0:0:0:0:
167,281,49342,1,2,0:0:0:0:
167,281,49508,1,8,0:0:0:0:
167,281,49675,1,0,0:0:0:0:
167,281,49842,6,0,B|132:326|132:326|55:314,1,105,4|2,3:2|0:0,0:0:0:0:
0,201,50425,1,2,3:2:0:0:
16,186,50508,2,0,P|51:175|94:173,1,70,12|0,0:0|0:0,0:0:0:0:
194,199,50842,2,0,P|253:209|284:209,1,70,0|2,0:0|0:0,0:0:0:0:
372,192,51175,6,0,P|428:206|437:288,1,140,2|2,3:2|0:0,0:0:0:0:
366,315,51675,2,0,P|332:291|317:256,1,70,2|12,0:0|0:0,0:0:0:0:
410,139,52175,1,2,3:2:0:0:
410,139,52258,1,0,0:0:0:0:
410,139,52342,1,0,0:0:0:0:
472,51,52508,6,0,L|337:34,1,105,0|0,3:2|3:2,0:0:0:0:
328,17,52842,2,0,L|283:29,3,35,10|8|8|0,0:0|0:0|0:0|0:0,0:0:0:0:
253,41,53175,2,0,B|245:63|245:63|247:82|247:82|240:95|240:95|243:115|243:115|238:126|238:126|239:145|239:145|231:156|231:156|233:178|233:178|225:196,1,140,4|2,3:2|0:0,0:0:0:0:
114,80,53842,6,0,P|128:146|48:215,1,178.500003404617,4|2,3:2|3:2,0:0:0:0:
19,287,54508,2,0,B|78:298|78:298|99:371,1,119.000002269745,10|0,0:0|0:0,0:0:0:0:
178,369,55008,1,2,0:0:0:0:
178,369,55175,6,0,L|245:367,1,59.5000011348725,2|0,3:2|0:0,0:0:0:0:
316,245,55675,2,0,L|188:228,1,119.000002269745,10|0,0:0|3:2,0:0:0:0:
219,153,56175,2,0,L|294:149,1,59.5000011348725,2|0,0:0|3:2,0:0:0:0:
396,123,56508,6,0,P|434:82|439:64,1,59.5000011348725,2|0,3:2|0:0,0:0:0:0:
370,18,56842,2,0,P|344:44|328:77,1,59.5000011348725,2|0,0:0|0:0,0:0:0:0:
380,152,57175,1,8,0:0:0:0:
380,152,57342,1,0,0:0:0:0:
475,174,57508,1,2,0:0:0:0:
475,174,57675,1,0,0:0:0:0:
485,277,57842,6,0,L|479:314,3,29.7500005674362,2|0|2|0,3:2|3:2|3:2|3:2,0:0:0:0:
453,339,58175,2,0,L|410:354,3,29.7500005674362,8|0|10|0,0:0|0:0|0:0|0:0,0:0:0:0:
376,325,58508,2,0,L|362:280,3,29.7500005674362,4|0|0|0,3:2|0:0|0:0|3:2,0:0:0:0:
329,278,58842,2,0,L|289:274,3,29.7500005674362,8|0|2|0,0:0|0:0|3:2|0:0,0:0:0:0:
262,299,59175,5,4,3:2:0:0:
73,344,59508,2,0,L|3:322,1,59.5000011348725,2|0,0:0|0:0,0:0:0:0:
26,225,59842,2,0,L|51:240,1,29.7500005674362,10|2,0:0|0:0,0:0:0:0:
102,178,60092,2,0,L|68:155,1,29.7500005674362,2|2,0:0|0:0,0:0:0:0:
74,80,60342,1,2,0:0:0:0:
165,50,60508,6,0,P|191:29|204:0,2,59.5000011348725,2|0|2,3:2|3:2|0:0,0:0:0:0:
89,89,61008,1,8,0:0:0:0:
142,163,61175,2,0,P|185:188|204:190,2,59.5000011348725,2|0|10,0:0|3:0|0:0,0:0:0:0:
85,85,61675,1,0,3:2:0:0:
0,155,61842,6,0,P|54:188|78:257,1,119.000002269745,4|2,3:2|0:0,0:0:0:0:
100,317,62342,2,0,P|125:273|204:239,1,119.000002269745,2|2,0:0|0:0,0:0:0:0:
272,262,62842,1,2,0:0:0:0:
336,338,63008,1,0,0:0:0:0:
336,338,63092,1,0,0:0:0:0:
336,338,63175,6,0,L|449:325,1,89.2500017023087,4|0,3:2|0:0,0:0:0:0:
463,316,63508,2,0,L|472:269,3,29.7500005674362,8|8|8|8,3:2|3:2|3:2|3:2,0:0:0:0:
454,244,63842,2,0,L|421:238,2,29.7500005674362,2|8|2,3:2|0:0|3:2,0:0:0:0:
486,151,64175,2,0,L|390:135,1,89.2500017023087,12|0,0:0|0:0,0:0:0:0:
371,161,64508,6,0,P|325:142|302:18,1,178.500003404617,0|2,0:0|3:2,0:0:0:0:
392,17,65175,2,0,B|452:11|452:11|467:76,1,119.000002269745,10|0,0:0|0:0,0:0:0:0:
416,155,65675,1,2,0:0:0:0:
416,155,65842,6,0,L|336:170,1,59.5000011348725,2|2,3:2|3:2,0:0:0:0:
216,253,66342,2,0,L|347:291,1,119.000002269745,4|2,3:2|3:2,0:0:0:0:
371,370,66842,2,0,L|302:382,1,59.5000011348725,2|0,0:0|3:0,0:0:0:0:
192,364,67175,6,0,P|167:336|152:302,1,59.5000011348725,10|0,0:0|0:0,0:0:0:0:
233,269,67508,2,0,P|258:297|273:331,1,59.5000011348725,2|0,0:0|0:0,0:0:0:0:
181,376,67842,1,10,0:0:0:0:
181,376,68008,1,0,0:0:0:0:
90,342,68175,1,2,0:0:0:0:
90,342,68342,1,0,3:2:0:0:
59,248,68508,6,0,L|52:201,3,29.7500005674362,0|0|0|0,3:2|3:2|3:2|3:2,0:0:0:0:
81,189,68842,2,0,L|110:177,3,29.7500005674362,8|8|8|8,0:0|0:0|0:0|0:0,0:0:0:0:
122,137,69175,2,0,L|112:93,3,29.7500005674362,0|0|0|0,3:2|3:0|3:2|0:0,0:0:0:0:
78,79,69508,2,0,L|40:72,3,29.7500005674362,10|0|2|0,0:0|0:0|0:0|0:0,0:0:0:0:
25,39,69842,5,4,3:2:0:0:
25,39,70175,2,0,L|196:29,1,140,4|10,0:0|3:2,0:0:0:0:
203,28,70592,1,2,0:0:0:0:
257,120,70758,2,0,L|243:170,1,35,2|2,0:0|0:0,0:0:0:0:
338,162,71008,1,2,0:0:0:0:
419,112,71175,6,0,P|449:71|454:46,2,70,2|0|2,3:2|3:2|0:0,0:0:0:0:
332,157,71675,1,8,0:0:0:0:
397,236,71842,2,0,P|404:288|394:326,2,70,2|0|2,0:0|3:2|0:0,0:0:0:0:
325,152,72342,1,0,3:2:0:0:
202,205,72508,6,0,P|145:183|111:102,1,140,2|2,0:0|0:0,0:0:0:0:
70,40,73008,2,0,P|82:116|35:179,1,140,2|2,0:0|0:0,0:0:0:0:
9,248,73508,1,2,0:0:0:0:
77,317,73675,1,0,0:0:0:0:
77,317,73758,1,0,0:0:0:0:
77,317,73842,6,0,B|146:324|146:324|204:300,1,105,4|0,3:2|0:0,0:0:0:0:
213,295,74175,2,0,L|266:272,3,35,8|8|8|8,0:0|0:0|0:0|0:0,0:0:0:0:
277,317,74508,2,0,L|295:358,2,35,2|0|0,3:2|3:0|3:0,0:0:0:0:
430,381,74842,2,0,L|468:348,1,35,8|0,0:0|0:0,0:0:0:0:
455,332,75008,2,0,L|428:299,1,35
411,285,75175,5,0,3:0:0:0:
256,192,80175,5,12,0:0:0:0:
91,255,80508,6,0,L|50:221,1,35,4|0,3:2|0:0,0:0:0:0:
90,302,80675,2,0,L|106:341,1,35,2|0,0:0|0:0,0:0:0:0:
231,256,81008,6,0,L|272:236,1,35,2|0,3:2|0:0,0:0:0:0:
212,290,81175,2,0,L|211:334,1,35,2|0,0:0|0:0,0:0:0:0:
334,299,81425,1,2,0:0:0:0:
450,344,81675,2,0,L|492:353,1,35,2|0,3:2|0:0,0:0:0:0:
412,360,81842,6,0,L|367:381,1,35,2|0,0:0|0:0,0:0:0:0:
432,302,82008,2,0,L|458:239,1,35,2|0,0:0|0:0,0:0:0:0:
430,124,82342,6,0,L|411:84,1,35,2|0,3:2|0:0,0:0:0:0:
406,151,82508,2,0,L|378:187,1,35,2|0,0:0|0:0,0:0:0:0:
495,187,82758,1,0,0:0:0:0:
417,77,83008,2,0,L|459:64,1,35,2|0,0:0|0:0,0:0:0:0:
392,42,83175,6,0,L|356:7,1,35,2|0,3:2|0:0,0:0:0:0:
329,63,83342,2,0,L|309:115,1,35,2|0,0:0|0:0,0:0:0:0:
244,223,83675,6,0,L|243:277,1,35,2|0,3:2|3:2,0:0:0:0:
216,189,83842,2,0,L|202:147,1,35,2|0,0:0|0:0,0:0:0:0:
126,208,84092,1,0,0:0:0:0:
144,342,84342,2,0,L|202:363,1,35
104,335,84508,6,0,L|68:369,1,35
117,285,84675,1,2,3:2:0:0:
69,159,84842,2,0,L|16:173,2,35,10|0|2,0:0|0:0|3:2,0:0:0:0:
177,67,85175,2,0,L|239:42,2,35,0|0|2,0:0|0:0|3:2,0:0:0:0:
69,42,85508,6,0,L|22:65,1,35,10|0,0:0|0:0,0:0:0:0:
32,101,85675,2,0,L|58:141,1,35,2|8,0:0|0:0,0:0:0:0:
78,175,85842,6,0,L|52:225,1,35,2|0,3:2|0:0,0:0:0:0:
111,154,86008,2,0,L|108:109,1,35,2|0,0:0|0:0,0:0:0:0:
250,208,86342,2,0,L|258:151,1,35,2|0,3:2|3:0,0:0:0:0:
273,241,86508,2,0,L|274:294,1,35,2|0,0:0|0:0,0:0:0:0:
370,296,86758,1,0,0:0:0:0:
324,384,87008,2,0,L|371:373,1,35,10|0,0:0|0:0,0:0:0:0:
415,374,87175,6,0,L|457:391,1,35,2|0,0:0|0:0,0:0:0:0:
402,326,87342,2,0,L|384:277,1,35,2|0,3:2|0:0,0:0:0:0:
484,168,87675,6,0,L|475:221,1,35,2|0,3:2|3:2,0:0:0:0:
448,148,87842,2,0,L|431:112,1,35,2|0,0:0|0:0,0:0:0:0:
365,168,88092,1,0,0:0:0:0:
275,41,88342,1,2,0:0:0:0:
275,41,88425,1,0,0:0:0:0:
275,41,88508,6,0,L|335:21,1,35,2|0,3:2|0:0,0:0:0:0:
342,21,88675,1,2,0:0:0:0:
220,160,89008,6,0,L|165:170,1,35,2|0,3:2|0:0,0:0:0:0:
243,198,89175,2,0,L|291:215,1,35,2|0,0:0|0:0,0:0:0:0:
192,273,89425,1,0,0:0:0:0:
101,376,89675,2,0,L|82:329,1,35,10|0,0:0|0:0,0:0:0:0:
51,312,89842,6,0,L|26:354,1,35,2|0,0:0|0:0,0:0:0:0:
53,272,90008,2,0,L|44:209,1,35,2|0,3:2|0:0,0:0:0:0:
35,183,90175,2,0,L|71:167,1,35,10|0,0:0|0:0,0:0:0:0:
97,61,90508,6,0,L|71:15,2,35,2|0|0,0:0|0:0|0:0,0:0:0:0:
248,95,90842,2,0,L|268:152,1,35,10|8,0:0|0:0,0:0:0:0:
293,159,91008,2,0,L|354:151,1,35,2|0,3:2|3:2,0:0:0:0:
368,129,91175,6,0,L|392:72,1,35,2|0,3:2|0:0,0:0:0:0:
395,171,91342,2,0,L|408:218,1,35,2|0,0:0|0:0,0:0:0:0:
480,316,91675,6,0,L|528:307,1,35,2|0,3:2|0:0,0:0:0:0:
448,347,91842,2,0,L|398:361,1,35,2|0,0:0|0:0,0:0:0:0:
399,257,92092,1,0,0:0:0:0:
293,319,92342,2,0,L|244:335,1,35,10|0,0:0|0:0,0:0:0:0:
220,305,92508,6,0,L|224:257,1,35,2|0,0:0|0:0,0:0:0:0:
182,335,92675,2,0,L|176:376,1,35,2|0,3:2|0:0,0:0:0:0:
102,207,93008,6,0,L|154:196,1,35,2|0,3:2|0:0,0:0:0:0:
66,237,93175,2,0,L|24:226,1,35,2|0,0:0|0:0,0:0:0:0:
79,124,93425,1,0,0:0:0:0:
180,15,93675,2,0,L|197:52,1,35,2|0,3:2|0:0,0:0:0:0:
240,81,93842,6,0,L|297:91,1,35,2|0,3:2|0:0,0:0:0:0:
220,123,94008,2,0,L|167:134,1,35,2|0,0:0|0:0,0:0:0:0:
322,228,94425,5,0,0:0:0:0:
322,228,94508,2,0,L|374:219,1,35,2|0,0:0|0:0,0:0:0:0:
323,319,94758,1,0,3:2:0:0:
512,291,95008,2,0,L|489:237,1,35,10|0,0:0|0:0,0:0:0:0:
488,220,95175,6,0,L|527:193,2,35,2|0|2,0:0|0:0|3:2,0:0:0:0:
411,131,95508,2,0,L|363:109,2,35,10|0|0,0:0|0:0|3:2,0:0:0:0:
489,77,95842,2,0,L|521:132,1,35,10|0,3:2|0:0,0:0:0:0:
497,34,96008,1,2,0:0:0:0:
364,43,96175,6,0,L|337:-32,2,46.6666666666667,0|0|0,3:2|3:2|3:2,0:0:0:0:
345,83,96508,2,0,L|390:104,1,35,4|0,3:2|0:0,0:0:0:0:
313,107,96675,2,0,L|267:114,1,35,2|0,0:0|0:0,0:0:0:0:
156,157,97008,6,0,L|103:172,1,35,10|0,0:0|0:0,0:0:0:0:
77,158,97175,1,2,0:0:0:0:
77,158,97258,1,0,0:0:0:0:
43,118,97342,2,0,L|17:69,1,35,0|0,0:0|3:2,0:0:0:0:
0,249,97675,2,0,L|53:259,1,35,10|0,0:0|0:0,0:0:0:0:
64,293,97842,6,0,L|35:320,1,35,2|0,3:2|0:0,0:0:0:0:
107,286,98008,2,0,L|125:225,1,35,2|0,0:0|0:0,0:0:0:0:
199,370,98342,1,2,3:2:0:0:
311,305,98508,6,0,L|272:296,1,35,2|0,0:0|0:0,0:0:0:0:
352,342,98675,2,0,L|409:333,1,35,0|0,0:0|3:0,0:0:0:0:
474,243,99008,1,2,3:2:0:0:
474,243,99092,1,0,3:2:0:0:
474,243,99175,6,0,L|463:178,1,35,2|0,3:2|0:0,0:0:0:0:
456,294,99342,1,2,0:0:0:0:
360,236,99508,1,0,0:0:0:0:
352,334,99675,2,0,B|278:339|278:339|236:364,1,105,2|0,3:2|0:0,0:0:0:0:
251,354,100092,1,0,3:2:0:0:
112,326,100342,2,0,L|106:285,1,35,10|0,0:0|0:0,0:0:0:0:
121,257,100508,6,0,L|173:243,1,35,2|0,0:0|0:0,0:0:0:0:
89,235,100675,2,0,L|51:223,1,35,2|0,3:2|0:0,0:0:0:0:
124,207,100842,6,0,L|163:197,1,35,10|0,0:0|0:0,0:0:0:0:
86,165,101008,2,0,L|31:137,1,35,2|0,3:2|0:0,0:0:0:0:
136,136,101175,6,0,L|190:125,1,35,2|0,0:0|0:0,0:0:0:0:
98,104,101342,2,0,L|11:66,1,70,4|8,3:2|0:0,0:0:0:0:
4,61,101592,1,8,0:0:0:0:
170,10,101842,5,2,3:2:0:0:
176,105,102008,1,2,0:0:0:0:
147,12,102175,1,10,0:0:0:0:
318,66,102508,2,0,P|216:47|252:188,1,293.999991027832,4|0,0:0|0:0,0:0:0:0:
258,214,103175,6,0,L|360:201,1,83.9999974365235,2|0,0:0|0:0,0:0:0:0:
437,258,103508,1,10,0:0:0:0:
437,258,103592,1,2,0:0:0:0:
437,258,103675,2,0,L|457:317,1,41.9999987182618,2|2,3:2|0:0,0:0:0:0:
491,308,103842,6,0,L|519:377,2,55.9999982910157,2|0|0,3:2|3:2|3:2,0:0:0:0:
500,276,104175,2,0,L|513:234,1,41.9999987182618,8|8,0:0|0:0,0:0:0:0:
504,194,104342,2,0,L|492:145,1,41.9999987182618,8|8,0:0|0:0,0:0:0:0:
466,110,104508,6,0,B|420:76|416:46|416:46|387:71|319:81,1,167.999994873047,4|10,3:2|0:0,0:0:0:0:
224,130,105008,1,0,3:2:0:0:
224,130,105092,1,0,3:2:0:0:
224,130,105175,2,0,P|189:95|170:47,1,83.9999974365235,2|4,0:0|0:0,0:0:0:0:
33,202,105675,5,2,3:2:0:0:
33,202,105758,1,0,0:0:0:0:
33,202,105842,2,0,L|141:185,1,83.9999974365235,2|2,0:0|3:2,0:0:0:0:
59,350,106342,5,2,3:2:0:0:
151,363,106508,2,0,B|235:355|235:355|268:278|268:278|353:282|353:282|378:335,1,279.999991455078,10|2,0:0|3:2,0:0:0:0:
448,354,107175,6,0,P|481:325|510:262,1,83.9999974365235,4|8,3:2|0:0,0:0:0:0:
510,207,107508,1,10,0:0:0:0:
430,150,107675,1,2,3:2:0:0:
430,150,107758,1,0,3:2:0:0:
430,150,107842,2,0,P|373:200|312:313,1,167.999994873047,2|10,0:0|0:0,0:0:0:0:
318,363,108342,1,2,0:0:0:0:
318,363,108675,6,0,L|354:306,1,41.9999987182618,10|0,0:0|0:0,0:0:0:0:
270,366,108842,2,0,L|212:384,1,41.9999987182618,2|0,0:0|3:2,0:0:0:0:
274,313,109008,6,0,L|286:261,1,41.9999987182618,8|0,0:0|0:0,0:0:0:0:
218,322,109175,2,0,L|178:334,1,41.9999987182618,2|0,3:2|0:0,0:0:0:0:
166,232,109342,1,10,0:0:0:0:
72,226,109508,1,10,0:0:0:0:
9,294,109675,1,2,3:2:0:0:
69,115,110008,6,0,P|37:71|30:35,2,83.9999974365235,0|10|2,0:0|0:0|3:2,0:0:0:0:
157,76,110508,1,2,0:0:0:0:
157,76,110592,1,0,0:0:0:0:
157,76,110675,1,2,0:0:0:0:
250,88,110842,2,0,P|269:37|266:0,1,83.9999974365235,10|2,0:0|0:0,0:0:0:0:
267,8,111342,6,0,B|276:55|305:82|305:82|302:127|272:156|272:156|261:201|301:249|301:249,1,251.999992309571,2|10,3:2|0:0,0:0:0:0:
365,309,112008,1,2,3:2:0:0:
464,251,112175,6,0,L|491:202,1,41.9999987182618,12|8,3:2|0:0,0:0:0:0:
506,296,112342,2,0,L|514:345,1,41.9999987182618,12|0,0:0|0:0,0:0:0:0:
