osu file format v14

[General]
AudioFilename: audio.mp3
AudioLeadIn: 0
PreviewTime: 425
Countdown: 0
SampleSet: Soft
StackLeniency: 0.7
Mode: 0
LetterboxInBreaks: 0
WidescreenStoryboard: 1

[Editor]
Bookmarks: 53824,64490,75157,80490,91157,101824
DistanceSpacing: 1.1
BeatDivisor: 4
GridSize: 32
TimelineZoom: 2

[Metadata]
Title:subtractive
TitleUnicode:subtractive
Artist:Expander
ArtistUnicode:Expander
Creator:anna apple
Version:1
Source:beatmania IIDX 22 PENDUAL
Tags:Syameimaru-Aya ylvy Yukiya bor instrumental Sota Fujimori video game electronic
BeatmapID:2117052
BeatmapSetID:889514

[Difficulty]
HPDrainRate:3
CircleSize:3
OverallDifficulty:4
ApproachRate:6
SliderMultiplier:1.05
SliderTickRate:1

[Events]
//Background and Video events
0,0,"despacito.png",0,0
//Break Periods
2,75375,79157
//Storyboard Layer 0 (Background)
//Storyboard Layer 1 (Fail)
//Storyboard Layer 2 (Pass)
//Storyboard Layer 3 (Foreground)
//Storyboard Layer 4 (Overlay)
//Storyboard Sound Samples

[TimingPoints]
509,333.333333333333,4,2,1,65,1,0
1175,-83.3333333333333,4,2,1,65,0,0
21842,-83.3333333333333,4,2,1,65,0,1
22508,-83.3333333333333,4,2,1,65,0,0
27175,-83.3333333333333,4,2,1,65,0,1
27342,-83.3333333333333,4,2,1,65,0,0
27508,-83.3333333333333,4,2,1,65,0,1
27675,-83.3333333333333,4,2,1,65,0,0
30175,-83.3333333333333,4,2,1,65,0,1
30508,-83.3333333333333,4,2,1,65,0,0
32508,-100,4,2,1,65,0,1
33175,-100,4,2,1,65,0,0
33842,-100,4,2,1,65,0,0
34508,-100,4,2,1,65,0,0
35842,-100,4,2,1,65,0,0
37175,-100,4,2,1,65,0,1
37342,-100,4,2,1,65,0,0
37508,-100,4,2,1,65,0,1
37675,-100,4,2,1,65,0,0
39175,-100,4,2,1,65,0,0
39842,-100,4,2,1,65,0,1
40175,-100,4,2,1,65,0,0
40675,-100,4,2,1,65,0,0
42842,-100,4,2,1,65,0,0
43342,-100,4,2,1,65,0,1
43508,-100,4,2,1,65,0,0
43842,-100,4,2,1,65,0,1
44508,-100,4,2,1,65,0,0
46175,-100,4,2,1,65,0,1
46508,-100,4,2,1,65,0,0
47842,-100,4,2,1,65,0,1
48008,-100,4,2,1,65,0,0
48175,-100,4,2,1,65,0,1
48342,-100,4,2,1,65,0,0
50508,-100,4,2,1,65,0,0
51175,-100,4,2,1,65,0,1
51342,-100,4,2,1,65,0,0
52842,-100,4,2,1,65,0,1
53175,-100,4,2,1,65,0,0
53508,-100,4,2,1,65,0,1
53842,-111.111111111111,4,2,1,65,0,0
57842,-111.111111111111,4,2,1,65,0,1
58175,-111.111111111111,4,2,1,65,0,0
58508,-111.111111111111,4,2,1,65,0,1
58842,-111.111111111111,4,2,1,65,0,0
63175,-111.111111111111,4,2,1,65,0,1
63342,-111.111111111111,4,2,1,65,0,0
64508,-111.111111111111,4,2,1,65,0,1
64675,-100,4,2,1,65,0,0
68508,-100,4,2,1,65,0,1
68842,-100,4,2,1,65,0,0
69175,-100,4,2,1,65,0,1
69842,-100,4,2,1,65,0,0
70758,-100,4,2,1,65,0,0
73842,-100,4,2,1,65,0,1
74008,-100,4,2,1,65,0,0
75175,-100,4,2,1,65,0,0
78175,300,4,2,1,65,1,0
78175,-100,4,2,1,65,0,0
78675,333.333333333333,4,2,1,65,1,0
80175,-100,4,2,1,65,0,1
80425,-100,4,2,1,65,0,0
80508,333.333333333333,4,2,1,65,1,0
80591,-100,4,2,1,65,0,0
81091,-100,4,2,1,65,0,1
81174,-100,4,2,1,65,0,0
81758,-100,4,2,1,65,0,0
82424,-100,4,2,1,65,0,0
83258,-100,4,2,1,65,0,0
83758,-100,4,2,1,65,0,1
83841,-100,4,2,1,65,0,0
84424,-100,4,2,1,65,0,0
85924,-100,4,2,1,65,0,0
86424,-100,4,2,1,65,0,1
86508,-100,4,2,1,65,0,0
87091,-100,4,2,1,65,0,0
87757,-100,4,2,1,65,0,0
88591,-100,4,2,1,65,0,0
89091,-100,4,2,1,65,0,1
89174,-100,4,2,1,65,0,0
89757,-100,4,2,1,65,0,0
90257,-100,4,2,1,65,0,0
91257,-100,4,2,1,65,0,0
91757,-100,4,2,1,65,0,1
91841,-100,4,2,1,65,0,0
92424,-100,4,2,1,65,0,0
93091,-100,4,2,1,65,0,0
93924,-100,4,2,1,65,0,0
94424,-100,4,2,1,65,0,0
95091,-100,4,2,1,65,0,1
95174,-100,4,2,1,65,0,0
95924,-100,4,2,1,65,0,0
96591,-100,4,2,1,65,0,0
97174,-100,4,2,1,65,0,1
97257,-100,4,2,1,65,0,0
97924,-100,4,2,1,65,0,0
98424,-100,4,2,1,65,0,0
99174,-100,4,2,1,65,0,1
99257,-100,4,2,1,65,0,0
99841,-100,4,2,1,65,0,0
100924,-100,4,2,1,65,0,0
101507,-100,4,2,1,65,0,1
101591,-100,4,2,1,65,0,0
101841,-83.3333333333333,4,2,1,65,0,0

[Colours]
Combo1 : 154,168,216
Combo2 : 202,138,138
Combo3 : 204,190,170
Combo4 : 167,169,169

[HitObjects]
158,220,509,6,0,L|171:151,1,52.5,4|2,3:2|0:0,0:0:0:0:
181,112,842,1,2,0:0:0:0:
181,112,1175,2,0,P|261:125|224:264,1,251.999992309571,10|2,0:0|0:0,0:0:0:0:
131,358,2175,1,2,0:0:0:0:
131,358,2342,1,2,0:0:0:0:
131,358,2508,2,0,B|187:328|187:328|245:353|245:353|296:316|318:243,1,251.999992309571,8|4,3:2|0:0,0:0:0:0:
389,104,3508,2,0,L|471:87,2,62.9999980773926,2|2|10,3:2|3:2|0:0,0:0:0:0:
341,77,4008,1,0,0:0:0:0:
267,193,4342,6,0,L|191:178,2,62.9999980773926,2|2|2,0:0|0:0|0:0,0:0:0:0:
364,299,5008,2,0,L|431:283,1,62.9999980773926,0|10,3:2|0:0,0:0:0:0:
469,313,5342,1,2,0:0:0:0:
469,313,5508,2,0,L|322:282,1,125.999996154785,8|4,0:0|3:2,0:0:0:0:
194,365,6175,1,0,0:0:0:0:
194,365,6508,2,0,B|181:317|181:317|186:285|186:285|176:248|176:248|179:214|179:214|168:161,1,188.999994232178,10|8,0:0|0:0,0:0:0:0:
117,75,7342,6,0,L|95:11,1,62.9999980773926,2|2,3:2|0:0,0:0:0:0:
56,66,7675,2,0,L|39:143,1,62.9999980773926,2|12,3:2|0:0,0:0:0:0:
78,176,8008,1,2,0:0:0:0:
78,176,8175,1,2,0:0:0:0:
78,176,8342,1,10,0:0:0:0:
206,112,8675,2,0,L|218:40,2,62.9999980773926,0|2|2,0:0|3:2|0:0,0:0:0:0:
243,161,9175,2,0,L|279:224,1,62.9999980773926,10|2,0:0|3:2,0:0:0:0:
320,186,9508,1,2,3:2:0:0:
374,220,9675,1,10,0:0:0:0:
466,100,10008,6,0,B|434:154|434:154|459:212|459:212|427:267|427:267|448:346,1,251.999992309571,2|2,3:2|3:2,0:0:0:0:
459,378,10842,1,12,0:0:0:0:
459,378,11175,2,0,P|390:365|347:316,1,125.999996154785,2|2,3:2|0:0,0:0:0:0:
244,270,11842,1,8,0:0:0:0:
235,311,12008,2,0,P|196:372|77:334,1,188.999994232178,2|4,0:0|0:0,0:0:0:0:
12,249,12842,5,2,0:0:0:0:
12,249,13008,1,2,3:2:0:0:
51,210,13175,2,0,L|75:141,1,62.9999980773926,8|0,0:0|0:0,0:0:0:0:
64,108,13508,1,2,0:0:0:0:
186,19,13842,2,0,L|193:162,1,125.999996154785,2|0,3:2|0:0,0:0:0:0:
241,105,14342,1,0,3:0:0:0:
291,141,14508,2,0,L|307:222,1,62.9999980773926,10|0,0:0|0:0,0:0:0:0:
354,222,14842,1,2,0:0:0:0:
438,98,15175,6,0,L|500:88,1,62.9999980773926,2|0,0:0|3:2,0:0:0:0:
373,228,15675,2,0,L|285:208,1,62.9999980773926,0|8,3:2|0:0,0:0:0:0:
261,146,16064,2,0,P|235:138|211:136,2,41.9999987182618,8|2|0,0:0|3:2|3:0,0:0:0:0:
296,245,16508,6,0,L|428:318,1,125.999996154785,4|2,3:2|0:0,0:0:0:0:
433,358,17008,1,0,3:0:0:0:
492,346,17175,2,0,L|513:276,1,62.9999980773926,8|2,0:0|0:0,0:0:0:0:
455,127,17675,1,10,0:0:0:0:
336,64,18008,2,0,L|343:139,1,62.9999980773926,8|2,0:0|3:2,0:0:0:0:
316,173,18342,1,8,0:0:0:0:
330,228,18508,1,2,3:2:0:0:
206,194,18842,2,0,L|164:53,1,125.999996154785,0|4,3:2|3:2,0:0:0:0:
170,73,19342,6,0,B|119:111|119:111|138:170|138:170|108:227|108:227,1,188.999994232178,0|10,0:0|0:0,0:0:0:0:
62,268,20008,2,0,L|47:354,2,62.9999980773926,0|0|10,0:0|0:0|0:0,0:0:0:0:
29,226,20508,1,2,0:0:0:0:
104,111,20842,1,2,0:0:0:0:
55,84,21008,2,0,L|42:15,1,62.9999980773926,2|10,0:0|0:0,0:0:0:0:
104,111,21508,2,0,B|140:116|140:116|183:130|183:130|240:141,1,125.999996154785,8|4,0:0|3:2,0:0:0:0:
501,42,22508,6,0,L|360:24,1,125.999996154785,10|2,0:0|0:0,0:0:0:0:
394,83,23008,1,0,0:0:0:0:
385,137,23175,2,0,L|255:181,1,125.999996154785,2|0,0:0|0:0,0:0:0:0:
328,301,23842,2,0,L|444:221,1,125.999996154785,10|2,0:0|3:2,0:0:0:0:
421,288,24342,1,10,0:0:0:0:
469,328,24508,2,0,L|425:382,2,62.9999980773926,0|2|2,3:2|0:0|0:0,0:0:0:0:
328,301,25175,6,0,P|270:226|279:183,1,125.999996154785,12|2,0:0|0:0,0:0:0:0:
227,170,25675,1,8,0:0:0:0:
171,157,25842,2,0,P|122:200|102:270,1,125.999996154785,2|10,3:2|0:0,0:0:0:0:
252,338,26508,2,0,P|247:262|217:213,1,125.999996154785,0|10,3:2|0:0,0:0:0:0:
169,194,27008,1,2,3:2:0:0:
107,199,27175,5,0,3:0:0:0:
220,26,27842,2,0,L|138:7,2,62.9999980773926,12|0|0,0:0|0:0|0:0,0:0:0:0:
245,73,28342,1,8,0:0:0:0:
282,117,28508,2,0,P|345:101|388:43,1,125.999996154785,0|2,3:2|0:0,0:0:0:0:
401,199,29175,2,0,P|408:242|472:310,1,125.999996154785,2|2,3:2|3:2,0:0:0:0:
466,359,29675,1,0,3:2:0:0:
414,384,29842,6,0,L|332:364,1,62.9999980773926,2|2,3:2|0:0,0:0:0:0:
179,329,30508,2,0,L|143:394,2,62.9999980773926,10|2|2,0:0|0:0|0:0,0:0:0:0:
113,240,31175,2,0,L|33:267,1,62.9999980773926,2|2,3:2|3:2,0:0:0:0:
11,216,31508,2,0,L|7:148,1,62.9999980773926,8|0,0:0|0:0,0:0:0:0:
29,106,31842,1,0,0:0:0:0:
148,125,32175,2,0,L|171:59,1,62.9999980773926,10|2,0:0|3:2,0:0:0:0:
138,21,32508,5,8,3:2:0:0:
138,21,33175,2,0,P|218:113|309:121,1,210,12|4,0:0|3:2,0:0:0:0:
377,57,34175,2,0,B|390:76|390:76|389:90|389:90|402:101|402:101|399:121|399:121|418:135|418:135|422:166,1,105,4|10,0:0|0:0,0:0:0:0:
415,190,34675,2,0,L|404:360,1,157.5,2|0,0:0|3:2,0:0:0:0:
231,277,35508,6,0,P|258:214|296:187,1,105,0|12,0:0|0:0,0:0:0:0:
336,207,36008,1,0,0:0:0:0:
456,152,36342,1,10,0:0:0:0:
456,152,36675,2,0,L|471:82,1,52.5,2|2,0:0|3:2,0:0:0:0:
317,36,37175,1,8,0:0:0:0:
262,167,37508,1,8,0:0:0:0:
276,306,37842,6,0,B|160:317|160:317|107:344,1,157.5,2|0,3:2|0:2,0:0:0:0:
18,260,38675,2,0,L|5:196,1,52.5,2|2,0:0|0:0,0:0:0:0:
71,226,39008,1,2,0:0:0:0:
104,179,39175,2,0,L|156:15,1,157.5,4|2,3:2|0:0,0:0:0:0:
198,16,39842,5,10,0:0:0:0:
341,75,40175,1,2,0:0:0:0:
341,75,40508,2,0,L|412:64,2,52.5,2|2|0,3:2|0:0|0:0,0:0:0:0:
198,16,41175,1,12,0:0:0:0:
102,105,41508,2,0,L|43:111,1,52.5,12|0,0:0|0:0,0:0:0:0:
14,153,41842,6,0,L|167:186,1,157.5,2|2,3:2|0:0,0:0:0:0:
199,235,42508,2,0,L|210:294,1,52.5,10|2,0:0|0:0,0:0:0:0:
256,317,42842,2,0,L|298:208,1,105,2|2,3:2|0:0,0:0:0:0:
508,77,43842,6,0,B|454:55|454:55|402:46|402:46|353:32,1,157.5,10|2,0:0|3:2,0:0:0:0:
303,49,44508,1,4,3:2:0:0:
239,147,44842,1,0,0:0:0:0:
308,249,45175,1,10,0:0:0:0:
305,295,45342,2,0,P|275:364|188:372,1,157.5,2|2,3:2|3:2,0:0:0:0:
86,293,46175,5,0,0:0:0:0:
144,171,46508,1,8,0:0:0:0:
94,142,46675,2,0,L|27:156,2,52.5,2|2|12,0:0|0:0|0:0,0:0:0:0:
177,34,47342,2,0,L|110:18,1,52.5,2|2,0:0|0:0,0:0:0:0:
144,171,47842,1,8,0:0:0:0:
283,122,48175,1,10,0:0:0:0:
404,18,48508,6,0,B|411:142|411:142|433:193,1,157.5,4|2,3:2|0:0,0:0:0:0:
503,319,49342,2,0,L|485:378,2,52.5,2|8|0,0:0|0:0|0:0,0:0:0:0:
452,355,49842,2,0,L|367:376,1,78.75,4|2,3:2|0:0,0:0:0:0:
234,339,50508,2,0,L|207:279,1,52.5,12|0,0:0|0:0,0:0:0:0:
201,240,50842,2,0,L|166:302,1,52.5,0|2,0:0|0:0,0:0:0:0:
140,309,51175,5,2,3:2:0:0:
42,227,51508,1,2,0:0:0:0:
72,193,51675,2,0,L|65:135,1,52.5,2|12,0:0|0:0,0:0:0:0:
0,35,52175,1,2,3:2:0:0:
0,35,52508,5,0,3:2:0:0:
131,104,52842,2,0,P|183:83|214:27,1,105,10|4,0:0|3:2,0:0:0:0:
362,81,53508,2,0,L|416:63,1,52.5,2|2,0:0|0:0,0:0:0:0:
449,29,53842,6,0,L|468:230,1,188.999994232178,4|10,3:2|0:0,0:0:0:0:
397,324,54842,2,0,L|403:382,1,47.2499985580445,0|2,0:0|0:0,0:0:0:0:
344,340,55175,1,2,3:2:0:0:
308,296,55342,2,0,P|326:240|354:205,1,94.499997116089,0|10,0:0|0:0,0:0:0:0:
458,142,56008,2,0,L|514:131,2,47.2499985580445,0|2|0,3:2|0:0|3:2,0:0:0:0:
426,100,56508,6,0,B|381:83|381:83|336:96|336:96|295:75|295:75|233:89,2,188.999994232178,2|8|2,3:2|0:0|3:2,0:0:0:0:
459,228,58175,1,8,0:0:0:0:
303,218,58508,1,4,3:2:0:0:
234,350,58842,2,0,L|174:355,1,47.2499985580445,8|2,0:0|3:2,0:0:0:0:
130,357,59175,5,4,3:2:0:0:
58,238,59508,1,2,0:0:0:0:
92,210,59675,1,0,0:0:0:0:
100,171,59842,1,10,0:0:0:0:
122,67,60175,1,2,0:0:0:0:
122,67,60508,2,0,P|170:77|214:104,1,94.499997116089,2|2,3:2|0:0,0:0:0:0:
264,113,61008,2,0,P|306:79|341:39,1,94.499997116089,8|0,0:0|3:0,0:0:0:0:
314,9,61508,1,10,0:0:0:0:
448,109,61842,6,0,P|471:164|410:216,2,141.749995674133,4|2|2,3:2|0:0|0:0,0:0:0:0:
398,97,63008,1,0,0:0:0:0:
359,122,63175,1,4,3:2:0:0:
308,231,63508,1,8,3:2:0:0:
393,354,63842,1,2,3:2:0:0:
245,365,64175,2,0,L|136:371,1,94.499997116089,12|0,0:0|0:0,0:0:0:0:
44,197,65008,6,0,L|97:188,1,52.5,2|10,3:2|0:0,0:0:0:0:
166,81,65508,2,0,L|104:51,1,52.5,0|2,0:0|0:0,0:0:0:0:
79,20,65842,1,2,3:2:0:0:
79,20,66008,1,2,3:2:0:0:
12,142,66342,2,0,P|31:171|104:216,1,105,4|2,3:2|3:2,0:0:0:0:
122,240,66842,2,0,L|128:295,1,52.5,2|0,0:0|3:0,0:0:0:0:
156,325,67175,6,0,B|205:343|205:343|255:329|255:329|300:352|300:352|368:337,2,210,10|10|0,0:0|0:0|3:2,0:0:0:0:
99,192,68842,1,8,0:0:0:0:
175,83,69175,1,2,3:2:0:0:
214,93,69342,1,2,3:2:0:0:
241,124,69508,2,0,P|263:137|298:142,1,52.5,10|2,0:0|0:0,0:0:0:0:
332,127,69842,5,4,3:2:0:0:
460,22,70175,2,0,L|457:130,1,105,4|10,0:0|3:2,0:0:0:0:
453,257,70842,1,2,0:0:0:0:
453,257,71175,1,2,3:2:0:0:
417,284,71342,2,0,P|333:325|308:350,1,105,0|8,3:2|0:0,0:0:0:0:
217,384,72008,2,0,P|198:328|193:317,2,52.5,0|2|0,3:2|0:0|3:2,0:0:0:0:
157,349,72508,6,0,L|36:330,1,105,2|2,0:0|0:0,0:0:0:0:
29,285,73008,2,0,L|123:217,1,105,2|2,0:0|0:0,0:0:0:0:
142,175,73508,1,2,0:0:0:0:
32,86,73842,1,4,3:2:0:0:
174,24,74175,2,0,L|182:86,1,52.5,8|8,0:0|0:0,0:0:0:0:
211,102,74508,1,2,3:2:0:0:
312,32,74842,1,8,0:0:0:0:
344,50,75008,1,8,0:0:0:0:
359,84,75175,5,0,3:0:0:0:
66,138,80508,6,0,L|183:120,1,105,4|0,3:2|0:0,0:0:0:0:
217,115,81008,1,2,3:2:0:0:
376,35,81508,2,0,L|382:93,1,52.5,0|2,0:0|3:2,0:0:0:0:
414,121,81842,6,0,B|426:93|426:93|447:66|447:66|458:23,1,105,2|0,0:0|0:0,0:0:0:0:
496,63,82342,1,2,3:2:0:0:
481,186,82675,2,0,L|418:221,1,52.5
397,255,83008,1,2,0:0:0:0:
347,217,83175,6,0,L|319:328,1,105,2|0,3:2|0:0,0:0:0:0:
311,367,83675,1,2,3:2:0:0:
149,342,84175,1,0,0:0:0:0:
118,301,84342,6,0,L|1:328,1,105,0|2,0:0|3:2,0:0:0:0:
34,272,84842,2,0,L|43:209,1,52.5,10|2,0:0|3:2,0:0:0:0:
121,124,85342,1,2,3:2:0:0:
121,124,85508,2,0,L|111:66,1,52.5,10|2,0:0|0:0,0:0:0:0:
83,25,85842,6,0,L|203:32,1,105,2|0,3:2|0:0,0:0:0:0:
240,36,86342,1,2,3:2:0:0:
412,77,86758,2,0,B|383:106|383:106|408:147,1,78.75,0|10,0:0|0:0,0:0:0:0:
487,237,87342,5,2,3:2:0:0:
485,286,87508,2,0,L|458:333,1,52.5,0|2,0:0|3:2,0:0:0:0:
413,364,87842,2,0,L|348:379,2,52.5,2|0|0,0:0|0:0|0:0,0:0:0:0:
308,250,88508,6,0,P|259:268|224:323,1,105,2|0,3:2|0:0,0:0:0:0:
232,356,89008,1,2,3:2:0:0:
84,316,89425,2,0,B|98:281|98:281|50:254,1,78.75,0|10,0:0|0:0,0:0:0:0:
32,211,89842,6,0,L|85:195,1,52.5,2|2,0:0|3:2,0:0:0:0:
136,181,90175,1,10,0:0:0:0:
170,70,90508,2,0,L|232:51,1,52.5,2|0,0:0|0:0,0:0:0:0:
264,88,90842,1,10,0:0:0:0:
264,88,91008,1,2,3:2:0:0:
311,125,91175,6,0,L|304:237,1,105,2|0,3:2|0:0,0:0:0:0:
300,281,91675,1,2,3:2:0:0:
435,345,92008,2,0,L|506:357,1,52.5
506,314,92342,6,0,B|474:295|474:295|424:246,1,105,10|2,0:0|3:2,0:0:0:0:
407,196,92842,1,0,0:0:0:0:
402,142,93008,2,0,B|436:127|436:127|495:77,1,105,2|0,3:2|0:0,0:0:0:0:
497,27,93508,1,0,0:0:0:0:
340,0,93842,6,0,P|315:46|299:105,1,105,2|0,3:2|0:0,0:0:0:0:
312,139,94342,1,2,3:2:0:0:
163,65,94842,2,0,L|144:0,1,52.5,0|10,0:0|0:0,0:0:0:0:
57,75,95342,5,2,3:2:0:0:
25,109,95508,2,0,L|13:166,1,52.5,10|0,0:0|3:2,0:0:0:0:
23,210,95842,2,0,L|106:203,1,78.75,10|8,3:2|0:0,0:0:0:0:
116,212,96175,6,0,B|128:265|128:265|127:324,1,105,0|4,3:2|3:2,0:0:0:0:
263,371,96842,1,0,0:0:0:0:
263,371,97008,2,0,L|323:234,1,131.25,10|0,0:0|3:2,0:0:0:0:
434,239,97675,1,10,0:0:0:0:
457,200,97842,6,0,P|485:213|513:220,2,52.5,2|2|0,3:2|0:0|0:0,0:0:0:0:
443,157,98342,1,2,3:2:0:0:
402,29,98675,1,8,0:0:0:0:
357,50,98842,1,8,0:0:0:0:
310,49,99008,6,0,L|144:22,1,157.5,2|0,3:2|0:0,0:0:0:0:
78,70,99758,2,0,L|26:84,2,52.5,0|0|0,3:2|0:0|3:2,0:0:0:0:
140,143,100342,6,0,L|125:259,1,105,10|2,0:0|3:2,0:0:0:0:
86,281,100842,1,10,0:0:0:0:
107,332,101008,2,0,L|233:364,1,105,2|4,3:2|3:2,0:0:0:0:
257,344,101507,1,8,0:0:0:0:
434,249,101842,6,0,L|438:177,1,62.9999980773926,2|2,3:2|0:0,0:0:0:0:
440,141,102175,1,10,0:0:0:0:
440,141,102508,2,0,P|337:135|373:18,1,251.999992309571,4|2,0:0|0:0,0:0:0:0:
512,46,103508,1,10,0:0:0:0:
512,46,103675,1,2,3:2:0:0:
512,46,103842,2,0,B|450:57|450:57|397:22|397:22|317:36|307:115,1,251.999992309571,2|4,3:2|3:2,0:0:0:0:
210,213,104842,6,0,L|122:229,2,62.9999980773926,10|0|2,0:0|3:2|0:0,0:0:0:0:
258,232,105342,1,4,0:0:0:0:
352,333,105675,2,0,L|426:344,2,62.9999980773926,2|2|2,3:2|0:0|3:2,0:0:0:0:
208,372,106342,1,2,3:2:0:0:
182,332,106508,2,0,L|86:300,1,83.9999974365235,10|8,0:0|0:0,0:0:0:0:
74,272,106842,2,0,P|38:303|3:390,1,125.999996154785,2|4,3:2|3:2,0:0:0:0:
0,208,107508,5,10,0:0:0:0:
54,77,107842,2,0,B|104:78|104:78|153:63|153:63|207:67|207:67|259:52|259:52|316:50,1,251.999992309571,2|4,0:0|3:2,0:0:0:0:
351,79,108675,2,0,L|426:95,1,62.9999980773926,10|2,0:0|0:0,0:0:0:0:
381,141,109008,2,0,L|293:166,1,62.9999980773926,8|2,0:0|3:2,0:0:0:0:
369,211,109342,1,10,0:0:0:0:
369,211,109508,1,10,0:0:0:0:
369,211,109675,1,2,3:2:0:0:
422,307,110008,6,0,P|455:330|494:350,2,62.9999980773926,0|10|2,0:0|0:0|3:2,0:0:0:0:
365,326,110508,2,0,L|340:392,1,62.9999980773926,2|2,0:0|0:0,0:0:0:0:
301,342,110842,2,0,L|266:282,1,62.9999980773926,10|2,0:0|0:0,0:0:0:0:
141,205,111342,2,0,P|88:247|151:353,1,188.999994232178,2|10,3:2|0:0,0:0:0:0:
173,340,112008,1,2,3:2:0:0:
212,304,112175,2,0,L|249:317,2,31.4999990386963,12|8|12,3:2|0:0|0:0,0:0:0:0:
