osu file format v14

[General]
AudioFilename: audio.mp3
AudioLeadIn: 0
PreviewTime: 73074
Countdown: 0
SampleSet: Normal
StackLeniency: 0.7
Mode: 3
LetterboxInBreaks: 0
SpecialStyle: 0
WidescreenStoryboard: 1

[Editor]
Bookmarks: 23788,73160,96474,108131
DistanceSpacing: 1
BeatDivisor: 4
GridSize: 4
TimelineZoom: 3.499999

[Metadata]
Title:aura
TitleUnicode:aura
Artist:Expander
ArtistUnicode:Expander
Creator:AlisceaSparku
Version:7K MEDIUM
Source:jubeat saucer fulfill
Tags:藤森崇多 dubstep glitch hop sota fujimori
BeatmapID:1195174
BeatmapSetID:550686

[Difficulty]
HPDrainRate:7
CircleSize:7
OverallDifficulty:6.6
ApproachRate:5
SliderMultiplier:1.4
SliderTickRate:1

[Events]
//Background and Video events
0,0,"bg.jpg",0,0
//Break Periods
//Storyboard Layer 0 (Background)
//Storyboard Layer 1 (Fail)
//Storyboard Layer 2 (Pass)
//Storyboard Layer 3 (Foreground)
//Storyboard Sound Samples

[TimingPoints]
1846,342.857142857143,4,1,0,5,1,0

[HitObjects]
182,192,1331,5,0,0:0:0:0:
109,192,1417,1,0,0:0:0:0:
36,192,1503,1,0,0:0:0:0:
475,192,1503,1,0,0:0:0:0:
329,192,1845,128,0,2188:0:0:0:0:
402,192,1845,1,0,0:0:0:0:
36,192,2188,1,0,0:0:0:0:
475,192,2188,1,0,0:0:0:0:
182,192,2360,128,0,2703:0:0:0:0:
109,192,2874,1,0,0:0:0:0:
475,192,2874,1,0,0:0:0:0:
256,192,3046,128,0,3217:0:0:0:0:
36,192,3388,128,0,3560:0:0:0:0:
329,192,3560,1,0,0:0:0:0:
402,192,3560,1,0,0:0:0:0:
36,192,3731,128,0,4074:0:0:0:0:
256,192,4074,1,0,0:0:0:0:
475,192,4246,1,0,0:0:0:0:
109,192,4246,1,0,0:0:0:0:
182,192,4588,128,0,4931:0:0:0:0:
36,192,4931,1,0,0:0:0:0:
402,192,4931,1,0,0:0:0:0:
329,192,5103,128,0,5274:0:0:0:0:
182,192,5446,1,0,0:0:0:0:
329,192,5617,1,0,0:0:0:0:
475,192,5617,1,0,0:0:0:0:
109,192,5788,128,0,6131:0:0:0:0:
402,192,6131,128,0,6303:0:0:0:0:
256,192,6303,1,0,0:0:0:0:
36,192,6303,1,0,0:0:0:0:
329,192,6646,1,0,0:0:0:0:
329,192,6817,1,0,0:0:0:0:
109,192,6988,1,0,0:0:0:0:
36,192,6988,1,0,0:0:0:0:
256,192,7160,1,0,0:0:0:0:
402,192,7331,128,0,7674:0:0:0:0:
182,192,7674,1,0,0:0:0:0:
36,192,7674,1,0,0:0:0:0:
256,192,7846,128,0,8017:0:0:0:0:
475,192,8017,1,0,0:0:0:0:
329,192,8188,1,0,0:0:0:0:
182,192,8360,1,0,0:0:0:0:
109,192,8360,128,0,8703:0:0:0:0:
109,192,8874,1,0,0:0:0:0:
256,192,9046,1,0,0:0:0:0:
329,192,9046,1,0,0:0:0:0:
475,192,9217,128,0,9388:0:0:0:0:
109,192,9560,1,0,0:0:0:0:
182,192,9646,1,0,0:0:0:0:
256,192,9731,1,0,0:0:0:0:
475,192,9731,1,0,0:0:0:0:
36,192,9903,128,0,10417:0:0:0:0:
109,192,9903,1,0,0:0:0:0:
402,192,10246,128,0,10417:0:0:0:0:
256,192,10417,1,0,0:0:0:0:
182,192,10417,1,0,0:0:0:0:
109,192,10760,128,0,11103:0:0:0:0:
475,192,10931,128,0,11103:0:0:0:0:
329,192,11103,1,0,0:0:0:0:
256,192,11103,1,0,0:0:0:0:
182,192,11274,1,0,0:0:0:0:
36,192,11360,1,0,0:0:0:0:
402,192,11446,128,0,12131:0:0:0:0:
475,192,11446,1,0,0:0:0:0:
182,192,11788,1,0,0:0:0:0:
329,192,11788,1,0,0:0:0:0:
256,192,11960,1,0,0:0:0:0:
109,192,12131,128,0,12817:0:0:0:0:
256,192,12303,1,0,0:0:0:0:
182,192,12474,1,0,0:0:0:0:
402,192,12474,1,0,0:0:0:0:
402,192,12646,1,0,0:0:0:0:
475,192,12817,128,0,13160:0:0:0:0:
329,192,13160,1,0,0:0:0:0:
36,192,13160,1,0,0:0:0:0:
182,192,13331,128,0,13674:0:0:0:0:
