osu file format v14

[General]
AudioFilename: audio.mp3
AudioLeadIn: 0
PreviewTime: 78909
Countdown: 0
SampleSet: Soft
StackLeniency: 0.7
Mode: 0
LetterboxInBreaks: 0
WidescreenStoryboard: 1

[Editor]
Bookmarks: 1050,7050,13050,19050,25050,31050,37050,43050,49050,55050,61050,67050,73050,79050,80550,86081,86550,92081,92550,97800,98550,101175,101550,104081,104550,110550,113550,119550,122550
DistanceSpacing: 0.1
BeatDivisor: 8
GridSize: 32
TimelineZoom: 1.9

[Metadata]
Title:Honey Trap
TitleUnicode:Honey Trap
Artist:Expander
ArtistUnicode:Expander
Creator:Shyotamaze
Version:Normal
Source:beatmania IIDX 24 SINOBUZ
Tags:Sota Fujimori -Nanako- Frey VoiceCore BOUYAAA hyper trap japanese instrumental electronic video game 藤森 崇多 dj MAX STEROID BEMANI Sound Team "Expander" IIDX 25 CANNON BALLERS
BeatmapID:2941056
BeatmapSetID:1403412

[Difficulty]
HPDrainRate:3
CircleSize:3
OverallDifficulty:4
ApproachRate:6
SliderMultiplier:1.2
SliderTickRate:1

[Events]
//Background and Video events
0,0,"Honey.jpg",0,0
//Break Periods
//Storyboard Layer 0 (Background)
//Storyboard Layer 1 (Fail)
//Storyboard Layer 2 (Pass)
//Storyboard Layer 3 (Foreground)
//Storyboard Layer 4 (Overlay)
//Storyboard Sound Samples

[TimingPoints]
1050,375,4,2,1,85,1,0
5737,-100,4,2,2,85,0,0
6675,-100,4,2,1,85,0,0
7050,-100,4,2,1,80,0,0
31050,-100,4,2,1,50,0,0
35550,-100,4,2,1,80,0,0
73050,-100,4,2,1,50,0,0
77550,-100,4,2,1,80,0,0
79237,-100,4,2,2,80,0,0
80175,-100,4,2,1,80,0,0
80550,-100,4,2,1,90,0,1
86081,-100,4,2,1,90,0,0
86550,-100,4,2,1,90,0,1
92081,-100,4,2,1,90,0,0
92550,-100,4,2,1,90,0,1
97800,-100,4,2,1,90,0,0
98550,-100,4,2,1,90,0,1
101175,-100,4,2,1,90,0,0
101550,-100,4,2,1,90,0,1
104081,-100,4,2,1,70,0,0
110550,-100,4,2,1,80,0,0
112237,-100,4,2,2,80,0,0
113175,-100,4,2,1,80,0,0
113550,-100,4,2,1,85,0,0
118237,-100,4,2,2,85,0,0
119175,-100,4,2,1,85,0,0
119550,-100,4,2,1,55,0,0
119925,-100,4,2,1,50,0,0
120300,-100,4,2,1,45,0,0
120675,-100,4,2,1,40,0,0
121050,-100,4,2,1,35,0,0
121425,-100,4,2,1,30,0,0
121800,-100,4,2,1,25,0,0
122175,-100,4,2,1,20,0,0
122550,-100,4,2,1,15,0,0

[Colours]
Combo1 : 255,180,138
Combo2 : 187,205,150
Combo3 : 142,150,238
Combo4 : 243,109,109

[HitObjects]
448,256,1050,6,0,L|329:276,1,120,6|2,3:2|3:2,0:0:0:0:
226,244,1800,2,0,L|137:259,2,90,2|0|2,3:2|3:0|3:2,0:0:0:0:
255,198,2550,2,0,B|268:138|268:138|236:89,1,120,2|2,3:1|3:2,0:0:0:0:
154,19,3300,1,2,3:2:0:0:
58,69,3675,2,0,L|47:128,1,60,4|4,3:2|3:2,0:0:0:0:
36,180,4050,6,0,L|155:160,1,120,2|2,3:2|3:2,0:0:0:0:
237,89,4800,2,0,L|326:77,2,90,2|2|2,3:2|3:2|3:2,0:0:0:0:
226,244,5925,2,0,L|166:254,1,60,2|2,3:2|3:2,0:0:0:0:
113,264,6300,1,2,3:2:0:0:
48,350,6675,1,12,0:0:0:0:
154,368,7050,6,0,L|272:347,1,120,0|0,3:0|0:0,0:0:0:0:
379,365,7800,2,0,L|497:344,1,120,8|0,0:0|3:0,0:0:0:0:
451,246,8550,2,0,B|391:256|391:256|362:204,1,120,2|2,0:1|3:1,0:0:0:0:
371,96,9300,1,10,0:1:0:0:
371,96,9487,2,0,L|252:75,1,120,2|0,3:1|3:0,0:0:0:0:
204,50,10050,6,0,L|224:168,1,120,2|0,3:2|0:0,0:0:0:0:
272,265,10800,1,8,0:0:0:0:
187,332,11175,2,0,L|68:311,1,120,2|0,3:2|0:0,0:0:0:0:
20,305,11737,1,2,3:2:0:0:
20,305,11925,2,0,L|-1:186,1,120,2|10,3:2|0:0,0:0:0:0:
7,133,12487,1,2,3:2:0:0:
106,189,12862,1,0,3:0:0:0:
106,189,13050,6,0,L|224:168,1,120,2|2,3:2|0:0,0:0:0:0:
324,224,13800,1,8,0:0:0:0:
424,280,14175,2,0,L|444:161,1,120,2|0,3:2|0:0,0:0:0:0:
443,112,14737,1,2,3:2:0:0:
443,112,14925,2,0,L|502:122,2,60,2|2|10,3:2|0:0|0:0,0:0:0:0:
347,60,15675,1,10,0:0:0:0:
242,88,16050,6,0,L|257:0,2,90,10|10|2,3:2|0:0|3:2,0:0:0:0:
201,124,16800,2,0,L|116:154,2,90,10|2|2,0:0|0:0|0:0,0:0:0:0:
252,141,17550,2,0,L|343:218,1,120,2|0,0:0|3:0,0:0:0:0:
360,325,18300,2,0,L|349:384,2,60,8|2|2,0:0|3:2|3:2,0:0:0:0:
260,286,19050,6,0,L|141:306,1,120,6|0,3:2|0:0,0:0:0:0:
91,306,19612,1,0,3:0:0:0:
91,306,19800,2,0,L|101:365,2,60,10|2|2,0:0|0:0|3:2,0:0:0:0:
124,202,20550,2,0,L|103:83,1,120,2|0,0:0|3:0,0:0:0:0:
84,38,21112,1,2,0:0:0:0:
84,38,21300,2,0,L|143:48,1,60,10|2,0:0|3:2,0:0:0:0:
195,61,21675,1,2,0:0:0:0:
256,148,22050,6,0,L|374:127,1,120,2|0,3:2|0:0,0:0:0:0:
428,111,22612,1,2,3:2:0:0:
428,111,22800,2,0,L|417:170,2,60,10|2|2,0:0|0:0|3:2,0:0:0:0:
364,21,23550,2,0,L|245:41,1,120,2|0,0:0|3:0,0:0:0:0:
195,61,24112,1,2,0:0:0:0:
195,61,24300,2,0,L|174:117,1,60,10|2,0:0|3:2,0:0:0:0:
167,171,24675,2,0,L|205:216,1,60,2|2,0:0|3:2,0:0:0:0:
249,248,25050,6,0,B|182:259|182:259|156:296|156:296|90:308,1,180,2|0,0:1|0:0,0:0:0:0:
36,305,25800,2,0,L|46:364,2,60,10|2|2,0:0|0:0|3:2,0:0:0:0:
70,202,26550,2,0,L|49:83,1,120,2|0,0:0|3:0,0:0:0:0:
30,38,27112,1,2,0:0:0:0:
30,38,27300,2,0,L|89:48,1,60,10|2,0:0|3:2,0:0:0:0:
141,61,27675,1,2,0:0:0:0:
229,130,28050,6,0,L|250:249,1,120,2|0,3:2|0:0,0:0:0:0:
269,294,28612,1,2,3:2:0:0:
269,294,28800,2,0,L|210:284,2,60,10|2|2,0:0|0:0|3:2,0:0:0:0:
342,373,29550,2,0,L|460:352,1,120,2|0,0:0|3:0,0:0:0:0:
491,309,30112,1,2,0:0:0:0:
491,309,30300,2,0,L|480:249,1,60,10|2,0:0|3:2,0:0:0:0:
448,206,30675,2,0,L|437:146,1,60,2|2,3:2|0:0,0:0:0:0:
405,102,31050,6,0,P|458:77|517:85,2,120,12|8|8,0:0|0:0|0:0,0:0:0:0:
338,188,32175,1,8,0:0:0:0:
270,273,32550,2,0,P|217:298|158:290,2,120,8|8|8,0:0|0:0|0:0,0:0:0:0:
346,196,33675,1,8,0:0:0:0:
346,196,33862,1,8,0:0:0:0:
346,196,34050,6,0,P|375:246|372:305,2,120,8|8|8,3:2|3:2|3:2,0:0:0:0:
235,173,35175,1,8,0:0:0:0:
124,156,35550,2,0,L|64:145,2,60,0|0|0,3:0|0:0|0:0,0:0:0:0:
129,209,36112,1,0,3:0:0:0:
129,209,36300,2,0,L|118:268,1,60,2|0,0:0|0:0,0:0:0:0:
111,321,36675,1,12,0:0:0:0:
203,375,37050,6,0,L|291:359,1,90,2|2,3:2|0:0,0:0:0:0:
405,286,37800,2,0,L|462:354,2,90,10|2|2,0:0|0:0|0:0,0:0:0:0:
355,263,38550,2,0,L|385:178,1,90,2|2,3:2|0:0,0:0:0:0:
423,48,39300,2,0,L|363:58,1,60,10|2,0:0|3:2,0:0:0:0:
312,42,39675,2,0,L|252:52,1,60,2|2,0:0|0:0,0:0:0:0:
199,60,40050,6,0,L|214:148,1,90,2|2,3:2|0:0,0:0:0:0:
253,277,40800,2,0,L|336:307,2,90,10|2|2,0:0|0:0|0:0,0:0:0:0:
210,244,41550,2,0,L|140:301,1,90,2|2,3:2|3:2,0:0:0:0:
19,371,42300,2,0,L|8:311,1,60,6|2,0:1|0:1,0:0:0:0:
0,258,42675,1,2,0:1:0:0:
60,168,43050,6,0,L|98:122,1,60,2|2,3:2|0:0,0:0:0:0:
112,69,43425,2,0,L|91:12,2,60,2|0|10,0:0|3:0|0:0,0:0:0:0:
183,116,44081,2,0,L|271:131,1,90,2|0,0:0|0:0,0:0:0:0:
311,168,44550,2,0,L|341:252,2,90,2|2|2,3:2|0:0|3:2,0:0:0:0:
323,115,45300,1,10,0:0:0:0:
414,57,45675,1,2,0:0:0:0:
440,162,46050,6,0,L|420:218,1,60,2|2,3:2|0:0,0:0:0:0:
425,273,46425,2,0,L|464:319,2,60,2|2|10,0:0|3:2|0:0,0:0:0:0:
342,253,47081,2,0,L|254:269,1,90,2|0,3:1|0:0,0:0:0:0:
204,248,47550,2,0,L|147:179,2,90,2|2|2,3:2|0:0|3:2,0:0:0:0:
211,302,48300,1,10,0:0:0:0:
113,347,48675,2,0,L|53:336,1,60,2|0,0:0|0:0,0:0:0:0:
0,345,49050,6,0,L|-21:227,1,120,2|2,3:2|0:0,0:0:0:0:
43,139,49800,2,0,L|161:118,1,120,10|2,0:0|0:0,0:0:0:0:
245,50,50550,2,0,L|290:11,1,60,2|0,3:1|0:0,0:0:0:0:
391,51,51112,2,0,L|401:110,1,60,2|10,3:1|0:0,0:0:0:0:
317,176,51675,2,0,L|261:156,1,60,2|2,0:1|0:1,0:0:0:0:
209,138,52050,6,0,L|229:256,1,120,2|2,3:2|0:0,0:0:0:0:
321,313,52800,2,0,L|439:292,1,120,10|2,0:0|0:0,0:0:0:0:
504,206,53550,1,6,3:2:0:0:
434,123,53925,2,0,L|299:148,1,120,2|10,0:0|0:0,0:0:0:0:
209,138,54675,2,0,L|150:148,1,60,2|0,3:2|0:0,0:0:0:0:
96,158,55050,6,0,L|105:99,1,60,6|2,3:2|0:0,0:0:0:0:
92,46,55425,2,0,L|45:7,2,60,2|0|10,0:0|3:0|0:0,0:0:0:0:
177,52,56081,2,0,L|260:20,1,90,2|0,0:0|0:0,0:0:0:0:
313,33,56550,2,0,L|359:71,1,60,2|2,3:2|0:0,0:0:0:0:
383,120,56925,2,0,L|439:99,1,60,2|2,0:0|3:2,0:0:0:0:
490,81,57300,1,10,0:0:0:0:
511,186,57675,1,2,0:0:0:0:
410,226,58050,6,0,L|372:272,1,60,2|2,3:2|0:0,0:0:0:0:
358,325,58425,2,0,L|379:382,2,60,2|2|2,0:0|3:2|0:0,0:0:0:0:
287,278,59081,2,0,L|199:263,1,90,6|0,3:2|0:0,0:0:0:0:
159,226,59550,2,0,L|129:142,2,90,2|2|2,3:2|0:0|3:2,0:0:0:0:
147,279,60300,1,10,0:0:0:0:
95,373,60675,2,0,L|35:362,1,60,2|0,0:0|0:0,0:0:0:0:
5,318,61050,6,0,L|25:199,1,120,6|2,3:2|0:0,0:0:0:0:
50,94,61800,2,0,L|39:34,2,60,10|2|2,0:0|0:0|0:0,0:0:0:0:
97,118,62362,1,2,0:0:0:0:
97,118,62550,2,0,L|215:97,1,120,2|2,0:0|0:0,0:0:0:0:
309,150,63300,2,0,L|368:139,1,60,10|2,0:0|0:0,0:0:0:0:
400,96,63675,2,0,L|459:85,1,60,2|2,0:0|0:0,0:0:0:0:
512,96,64050,6,0,L|491:214,1,120,2|2,3:2|0:0,0:0:0:0:
429,302,64800,2,0,L|369:291,1,60,10|2,0:0|0:0,0:0:0:0:
325,313,65175,1,2,0:0:0:0:
325,313,65362,1,2,0:0:0:0:
325,313,65550,2,0,L|236:297,1,90,2|2,0:0|0:0,0:0:0:0:
173,177,66300,2,0,L|261:192,2,90,10|2|2,0:0|3:2|3:2,0:0:0:0:
124,152,67050,6,0,L|103:270,1,120,2|2,3:2|0:0,0:0:0:0:
195,325,67800,2,0,L|184:384,2,60,10|2|2,0:0|0:0|0:0,0:0:0:0:
247,312,68362,1,2,0:0:0:0:
247,312,68550,2,0,L|365:332,1,120,2|2,0:0|3:2,0:0:0:0:
445,259,69300,2,0,L|456:200,1,60,10|2,0:0|0:0,0:0:0:0:
499,168,69675,2,0,L|510:109,1,60,2|2,0:0|0:0,0:0:0:0:
499,56,70050,6,0,L|381:77,1,120,2|2,3:2|0:0,0:0:0:0:
351,181,70800,2,0,L|290:191,1,60,10|2,0:0|0:0,0:0:0:0:
257,226,71175,1,2,0:0:0:0:
257,226,71362,1,2,0:0:0:0:
257,226,71550,2,0,L|167:241,1,90,2|2,0:0|0:0,0:0:0:0:
67,151,72300,2,0,L|154:134,2,90,10|2|2,0:0|3:2|3:2,0:0:0:0:
13,144,73050,5,12,0:0:0:0:
0,251,73425,1,8,0:0:0:0:
71,331,73800,2,0,P|97:295|107:252,2,90,8|8|8,0:0|0:0|0:0,0:0:0:0:
23,356,74550,1,8,0:0:0:0:
0,251,74925,1,8,0:0:0:0:
55,158,75300,1,8,0:0:0:0:
162,159,75675,2,0,P|185:177|201:202,1,60,8|8,0:0|0:0,0:0:0:0:
214,255,76050,5,8,0:0:0:0:
321,256,76425,1,8,0:0:0:0:
376,163,76800,2,0,P|333:148|289:152,2,90,8|8|8,0:0|0:0|0:0,0:0:0:0:
414,200,77550,2,0,B|448:228|448:228|494:220,1,90,2|2,0:0|0:0,0:0:0:0:
510,354,78300,2,0,B|473:325|473:325|401:338,1,120,2|0,0:0|0:0,0:0:0:0:
273,245,79237,6,0,L|214:255,1,60,0|0,3:0|3:0,0:0:0:0:
151,349,79800,1,0,3:0:0:0:
151,349,79987,1,0,3:0:0:0:
151,349,80175,2,0,B|121:351|121:351|94:339,1,60,10|0,0:1|0:0,0:0:0:0:
45,315,80550,6,0,L|65:196,1,120,2|0,3:2|0:0,0:0:0:0:
72,143,81112,2,0,L|12:153,2,60,2|10|2,0:0|0:0|3:2,0:0:0:0:
125,135,81675,1,2,0:0:0:0:
188,222,82050,2,0,L|306:201,1,120,2|2,3:2|0:0,0:0:0:0:
341,160,82612,2,0,L|351:100,1,60,2|10,3:2|0:0,0:0:0:0:
325,53,82987,2,0,L|265:63,2,60,2|2|2,3:2|0:0|0:0,0:0:0:0:
379,56,83550,6,0,L|497:76,1,120,2|0,3:2|0:0,0:0:0:0:
511,183,84300,2,0,L|451:193,1,60,10|2,0:0|3:2,0:0:0:0:
398,203,84675,2,0,L|338:213,1,60,2|2,0:0|0:0,0:0:0:0:
285,223,85050,1,2,3:2:0:0:
330,321,85425,2,0,L|270:331,1,60,2|2,0:0|3:2,0:0:0:0:
217,341,85800,1,6,3:2:0:0:
137,308,86081,1,2,3:2:0:0:
7,346,86550,6,0,L|27:227,1,120,2|0,3:2|0:0,0:0:0:0:
62,187,87112,1,2,0:0:0:0:
62,187,87300,2,0,L|51:127,1,60,10|2,0:0|3:2,0:0:0:0:
41,74,87675,1,2,0:0:0:0:
148,80,88050,2,0,L|168:198,1,120,2|2,3:2|0:0,0:0:0:0:
212,229,88612,2,0,L|271:218,1,60,2|10,3:2|0:0,0:0:0:0:
305,176,88987,1,2,3:2:0:0:
305,176,89175,2,0,L|294:116,1,60,2|2,0:0|0:0,0:0:0:0:
286,63,89550,6,0,L|404:83,1,120,2|0,3:2|0:0,0:0:0:0:
496,140,90300,2,0,L|486:200,1,60,10|2,0:0|3:2,0:0:0:0:
476,253,90675,2,0,L|466:313,1,60,2|2,0:0|0:0,0:0:0:0:
456,366,91050,1,2,3:2:0:0:
357,320,91425,2,0,L|367:260,1,60,2|2,0:0|3:2,0:0:0:0:
377,207,91800,1,2,3:2:0:0:
450,162,92081,1,2,3:2:0:0:
347,73,92550,6,0,L|228:93,1,120,2|10,3:2|0:0,0:0:0:0:
175,103,93112,2,0,L|185:43,2,60,2|2|2,3:2|0:0|3:2,0:0:0:0:
166,156,93675,1,10,0:0:0:0:
70,205,94050,2,0,L|90:323,1,120,2|10,3:2|0:0,0:0:0:0:
130,359,94612,2,0,L|189:369,1,60,2|2,3:2|0:0,0:0:0:0:
240,351,94987,2,0,L|229:291,2,60,2|10|2,3:2|0:0|0:0,0:0:0:0:
292,365,95550,6,0,L|410:344,1,120,2|10,3:2|0:0,0:0:0:0:
444,241,96300,2,0,L|384:231,1,60,2|2,0:0|3:2,0:0:0:0:
331,221,96675,2,0,L|271:211,1,60,10|2,0:0|0:0,0:0:0:0:
218,201,97050,1,2,3:2:0:0:
265,104,97425,2,0,L|325:114,1,60,2|2,0:0|3:2,0:0:0:0:
378,124,97800,1,2,0:0:0:0:
438,213,98175,1,2,0:0:0:0:
331,221,98550,6,0,L|212:201,1,120,2|10,3:2|0:0,0:0:0:0:
166,183,99112,1,2,3:2:0:0:
166,183,99300,2,0,L|176:242,1,60,2|2,0:0|3:2,0:0:0:0:
189,294,99675,1,10,0:0:0:0:
292,322,100050,2,0,L|409:343,1,120,2|10,3:2|0:0,0:0:0:0:
454,312,100612,2,0,L|463:252,1,60,2|2,3:2|0:0,0:0:0:0:
436,207,100987,1,2,0:0:0:0:
436,207,101175,1,2,0:0:0:0:
480,108,101550,6,0,L|361:128,1,120,2|10,3:2|0:0,0:0:0:0:
297,215,102300,2,0,L|237:205,1,60,2|2,0:0|0:0,0:0:0:0:
184,195,102675,2,0,L|124:185,1,60,10|2,3:2|0:0,0:0:0:0:
71,175,103050,1,2,3:2:0:0:
117,77,103425,2,0,L|177:87,1,60,2|2,0:0|0:0,0:0:0:0:
230,97,103800,1,6,3:2:0:0:
275,170,104081,1,2,3:2:0:0:
303,302,104550,6,0,L|292:361,2,60,2|2|0,0:0|0:0|0:0,0:0:0:0:
352,281,105112,1,2,0:0:0:0:
352,281,105300,2,0,L|470:301,1,120,10|0,0:0|0:0,0:0:0:0:
493,196,106050,2,0,L|374:175,1,120,2|2,0:0|0:0,0:0:0:0:
272,208,106800,1,10,0:0:0:0:
272,208,106987,2,0,L|212:197,1,60,2|0,0:0|0:0,0:0:0:0:
113,154,107550,6,0,L|133:272,1,120,2|2,0:0|0:0,0:0:0:0:
27,291,108300,2,0,L|6:172,1,120,10|0,0:0|0:0,0:0:0:0:
10,119,108862,1,2,0:0:0:0:
10,119,109050,2,0,L|0:59,1,60,2|0,0:0|0:0,0:0:0:0:
4,7,109425,1,2,0:0:0:0:
105,43,109800,2,0,L|223:22,1,120,8|2,0:0|0:0,0:0:0:0:
276,14,110362,1,0,3:0:0:0:
105,43,112237,6,0,L|223:22,1,120,0|0,3:0|3:0,0:0:0:0:
276,14,112800,1,0,3:0:0:0:
276,14,112987,1,0,3:0:0:0:
276,14,113175,2,0,B|288:41|288:41|286:70,1,60,14|0,0:1|0:0,0:0:0:0:
277,124,113550,6,0,L|395:103,1,120,2|2,3:2|3:2,0:0:0:0:
497,138,114300,2,0,L|512:49,2,90,2|0|2,3:2|3:0|3:2,0:0:0:0:
467,183,115050,2,0,B|456:243|456:243|489:291,1,120,2|2,3:1|3:2,0:0:0:0:
409,363,115800,1,2,3:2:0:0:
310,319,116175,2,0,L|320:259,1,60,4|4,3:2|3:2,0:0:0:0:
329,206,116550,6,0,L|210:227,1,120,2|2,3:2|3:2,0:0:0:0:
108,189,117300,2,0,L|19:205,2,90,2|2|2,3:2|3:2|3:2,0:0:0:0:
139,144,118050,2,0,L|198:133,1,60,2|2,0:0|3:2,0:0:0:0:
241,100,118425,2,0,L|300:88,1,60,2|2,3:2|3:2,0:0:0:0:
354,90,118800,1,2,3:2:0:0:
401,187,119175,1,14,0:0:0:0:
461,97,119550,5,2,0:0:0:0:
256,192,119925,12,0,122550,0:0:0:0:
