osu file format v14

[General]
AudioFilename: audio.mp3
AudioLeadIn: 0
PreviewTime: 78909
Countdown: 0
SampleSet: Soft
StackLeniency: 0.7
Mode: 0
LetterboxInBreaks: 0
WidescreenStoryboard: 0

[Editor]
Bookmarks: 1050,7050,13050,19050,25050,31050,37050,43050,49050,55050,61050,67050,73050,79050,80550,86081,86550,92081,92550,97800,98550,101175,101550,104081,104550,110550,113550,119550,122550
DistanceSpacing: 0.1
BeatDivisor: 8
GridSize: 32
TimelineZoom: 2.4

[Metadata]
Title:Honey Trap
TitleUnicode:Honey Trap
Artist:Expander
ArtistUnicode:Expander
Creator:Shyotamaze
Version:Black Another
Source:beatmania IIDX 24 SINOBUZ
Tags:Sota Fujimori -Nanako- Frey VoiceCore BOUYAAA hyper trap japanese instrumental electronic video game 藤森 崇多 dj MAX STEROID BEMANI Sound Team "Expander" IIDX 25 CANNON BALLERS
BeatmapID:2894718
BeatmapSetID:1403412

[Difficulty]
HPDrainRate:6
CircleSize:4.5
OverallDifficulty:8
ApproachRate:9.3
SliderMultiplier:1.7
SliderTickRate:1

[Events]
//Background and Video events
0,0,"Honey.jpg",0,0
//Break Periods
//Storyboard Layer 0 (Background)
//Storyboard Layer 1 (Fail)
//Storyboard Layer 2 (Pass)
//Storyboard Layer 3 (Foreground)
//Storyboard Layer 4 (Overlay)
//Storyboard Sound Samples

[TimingPoints]
1050,375,4,2,1,85,1,0
1050,-57.1428571428571,4,2,1,85,0,0
1331,-80,4,2,1,85,0,0
2550,-57.1428571428571,4,2,1,85,0,0
2643,-80,4,2,1,85,0,0
3300,-66.6666666666667,4,2,1,85,0,0
3487,-80,4,2,1,85,0,0
4050,-66.6666666666667,4,2,1,85,0,0
4331,-80,4,2,1,85,0,0
5362,-66.6666666666667,4,2,1,85,0,0
5550,-80,4,2,1,85,0,0
5737,-80,4,2,2,85,0,0
5925,-66.6666666666667,4,2,2,85,0,0
6393,-80,4,2,2,85,0,0
6675,-80,4,2,1,85,0,0
7050,-71.4285714285714,4,2,1,80,0,0
7331,-100,4,2,1,80,0,0
8550,-50,4,2,1,80,0,0
8643,-100,4,2,1,80,0,0
8925,-66.6666666666667,4,2,1,80,0,0
9581,-100,4,2,1,80,0,0
9675,-50,4,2,1,80,0,0
9768,-100,4,2,1,80,0,0
10050,-57.1428571428571,4,2,1,80,0,0
10987,-100,4,2,1,80,0,0
11175,-50,4,2,1,80,0,0
11362,-100,4,2,1,80,0,0
11925,-57.1428571428571,4,2,1,80,0,0
12581,-100,4,2,1,80,0,0
12675,-200,4,2,1,80,0,0
12768,-100,4,2,1,80,0,0
13050,-66.6666666666667,4,2,1,80,0,0
13518,-100,4,2,1,80,0,0
14737,-57.1428571428571,4,2,1,80,0,0
15393,-100,4,2,1,80,0,0
15675,-50,4,2,1,80,0,0
15768,-100,4,2,1,80,0,0
16050,-66.6666666666667,4,2,1,80,0,0
16987,-100,4,2,1,80,0,0
17175,-80,4,2,1,80,0,0
17456,-100,4,2,1,80,0,0
17550,-90.9090909090909,4,2,1,80,0,0
17643,-100,4,2,1,80,0,0
17925,-80,4,2,1,80,0,0
18206,-100,4,2,1,80,0,0
18487,-80,4,2,1,80,0,0
18581,-100,4,2,1,80,0,0
18675,-200,4,2,1,80,0,0
18862,-100,4,2,1,80,0,0
19050,-57.1428571428571,4,2,1,80,0,0
19425,-100,4,2,1,80,0,0
19800,-80,4,2,1,80,0,0
20268,-100,4,2,1,80,0,0
20550,-80,4,2,1,80,0,0
20643,-100,4,2,1,80,0,0
21112,-80,4,2,1,80,0,0
21800,-100,4,2,1,80,0,0
22050,-80,4,2,1,80,0,0
22237,-100,4,2,1,80,0,0
22331,-66.6666666666667,4,2,1,80,0,0
22425,-100,4,2,1,80,0,0
22612,-80,4,2,1,80,0,0
23268,-100,4,2,1,80,0,0
23550,-80,4,2,1,80,0,0
23643,-100,4,2,1,80,0,0
24112,-80,4,2,1,80,0,0
24581,-100,4,2,1,80,0,0
24675,-200,4,2,1,80,0,0
24956,-100,4,2,1,80,0,0
25050,-57.1428571428571,4,2,1,80,0,0
25706,-100,4,2,1,80,0,0
25800,-50,4,2,1,80,0,0
25893,-100,4,2,1,80,0,0
25987,-80,4,2,1,80,0,0
26268,-100,4,2,1,80,0,0
26550,-80,4,2,1,80,0,0
26643,-100,4,2,1,80,0,0
27112,-80,4,2,1,80,0,0
27800,-100,4,2,1,80,0,0
28050,-80,4,2,1,80,0,0
28237,-100,4,2,1,80,0,0
28612,-80,4,2,1,80,0,0
29268,-100,4,2,1,80,0,0
29550,-80,4,2,1,80,0,0
29643,-100,4,2,1,80,0,0
30112,-80,4,2,1,80,0,0
30581,-100,4,2,1,80,0,0
31050,-90.9090909090909,4,2,1,50,0,0
35550,-80,4,2,1,80,0,0
35831,-66.6666666666667,4,2,1,80,0,0
36112,-57.1428571428571,4,2,1,80,0,0
36300,-200,4,2,1,80,0,0
36581,-90.9090909090909,4,2,1,80,0,0
36675,-57.1428571428571,4,2,1,80,0,0
36956,-90.9090909090909,4,2,1,80,0,0
37050,-66.6666666666667,4,2,1,80,0,0
37237,-80,4,2,1,80,0,0
38550,-66.6666666666667,4,2,1,80,0,0
38737,-80,4,2,1,80,0,0
39300,-57.1428571428571,4,2,1,80,0,0
39987,-80,4,2,1,80,0,0
40050,-66.6666666666667,4,2,1,80,0,0
40237,-80,4,2,1,80,0,0
41550,-66.6666666666667,4,2,1,80,0,0
41737,-80,4,2,1,80,0,0
42300,-66.6666666666667,4,2,1,80,0,0
42581,-80,4,2,1,80,0,0
42675,-40,4,2,1,80,0,0
42862,-80,4,2,1,80,0,0
43050,-66.6666666666667,4,2,1,80,0,0
43518,-80,4,2,1,80,0,0
44081,-57.1428571428571,4,2,1,80,0,0
44268,-80,4,2,1,80,0,0
44550,-66.6666666666667,4,2,1,80,0,0
44737,-80,4,2,1,80,0,0
45300,-57.1428571428571,4,2,1,80,0,0
45675,-50,4,2,1,80,0,0
46050,-66.6666666666667,4,2,1,80,0,0
46518,-80,4,2,1,80,0,0
46800,-200,4,2,1,80,0,0
46987,-80,4,2,1,80,0,0
47081,-40,4,2,1,80,0,0
47456,-80,4,2,1,80,0,0
47550,-66.6666666666667,4,2,1,80,0,0
47737,-80,4,2,1,80,0,0
48300,-133.333333333333,4,2,1,80,0,0
48581,-80,4,2,1,80,0,0
49050,-66.6666666666667,4,2,1,80,0,0
49237,-80,4,2,1,80,0,0
50550,-50,4,2,1,80,0,0
50690,-80,4,2,1,80,0,0
51112,-50,4,2,1,80,0,0
51253,-80,4,2,1,80,0,0
51675,-40,4,2,1,80,0,0
51987,-80,4,2,1,80,0,0
52050,-66.6666666666667,4,2,1,80,0,0
52237,-80,4,2,1,80,0,0
53800,-66.6666666666667,4,2,1,80,0,0
54300,-80,4,2,1,80,0,0
54675,-66.6666666666667,4,2,1,80,0,0
54925,-80,4,2,1,80,0,0
55050,-66.6666666666667,4,2,1,80,0,0
55518,-80,4,2,1,80,0,0
56081,-57.1428571428571,4,2,1,80,0,0
56268,-80,4,2,1,80,0,0
56550,-66.6666666666667,4,2,1,80,0,0
57300,-57.1428571428571,4,2,1,80,0,0
57675,-50,4,2,1,80,0,0
58050,-66.6666666666667,4,2,1,80,0,0
58518,-80,4,2,1,80,0,0
59081,-200,4,2,1,80,0,0
59550,-66.6666666666667,4,2,1,80,0,0
59737,-80,4,2,1,80,0,0
60300,-133.333333333333,4,2,1,80,0,0
60581,-80,4,2,1,80,0,0
61050,-80,4,2,1,80,0,0
61237,-100,4,2,1,80,0,0
62550,-80,4,2,1,80,0,0
62737,-100,4,2,1,80,0,0
64050,-80,4,2,1,80,0,0
64237,-100,4,2,1,80,0,0
65550,-80,4,2,1,80,0,0
65737,-100,4,2,1,80,0,0
65831,-66.6666666666667,4,2,1,80,0,0
66018,-100,4,2,1,80,0,0
66300,-80,4,2,1,80,0,0
66768,-100,4,2,1,80,0,0
67050,-80,4,2,1,80,0,0
67237,-100,4,2,1,80,0,0
68550,-80,4,2,1,80,0,0
68737,-100,4,2,1,80,0,0
70050,-80,4,2,1,80,0,0
70237,-100,4,2,1,80,0,0
71550,-80,4,2,1,80,0,0
71737,-100,4,2,1,80,0,0
71831,-66.6666666666667,4,2,1,80,0,0
72018,-100,4,2,1,80,0,0
72300,-80,4,2,1,80,0,0
72768,-100,4,2,1,80,0,0
73050,-90.9090909090909,4,2,1,50,0,0
77550,-80,4,2,1,80,0,0
77737,-90.9090909090909,4,2,1,80,0,0
77831,-100,4,2,1,80,0,0
77925,-90.9090909090909,4,2,1,80,0,0
78018,-133.333333333333,4,2,1,80,0,0
78206,-90.9090909090909,4,2,1,80,0,0
78300,-100,4,2,1,80,0,0
78581,-90.9090909090909,4,2,1,80,0,0
78675,-400,4,2,1,80,0,0
79050,-90.9090909090909,4,2,1,80,0,0
79237,-133.333333333333,4,2,2,80,0,0
79706,-90.9090909090909,4,2,2,80,0,0
79800,-100,4,2,2,80,0,0
80175,-50,4,2,1,80,0,0
80456,-90.9090909090909,4,2,1,80,0,0
80550,-57.1428571428571,4,2,1,90,0,1
80737,-66.6666666666667,4,2,1,90,0,1
81675,-50,4,2,1,90,0,1
81862,-66.6666666666667,4,2,1,90,0,1
82612,-57.1428571428571,4,2,1,90,0,1
83456,-66.6666666666667,4,2,1,90,0,1
83550,-57.1428571428571,4,2,1,90,0,1
83737,-66.6666666666667,4,2,1,90,0,1
84300,-57.1428571428571,4,2,1,90,0,1
84675,-50,4,2,1,90,0,1
85050,-66.6666666666667,4,2,1,90,0,1
85425,-57.1428571428571,4,2,1,90,0,1
85706,-66.6666666666667,4,2,1,90,0,1
85800,-50,4,2,1,90,0,1
85987,-66.6666666666667,4,2,1,90,0,1
86081,-100,4,2,1,90,0,0
86550,-57.1428571428571,4,2,1,90,0,1
86737,-66.6666666666667,4,2,1,90,0,1
87675,-50,4,2,1,90,0,1
87862,-66.6666666666667,4,2,1,90,0,1
88612,-57.1428571428571,4,2,1,90,0,1
89456,-66.6666666666667,4,2,1,90,0,1
89550,-57.1428571428571,4,2,1,90,0,1
89737,-66.6666666666667,4,2,1,90,0,1
90300,-57.1428571428571,4,2,1,90,0,1
90675,-50,4,2,1,90,0,1
91050,-66.6666666666667,4,2,1,90,0,1
91800,-50,4,2,1,90,0,1
91987,-66.6666666666667,4,2,1,90,0,1
92081,-100,4,2,1,90,0,0
92550,-57.1428571428571,4,2,1,90,0,1
92737,-66.6666666666667,4,2,1,90,0,1
93675,-50,4,2,1,90,0,1
93862,-66.6666666666667,4,2,1,90,0,1
94612,-57.1428571428571,4,2,1,90,0,1
95456,-66.6666666666667,4,2,1,90,0,1
95550,-57.1428571428571,4,2,1,90,0,1
95737,-66.6666666666667,4,2,1,90,0,1
96300,-57.1428571428571,4,2,1,90,0,1
96675,-50,4,2,1,90,0,1
97050,-66.6666666666667,4,2,1,90,0,1
97425,-57.1428571428571,4,2,1,90,0,1
97706,-66.6666666666667,4,2,1,90,0,1
97800,-100,4,2,1,90,0,0
98550,-57.1428571428571,4,2,1,90,0,1
98737,-66.6666666666667,4,2,1,90,0,1
99675,-50,4,2,1,90,0,1
99862,-66.6666666666667,4,2,1,90,0,1
100612,-57.1428571428571,4,2,1,90,0,1
101081,-66.6666666666667,4,2,1,90,0,1
101175,-100,4,2,1,90,0,0
101550,-57.1428571428571,4,2,1,90,0,1
101737,-66.6666666666667,4,2,1,90,0,1
102300,-57.1428571428571,4,2,1,90,0,1
102675,-50,4,2,1,90,0,1
103050,-66.6666666666667,4,2,1,90,0,1
103800,-50,4,2,1,90,0,1
103987,-66.6666666666667,4,2,1,90,0,1
104081,-100,4,2,1,70,0,0
104831,-133.333333333333,4,2,1,70,0,0
105018,-100,4,2,1,70,0,0
105112,-80,4,2,1,70,0,0
105675,-100,4,2,1,70,0,0
105768,-133.333333333333,4,2,1,70,0,0
106050,-100,4,2,1,70,0,0
106425,-133.333333333333,4,2,1,70,0,0
106518,-100,4,2,1,70,0,0
106800,-80,4,2,1,70,0,0
107175,-100,4,2,1,70,0,0
107737,-80,4,2,1,70,0,0
107831,-100,4,2,1,70,0,0
108018,-133.333333333333,4,2,1,70,0,0
108112,-100,4,2,1,70,0,0
108393,-133.333333333333,4,2,1,70,0,0
108675,-100,4,2,1,70,0,0
109143,-80,4,2,1,70,0,0
109331,-100,4,2,1,70,0,0
109612,-133.333333333333,4,2,1,70,0,0
109987,-100,4,2,1,70,0,0
110456,-133.333333333333,4,2,1,70,0,0
110550,-100,4,2,1,80,0,0
112237,-100,4,2,2,80,0,0
113175,-40,4,2,1,80,0,0
113456,-100,4,2,1,80,0,0
113550,-57.1428571428571,4,2,1,85,0,0
113831,-80,4,2,1,85,0,0
115050,-57.1428571428571,4,2,1,85,0,0
115143,-80,4,2,1,85,0,0
115800,-66.6666666666667,4,2,1,85,0,0
115987,-80,4,2,1,85,0,0
116550,-66.6666666666667,4,2,1,85,0,0
116831,-80,4,2,1,85,0,0
117862,-66.6666666666667,4,2,1,85,0,0
117956,-80,4,2,1,85,0,0
118237,-80,4,2,2,85,0,0
118425,-66.6666666666667,4,2,2,85,0,0
118987,-80,4,2,1,85,0,0
119550,-133.333333333333,4,2,1,55,0,0
119925,-133.333333333333,4,2,1,50,0,0
120300,-133.333333333333,4,2,1,45,0,0
120675,-133.333333333333,4,2,1,40,0,0
121050,-133.333333333333,4,2,1,35,0,0
121425,-133.333333333333,4,2,1,30,0,0
121800,-133.333333333333,4,2,1,25,0,0
122175,-133.333333333333,4,2,1,20,0,0
122550,-133.333333333333,4,2,1,15,0,0

[Colours]
Combo1 : 255,180,138
Combo2 : 187,205,150
Combo3 : 142,150,238
Combo4 : 243,109,109

[HitObjects]
352,64,1050,6,0,B|407:78|407:78|426:184|426:184|377:217,1,223.125002127886,6|0,3:2|0:0,0:0:0:0:
163,167,1425,5,2,3:2:0:0:
161,157,1519,1,2,0:0:0:0:
159,147,1613,1,2,0:0:0:0:
157,137,1706,1,2,0:0:0:0:
155,127,1800,2,0,L|208:118,1,53.125,2|0,3:2|0:0,0:0:0:0:
335,146,1987,2,0,L|282:155,2,53.125,2|0|0,0:0|3:0|0:0,0:0:0:0:
268,19,2362,2,0,L|277:72,1,53.125,2|0,3:2|0:0,0:0:0:0:
396,205,2550,6,2,B|426:184|426:184|419:146,1,74.3750007092953,2|0,3:1|0:0,0:1:0:0:
308,11,2737,5,2,0:0:0:0:
298,13,2831,1,2,0:0:0:0:
288,15,2925,1,2,3:2:0:0:
278,17,3018,1,2,0:0:0:0:
268,19,3112,2,0,L|277:72,1,53.125,2|0,0:0|0:0,0:0:0:0:
213,201,3300,2,0,B|136:214|136:214|95:186,1,127.500004863739,2|0,3:2|0:0,0:0:0:0:
165,293,3581,1,0,0:0:0:0:
165,293,3675,2,0,L|218:284,1,53.125,4|0,3:2|0:0,0:0:0:0:
208,118,3862,2,0,L|155:127,1,53.125,4|0,3:2|0:0,0:0:0:0:
34,245,4050,6,0,B|2:219|2:219|-16:142|-16:142|3:120|3:120|13:161,1,191.250007295609,2|0,3:2|0:0,0:0:0:0:
125,301,4425,5,2,3:2:0:0:
135,299,4519,1,2,0:0:0:0:
145,297,4613,1,2,0:0:0:0:
155,295,4706,1,2,0:0:0:0:
165,293,4800,2,0,L|218:284,1,53.125,2|0,3:2|0:0,0:0:0:0:
340,229,4987,1,2,0:0:0:0:
340,229,5081,2,0,L|287:238,1,53.125,2|0,3:2|0:0,0:0:0:0:
104,220,5362,6,0,B|153:179|153:179|213:201,1,127.500004863739,2|0,3:2|0:0,0:0:0:0:
415,266,5737,6,0,L|410:291,1,26.5625,0|0,3:0|3:0,0:0:0:0:
425,267,5831,2,0,L|420:292,1,26.5625,0|0,3:0|3:0,0:0:0:0:
435,269,5925,2,0,L|446:206,1,63.7500024318696,2|0,3:2|3:0,0:0:0:0:
382,164,6112,2,0,L|418:111,1,63.7500024318696,2|0,3:2|3:0,0:0:0:0:
379,46,6300,2,0,L|434:13,1,63.7500024318696,2|0,3:2|0:0,0:0:0:0:
509,0,6487,1,0,3:0:0:0:
330,106,6675,2,0,B|215:85|215:85|257:75,1,159.375,12|0,0:0|0:0,0:0:0:0:
108,159,7050,6,0,P|121:74|57:15,1,178.499994552612,0|0,3:0|0:0,0:0:0:0:
37,104,7425,1,0,0:0:0:0:
37,104,7612,1,0,3:0:0:0:
181,214,7800,2,0,L|264:199,1,85,8|0,0:0|0:0,0:0:0:0:
379,46,8175,2,0,L|374:18,4,28.3333333333333,0|0|0|0|0,3:0|0:0|0:0|0:0|0:0,0:0:0:0:
372,62,8550,6,2,P|396:96|433:116,1,85,2|0,0:1|0:0,0:1:0:0:
455,28,8737,1,0,3:0:0:0:
411,204,8925,6,0,L|442:209,1,31.8750012159348,2|0,3:1|0:0,0:0:0:0:
408,222,9018,2,0,L|439:227,1,31.8750012159348,2|0,0:1|0:0,0:0:0:0:
405,240,9112,2,0,L|436:245,1,31.8750012159348,2|0,0:1|0:0,0:0:0:0:
402,258,9206,2,0,L|433:263,1,31.8750012159348,2|0,0:1|0:0,0:0:0:0:
399,276,9300,2,2,L|336:264,1,63.7500024318696,10|0,0:1|0:0,0:1:0:0:
202,188,9487,2,2,L|265:199,1,63.7500024318696,2|0,3:1|0:0,0:1:0:0:
298,355,9675,6,2,P|263:330|243:294,1,85,2|0,0:1|0:0,0:1:0:0:
336,264,9862,1,0,3:0:0:0:
147,321,10050,6,0,P|136:286|138:249,1,74.3750007092953,2|0,3:2|0:0,0:0:0:0:
54,351,10237,2,0,P|43:315|20:286,1,74.3750007092953
95,174,10425,2,0,P|93:136|104:101,1,74.3750007092953
20,198,10612,2,0,P|1:167|-27:145,1,74.3750007092953,0|0,3:0|0:0,0:0:0:0:
8,25,10800,2,0,B|62:5|115:22|115:22|95:19|74:27,1,148.750001418591,8|0,0:0|0:0,0:0:0:0:
372,62,11175,6,0,B|319:80|270:54|270:54|283:86|273:119,1,170,2|0,3:2|0:0,0:0:0:0:
236,249,11425,5,0,0:0:0:0:
238,262,11487,5,0,0:0:0:0:
240,275,11550,6,0,L|219:278,1,21.25
243,294,11643,2,0,L|222:297,1,21.25
247,313,11737,2,0,L|288:305,1,42.5,2|0,3:2|0:0,0:0:0:0:
512,275,11925,6,0,P|475:276|440:265,1,74.3750007092953,2|0,3:2|0:0,0:0:0:0:
286,192,12112,2,0,P|322:190|358:202,1,74.3750007092953,2|0,0:0|0:0,0:0:0:0:
440,121,12300,2,0,P|441:157|430:193,1,74.3750007092953,10|0,0:0|0:0,0:0:0:0:
358,346,12487,2,0,P|356:309|368:273,1,74.3750007092953,2|0,3:2|0:0,0:0:0:0:
399,234,12675,6,0,L|402:255,1,21.25,2|0,0:0|0:0,0:0:0:0:
439,346,12862,1,0,3:0:0:0:
173,138,13050,6,0,P|146:154|127:180,1,63.7500024318696,2|0,3:2|0:0,0:0:0:0:
147,321,13237,2,0,P|145:289|133:260,1,63.7500024318696,2|0,0:0|0:0,0:0:0:0:
1,206,13425,2,0,P|28:220|60:224,1,63.7500024318696,2|0,0:0|0:0,0:0:0:0:
107,222,13612,1,0,3:0:0:0:
286,192,13800,2,0,L|300:108,1,85,8|0,0:0|0:0,0:0:0:0:
115,22,14175,2,0,L|118:1,1,21.25,2|0,3:2|0:0,0:0:0:0:
96,22,14268,2,0,L|94:0,1,21.25,2|0,0:0|0:0,0:0:0:0:
77,26,14362,2,0,L|70:5,1,21.25,2|0,0:0|0:0,0:0:0:0:
60,35,14456,2,0,L|49:16,1,21.25,2|0,0:0|0:0,0:0:0:0:
45,48,14550,5,0,0:0:0:0:
47,320,14737,2,0,P|50:283|67:250,1,74.3750007092953,2|0,3:2|0:0,0:0:0:0:
163,156,14925,2,0,P|159:192|143:226,1,74.3750007092953,2|0,3:2|0:0,0:0:0:0:
106,374,15112,2,0,P|122:340|126:304,1,74.3750007092953,2|0,0:0|0:0,0:0:0:0:
103,101,15300,2,0,P|87:133|83:170,1,74.3750007092953,10|0,0:0|0:0,0:0:0:0:
143,226,15487,1,2,3:2:0:0:
372,156,15675,6,0,P|394:191|399:233,1,85,10|0,0:0|0:0,0:0:0:0:
342,292,15862,1,0,3:0:0:0:
255,45,16050,6,0,B|230:90|243:141|243:141|253:130|253:114,1,127.500004863739,10|0,3:2|0:0,0:0:0:0:
248,316,16331,2,0,B|273:271|260:220|260:220|250:231|250:247,1,127.500004863739,10|0,0:0|0:0,0:0:0:0:
311,367,16612,6,0,P|342:372|372:366,1,63.7500024318696,2|0,3:2|0:0,0:0:0:0:
477,206,16800,2,0,P|434:161|372:156,1,127.500004863739,10|0,0:0|0:0,0:0:0:0:
253,249,17081,1,2,0:0:0:0:
253,249,17175,2,0,P|227:251|201:246,1,53.125,0|0,3:0|0:0,0:0:0:0:
83,171,17362,2,0,P|109:168|135:173,1,53.125,2|0,0:0|0:0,0:0:0:0:
233,107,17550,6,0,L|225:154,1,46.7500014266968,2|0,0:0|0:0,0:0:0:0:
96,313,17737,1,0,3:0:0:0:
96,313,17831,1,2,0:0:0:0:
96,313,17925,2,0,L|106:261,1,53.125,0|0,3:0|0:0,0:0:0:0:
7,288,18112,2,0,L|17:236,1,53.125,2|2,0:0|0:0,0:0:0:0:
178,356,18300,2,0,L|174:376,2,21.25,8|0|0,0:0|0:0|0:0,0:0:0:0:
185,338,18487,2,0,L|237:347,1,53.125,2|0,3:2|0:0,0:0:0:0:
367,324,18675,6,0,L|374:366,1,42.5,2|0,3:2|0:0,0:0:0:0:
322,87,19050,6,0,B|377:96|377:96|404:125|404:125|455:134,2,148.750001418591,6|0|0,3:2|0:0|0:0,0:0:0:0:
225,153,19612,1,0,3:0:0:0:
315,334,19800,2,0,L|367:324,1,53.125,10|0,0:0|0:0,0:0:0:0:
460,284,19987,2,0,L|512:274,1,53.125,2|0,0:0|0:0,0:0:0:0:
326,233,20175,2,0,L|379:224,1,53.125,2|0,3:2|0:0,0:0:0:0:
476,130,20362,2,0,L|497:126,2,21.25
457,134,20550,6,0,L|447:81,1,53.125,2|0,0:0|0:0,0:0:0:0:
509,0,20737,1,0,3:0:0:0:
509,0,20925,1,0,3:0:0:0:
334,133,21112,2,0,L|281:142,1,53.125,2|0,0:0|0:0,0:0:0:0:
180,136,21299,2,0,L|127:145,1,53.125,10|0,0:0|0:0,0:0:0:0:
289,42,21487,2,0,L|236:51,1,53.125,2|0,3:2|0:0,0:0:0:0:
135,45,21675,2,0,L|100:51,2,35.4166666666667,2|0|0,0:0|0:0|0:0,0:0:0:0:
5,127,21862,2,0,L|33:123,2,28.3333333333333,0|0|0,3:0|0:0|0:0,0:0:0:0:
60,217,22050,6,0,L|78:321,1,106.25,2|0,3:2|0:0,0:0:0:0:
82,340,22331,2,0,L|19:328,1,63.7500024318696
141,177,22612,2,0,L|194:187,1,53.125,2|0,3:2|0:0,0:0:0:0:
286,226,22799,2,0,L|338:235,1,53.125,10|0,0:0|0:0,0:0:0:0:
153,277,22987,2,0,L|205:286,1,53.125,2|0,0:0|0:0,0:0:0:0:
299,327,23175,2,0,L|351:336,1,53.125,2|0,3:2|0:0,0:0:0:0:
459,242,23362,2,0,L|479:245,2,21.25
439,239,23550,6,0,L|448:185,1,53.125,2|0,0:0|0:0,0:0:0:0:
510,105,23737,1,0,3:0:0:0:
510,105,23925,1,0,3:0:0:0:
331,15,24112,2,0,L|278:5,1,53.125,2|0,0:0|0:0,0:0:0:0:
178,11,24299,2,0,L|126:1,1,53.125,10|0,0:0|0:0,0:0:0:0:
285,104,24487,2,0,L|232:94,1,53.125,2|0,3:2|0:0,0:0:0:0:
134,101,24675,6,0,L|113:97,1,21.25,2|0,0:0|0:0,0:0:0:0:
16,34,24862,2,0,L|37:38,1,21.25,2|0,3:2|0:0,0:0:0:0:
75,67,25050,6,2,B|46:231|46:231|162:291|162:291|278:231|278:231|195:188,1,520.625004965067,2|0,0:1|0:0,0:1:0:0:
198,361,25800,6,0,B|161:380|161:380|123:360,1,85,10|0,0:0|0:0,0:0:0:0:
143,197,25987,6,0,L|196:188,1,53.125,2|0,0:0|0:0,0:0:0:0:
52,268,26175,2,0,L|0:278,1,53.125,2|0,3:2|0:0,0:0:0:0:
56,151,26362,2,0,L|76:147,2,21.25
37,155,26550,6,0,L|27:101,1,53.125,2|0,0:0|0:0,0:0:0:0:
0,8,26737,1,0,3:0:0:0:
0,8,26925,1,0,3:0:0:0:
287,118,27112,2,0,L|340:108,1,53.125,2|0,0:0|0:0,0:0:0:0:
196,188,27300,2,0,L|143:197,1,53.125,10|0,0:0|0:0,0:0:0:0:
206,107,27487,2,0,L|196:54,1,53.125,2|0,3:2|0:0,0:0:0:0:
276,198,27675,2,0,L|282:232,2,35.4166666666667,2|0|0,0:0|0:0|0:0,0:0:0:0:
205,312,27862,2,0,L|200:284,2,28.3333333333333,0|0|0,3:0|0:0|0:0,0:0:0:0:
311,339,28050,6,0,L|415:320,1,106.25,2|0,3:2|0:0,0:0:0:0:
411,345,28331,1,8,0:0:0:0:
407,370,28425,1,0,0:0:0:0:
339,108,28612,2,0,L|286:98,1,53.125,2|0,3:2|0:0,0:0:0:0:
431,178,28800,2,0,L|484:187,1,53.125,10|0,0:0|0:0,0:0:0:0:
419,98,28987,2,0,L|428:45,1,53.125,2|0,0:0|0:0,0:0:0:0:
349,189,29175,2,0,L|339:242,1,53.125,2|0,3:2|0:0,0:0:0:0:
202,332,29362,2,0,L|198:352,2,21.25
205,312,29550,6,0,L|152:302,1,53.125,2|0,0:0|0:0,0:0:0:0:
56,336,29737,1,0,3:0:0:0:
56,336,29925,1,0,3:0:0:0:
156,108,30112,2,0,L|209:117,1,53.125,2|0,0:0|0:0,0:0:0:0:
64,38,30300,2,0,L|11:28,1,53.125,10|0,0:0|0:0,0:0:0:0:
74,119,30487,2,0,L|64:172,1,53.125,2|0,3:2|0:0,0:0:0:0:
144,28,30675,1,2,3:2:0:0:
181,34,30768,1,0,0:0:0:0:
218,41,30862,1,2,0:0:0:0:
255,48,30956,1,0,0:0:0:0:
292,122,31050,6,0,P|276:166|240:195,1,93.5000028533936,12|0,0:0|0:0,0:0:0:0:
64,171,31425,2,0,P|109:163|152:180,1,93.5000028533936,8|0,0:0|0:0,0:0:0:0:
220,343,31800,2,0,P|190:308|183:263,1,93.5000028533936,8|0,0:0|0:0,0:0:0:0:
292,122,32081,1,0,0:0:0:0:
292,122,32175,2,0,P|276:166|240:195,1,93.5000028533936,8|0,0:0|0:0,0:0:0:0:
172,36,32456,1,0,0:0:0:0:
172,36,32550,6,0,P|178:81|209:117,1,93.5000028533936,8|0,0:0|0:0,0:0:0:0:
344,57,32831,1,0,0:0:0:0:
344,57,32925,2,0,P|301:40|256:48,1,93.5000028533936,8|0,0:0|0:0,0:0:0:0:
240,194,33206,1,0,0:0:0:0:
240,194,33300,2,0,P|276:165|292:122,1,93.5000028533936,8|0,0:0|0:0,0:0:0:0:
172,36,33581,1,0,0:0:0:0:
172,36,33675,2,0,P|172:59|178:81,1,46.7500014266968,8|0,0:0|0:0,0:0:0:0:
344,57,33862,2,0,P|323:45|300:40,1,46.7500014266968,8|0,0:0|0:0,0:0:0:0:
63,171,34050,6,8,P|109:163|152:180,1,93.5000028533936,8|0,3:2|0:0,0:0:0:0:
89,17,34425,2,0,P|72:60|36:91,1,93.5000028533936,8|0,3:2|0:0,0:0:0:0:
208,116,34800,2,0,P|177:80|172:35,1,93.5000028533936,8|0,3:2|0:0,0:0:0:0:
63,171,35081,1,0,3:2:0:0:
63,171,35175,2,0,P|85:164|108:163,1,46.7500014266968,8|0,0:0|0:0,0:0:0:0:
89,17,35362,2,0,P|83:40|71:61,1,46.7500014266968,0|0,3:2|0:0,0:0:0:0:
240,194,35550,5,0,3:0:0:0:
256,197,35643,1,0,0:0:0:0:
272,200,35737,1,0,0:0:0:0:
327,254,35831,5,0,3:0:0:0:
352,250,35925,1,0,0:0:0:0:
377,245,36018,1,0,0:0:0:0:
431,190,36112,5,0,3:0:0:0:
467,196,36206,1,0,0:0:0:0:
503,202,36300,6,2,B|514:185|511:162|511:162|503:169|500:181,1,63.75,2|0,0:0|0:0,0:0:0:0:
512,346,36675,6,0,B|456:336|456:336|421:354|421:354|334:339|334:339|368:320,1,223.125002127886,12|0,0:0|0:0,0:0:0:0:
222,245,37050,6,0,B|308:260|308:260|272:278,1,127.500004863739,2|0,3:2|0:0,0:0:0:0:
196,335,37331,1,2,0:0:0:0:
196,335,37425,2,0,L|143:325,1,53.125,2|0,0:0|0:0,0:0:0:0:
95,168,37612,1,2,3:2:0:0:
95,168,37706,1,2,0:0:0:0:
95,168,37800,2,0,L|114:218,1,53.125,10|0,0:0|0:0,0:0:0:0:
1,338,37987,1,0,3:0:0:0:
1,338,38081,2,0,L|36:298,2,53.125,2|0|0,0:0|0:0|3:0,0:0:0:0:
222,245,38362,2,0,L|274:254,1,53.125,2|0,0:0|0:0,0:0:0:0:
454,202,38550,6,0,B|438:116|438:116|420:152,1,127.500004863739,2|0,3:2|0:0,0:0:0:0:
364,228,38831,1,2,0:0:0:0:
364,228,38925,2,0,L|373:280,1,53.125,2|0,0:0|0:0,0:0:0:0:
471,306,39112,2,0,L|523:297,1,53.125,2|0,3:2|0:0,0:0:0:0:
287,327,39300,6,0,L|274:253,1,74.3750007092953,10|0,0:0|0:0,0:0:0:0:
283,89,39487,2,0,L|296:163,1,74.3750007092953,2|0,3:2|0:0,0:0:0:0:
158,199,39675,2,0,L|207:191,2,49.5833338061969,2|0|0,0:0|0:0|0:0,0:0:0:0:
413,219,39862,2,0,L|365:228,2,49.5833338061969,2|0|0,0:0|0:0|0:0,0:0:0:0:
184,280,40050,6,0,B|97:294|97:294|131:312,1,127.500004863739,2|0,3:2|0:0,0:0:0:0:
207,369,40331,1,2,0:0:0:0:
207,369,40425,2,0,L|259:360,1,53.125,2|0,0:0|0:0,0:0:0:0:
310,205,40612,1,2,3:2:0:0:
310,205,40706,1,2,0:0:0:0:
310,205,40800,2,0,L|292:255,1,53.125,10|0,0:0|0:0,0:0:0:0:
401,375,40987,1,0,3:0:0:0:
401,375,41081,2,0,L|368:335,2,53.125,2|0|0,0:0|0:0|3:0,0:0:0:0:
184,280,41362,2,0,L|131:289,1,53.125,2|0,0:0|0:0,0:0:0:0:
69,107,41550,6,0,B|84:21|84:21|102:57,1,127.500004863739,2|0,3:2|0:0,0:0:0:0:
159,133,41831,1,2,3:2:0:0:
159,133,41925,2,0,L|150:185,1,53.125,2|0,0:0|0:0,0:0:0:0:
51,210,42112,2,0,L|-1:200,1,53.125,2|0,3:2|0:0,0:0:0:0:
237,221,42300,6,2,L|249:159,1,63.7500024318696,6|0,0:1|0:0,0:1:0:0:
177,27,42487,2,2,L|226:68,1,63.7500024318696,2|0,0:1|0:0,0:1:0:0:
440,48,42675,6,2,B|461:15|461:15|382:44|382:44|361:77|361:77|316:94,1,212.5,2|0,0:1|0:0,0:1:0:0:
28,21,43050,6,0,L|89:0,1,63.7500024318696,2|0,3:2|0:0,0:0:0:0:
177,27,43237,2,0,L|226:68,1,63.7500024318696,2|0,0:0|0:0,0:0:0:0:
249,159,43425,2,0,L|237:221,1,63.7500024318696,2|0,0:0|0:0,0:0:0:0:
317,75,43612,2,0,L|321:48,2,26.5625,0|0|0,3:0|0:0|0:0,0:0:0:0:
314,95,43800,2,0,L|364:76,1,53.125,10|0,0:0|0:0,0:0:0:0:
503,202,43987,1,0,3:0:0:0:
510,238,44081,2,0,B|442:270|442:270|375:238,1,148.750001418591,2|0,0:0|3:0,0:0:0:0:
356,236,44362,2,0,L|365:184,1,53.125
125,293,44550,6,0,B|166:319|166:319|243:305,1,127.500004863739,2|0,3:2|0:0,0:0:0:0:
237,222,44831,1,2,0:0:0:0:
237,222,44925,2,0,L|183:231,1,53.125,2|0,0:0|0:0,0:0:0:0:
12,364,45112,2,0,L|65:355,1,53.125,2|0,3:2|0:0,0:0:0:0:
312,257,45300,5,10,0:0:0:0:
347,262,45393,1,2,0:0:0:0:
383,268,45487,1,2,3:2:0:0:
420,274,45581,1,2,0:0:0:0:
467,341,45675,5,2,0:0:0:0:
416,349,45768,1,2,3:2:0:0:
365,358,45862,1,2,0:0:0:0:
314,367,45956,1,2,0:0:0:0:
263,376,46050,6,0,L|221:326,1,63.7500024318696,2|0,3:2|0:0,0:0:0:0:
213,232,46237,2,0,L|233:171,1,63.7500024318696,2|0,0:0|0:0,0:0:0:0:
311,119,46425,2,0,L|373:107,1,63.7500024318696,2|0,0:0|0:0,0:0:0:0:
187,87,46612,1,2,3:2:0:0:
207,83,46706,1,2,0:0:0:0:
227,79,46800,6,0,L|199:46,1,42.5,10|0,0:0|0:0,0:0:0:0:
427,193,47081,6,2,B|519:216|519:216|542:102|542:102|453:26|453:26|394:101,1,425,2|0,3:1|0:0,0:1:0:0:
333,329,47550,6,0,B|359:288|359:288|345:211,1,127.500004863739,2|0,3:2|0:0,0:0:0:0:
254,84,47831,1,2,0:0:0:0:
289,89,47925,2,0,L|298:142,1,53.125,2|0,0:0|0:0,0:0:0:0:
270,269,48112,2,0,L|262:217,1,53.125,2|0,3:2|0:0,0:0:0:0:
110,143,48300,6,0,L|79:148,1,31.8750012159348,10|0,0:0|0:0,0:0:0:0:
114,163,48487,2,0,L|83:168,1,31.8750012159348,2|0,3:2|0:0,0:0:0:0:
39,335,48675,5,2,0:0:0:0:
92,251,48800,5,2,0:0:0:0:
187,275,48925,5,2,0:0:0:0:
193,373,49050,6,0,L|132:358,2,63.7500024318696,2|2|2,3:2|0:0|0:0,0:0:0:0:
333,329,49331,1,2,0:0:0:0:
333,329,49425,2,0,L|342:276,1,53.125,2|0,0:0|0:0,0:0:0:0:
262,98,49612,1,2,3:2:0:0:
258,91,49706,1,2,0:0:0:0:
254,84,49800,5,10,0:0:0:0:
249,115,49893,1,2,0:0:0:0:
244,146,49987,1,2,3:2:0:0:
239,177,50081,1,2,0:0:0:0:
234,208,50175,2,0,L|287:198,1,53.125,2|0,0:0|3:0,0:0:0:0:
106,123,50362,1,2,0:0:0:0:
86,119,50456,1,2,0:0:0:0:
65,115,50550,6,0,L|72:157,1,42.5,2|0,3:1|0:0,0:0:0:0:
44,111,50643,2,0,L|51:153,1,42.5,2|0,0:1|0:0,0:0:0:0:
239,57,50831,5,2,0:0:0:0:
259,53,50925,1,2,0:0:0:0:
279,49,51018,1,2,0:0:0:0:
300,45,51112,6,0,L|292:87,1,42.5,2|0,3:1|0:0,0:0:0:0:
321,41,51206,2,0,L|313:83,1,42.5,2|0,0:1|0:0,0:0:0:0:
342,37,51300,6,0,L|351:89,1,53.125,10|2,0:0|0:0,0:0:0:0:
425,21,51487,2,0,L|434:73,1,53.125,2|2,3:2|0:0,0:0:0:0:
382,187,51675,6,2,B|410:165|410:165|445:175,5,70.8333333333333,2|2|2|2|2|0,0:1|0:1|0:1|0:1|0:1|0:0,0:1:0:0:
350,296,52050,6,0,L|413:285,2,63.7500024318696,2|2|2,3:2|0:0|0:0,0:0:0:0:
210,252,52331,1,2,0:0:0:0:
210,252,52425,2,0,L|203:196,1,53.125,2|0,0:0|0:0,0:0:0:0:
287,28,52612,1,2,3:2:0:0:
291,21,52706,1,2,0:0:0:0:
295,14,52800,5,10,0:0:0:0:
300,45,52893,1,2,0:0:0:0:
305,76,52987,1,2,3:2:0:0:
310,107,53081,1,2,0:0:0:0:
315,138,53175,2,0,L|262:128,1,53.125,2|0,0:0|3:0,0:0:0:0:
83,53,53362,1,0,0:0:0:0:
104,49,53456,1,0,0:0:0:0:
124,45,53550,5,6,3:2:0:0:
168,292,53800,5,2,3:2:0:0:
204,199,53925,5,2,0:0:0:0:
130,135,54050,5,2,3:2:0:0:
46,185,54175,5,2,0:0:0:0:
70,281,54300,5,10,0:0:0:0:
70,281,54487,1,2,0:0:0:0:
383,150,54675,5,2,3:2:0:0:
458,213,54800,5,2,3:2:0:0:
423,306,54925,5,2,3:2:0:0:
325,297,55050,6,0,L|264:271,1,63.7500024318696,6|0,3:2|0:0,0:0:0:0:
214,190,55237,2,0,L|203:126,1,63.7500024318696,2|0,0:0|0:0,0:0:0:0:
247,45,55425,2,0,L|296:5,1,63.7500024318696,2|0,0:0|0:0,0:0:0:0:
138,60,55612,2,0,L|117:77,2,26.5625,0|0|0,3:0|0:0|0:0,0:0:0:0:
154,48,55800,2,0,L|103:29,1,53.125,10|0,0:0|0:0,0:0:0:0:
7,201,55987,1,0,3:0:0:0:
0,237,56081,2,0,B|68:269|68:269|135:237,1,148.750001418591,2|0,0:0|3:0,0:0:0:0:
154,235,56362,2,0,L|145:183,1,53.125
397,88,56550,5,2,3:2:0:0:
376,92,56643,1,2,0:0:0:0:
356,96,56737,1,2,0:0:0:0:
335,100,56831,1,2,0:0:0:0:
226,155,56925,6,0,L|231:186,1,31.8750012159348,2|0,0:0|0:0,0:0:0:0:
247,159,57018,1,2,0:0:0:0:
267,163,57112,1,2,3:2:0:0:
288,167,57206,1,2,0:0:0:0:
406,223,57300,5,10,0:0:0:0:
371,228,57393,1,2,0:0:0:0:
335,234,57487,1,2,0:0:0:0:
298,240,57581,1,2,0:0:0:0:
251,307,57675,5,2,0:0:0:0:
302,315,57768,1,2,0:0:0:0:
353,324,57862,1,2,0:0:0:0:
404,333,57956,1,2,0:0:0:0:
455,342,58050,6,0,L|479:283,1,63.7500024318696,2|0,3:2|0:0,0:0:0:0:
474,187,58238,2,0,L|435:133,1,63.7500024318696,2|0,0:0|0:0,0:0:0:0:
359,86,58425,2,0,L|293:91,1,63.7500024318696,2|0,0:0|0:0,0:0:0:0:
483,39,58612,1,2,3:2:0:0:
461,40,58706,1,2,0:0:0:0:
440,42,58800,2,0,L|463:-6,1,53.125,2|0,0:0|0:0,0:0:0:0:
334,180,58987,1,0,0:0:0:0:
356,179,59081,5,6,3:2:0:0:
95,43,59550,6,0,L|32:32,2,63.7500024318696,2|0|0,3:2|0:0|0:0,0:0:0:0:
215,135,59831,1,2,0:0:0:0:
198,166,59925,2,0,L|145:156,1,53.125,2|0,0:0|0:0,0:0:0:0:
21,110,60112,2,0,L|73:120,1,53.125,2|0,3:2|0:0,0:0:0:0:
296,91,60300,6,0,L|326:85,1,31.8750012159348,10|0,0:0|0:0,0:0:0:0:
299,111,60487,2,0,L|329:105,1,31.8750012159348,2|0,3:2|0:0,0:0:0:0:
428,247,60675,5,2,0:0:0:0:
349,186,60800,5,2,0:0:0:0:
268,241,60925,5,2,0:0:0:0:
296,335,61050,6,0,P|344:355|394:341,1,106.25,6|0,3:2|0:0,0:0:0:0:
200,312,61331,1,2,0:0:0:0:
200,312,61425,2,0,P|180:321|165:335,1,42.5,2|0,0:0|0:0,0:0:0:0:
268,241,61612,2,0,P|269:219|265:199,1,42.5,2|0,0:0|0:0,0:0:0:0:
120,145,61800,2,0,P|88:172|76:213,2,85,10|2|2,0:0|0:0|0:0,0:0:0:0:
172,227,62362,1,2,0:0:0:0:
165,59,62550,6,0,L|269:77,1,106.25,2|0,0:0|0:0,0:0:0:0:
268,89,62831,1,2,0:0:0:0:
266,101,62925,1,2,0:0:0:0:
336,177,63112,1,2,3:2:0:0:
348,179,63206,1,2,0:0:0:0:
360,181,63300,2,0,L|346:142,1,42.5,10|0,0:0|0:0,0:0:0:0:
365,44,63487,2,0,L|391:11,1,42.5,2|0,0:0|0:0,0:0:0:0:
465,112,63675,1,2,0:0:0:0:
453,110,63768,1,2,0:0:0:0:
441,108,63862,1,2,0:0:0:0:
341,278,64050,6,0,P|393:274|436:243,1,106.25,2|0,3:2|0:0,0:0:0:0:
444,233,64331,1,2,3:2:0:0:
450,222,64425,1,2,0:0:0:0:
247,309,64612,1,2,0:0:0:0:
237,317,64705,1,2,0:0:0:0:
227,326,64800,2,0,P|214:343|206:362,1,42.5,10|0,0:0|0:0,0:0:0:0:
267,213,64987,2,0,P|258:193|245:176,1,42.5,2|0,0:0|0:0,0:0:0:0:
147,236,65175,1,2,0:0:0:0:
160,240,65268,1,2,0:0:0:0:
173,244,65362,1,2,0:0:0:0:
32,360,65550,6,0,L|15:362,6,17.7083333333333,2|0|0|0|0|0|0,0:0|0:0|0:0|0:0|0:0|0:0|0:0,0:0:0:0:
52,363,65831,2,0,B|84:369|84:369|68:275,1,127.500004863739,2|0,0:0|0:0,0:0:0:0:
74,188,66112,1,2,3:2:0:0:
266,101,66300,2,0,B|336:113|336:113|305:126,1,106.25,10|0,0:0|0:0,0:0:0:0:
194,55,66581,2,0,B|123:42|123:42|154:29,1,106.25,2|0,3:2|0:0,0:0:0:0:
230,78,66862,1,2,3:2:0:0:
401,183,67050,6,0,P|427:137|427:85,1,106.25,2|0,3:2|0:0,0:0:0:0:
371,273,67331,1,2,0:0:0:0:
371,273,67425,2,0,P|378:292|389:310,1,42.5,2|0,0:0|0:0,0:0:0:0:
308,202,67612,2,0,P|287:198|265:199,1,42.5,2|0,0:0|0:0,0:0:0:0:
190,326,67800,2,0,P|214:362|249:383,2,85,10|2|2,0:0|0:0|0:0,0:0:0:0:
279,293,68362,1,2,0:0:0:0:
99,300,68550,6,0,L|117:196,1,106.25,2|0,0:0|3:0,0:0:0:0:
129,197,68831,1,2,0:0:0:0:
141,199,68925,1,2,3:2:0:0:
217,129,69112,1,2,0:0:0:0:
219,117,69206,1,2,0:0:0:0:
221,105,69300,2,0,L|182:119,1,42.5,10|0,0:0|0:0,0:0:0:0:
84,100,69487,2,0,L|51:74,1,42.5,2|0,0:0|0:0,0:0:0:0:
152,0,69675,1,2,0:0:0:0:
150,12,69768,1,2,0:0:0:0:
148,24,69862,1,2,0:0:0:0:
318,124,70050,6,0,P|314:71|284:28,1,106.25,2|0,3:2|0:0,0:0:0:0:
274,20,70331,1,2,3:2:0:0:
263,14,70425,1,2,0:0:0:0:
351,217,70612,1,2,0:0:0:0:
359,225,70705,1,2,0:0:0:0:
368,236,70800,2,0,P|385:248|404:256,1,42.5,10|0,0:0|0:0,0:0:0:0:
254,198,70987,2,0,P|234:207|217:220,1,42.5,2|0,0:0|0:0,0:0:0:0:
279,318,71175,1,2,0:0:0:0:
283,305,71268,1,2,0:0:0:0:
287,292,71362,1,2,0:0:0:0:
496,282,71550,6,0,B|457:246|457:246|404:256,1,106.25,2|0,0:0|3:0,0:0:0:0:
369,348,71831,2,0,B|401:354|401:354|385:260,1,127.500004863739,2|0,0:0|0:0,0:0:0:0:
335,188,72112,1,2,3:2:0:0:
470,72,72300,2,0,B|540:84|540:84|507:97,1,106.25,10|0,0:0|0:0,0:0:0:0:
398,26,72581,2,0,B|327:13|327:13|358:0,1,106.25,2|0,3:2|0:0,0:0:0:0:
434,49,72862,1,2,3:2:0:0:
243,171,73050,6,0,L|336:188,1,93.5000028533936,12|0,0:0|0:0,0:0:0:0:
156,179,73425,2,0,L|94:251,1,93.5000028533936,8|0,0:0|0:0,0:0:0:0:
193,100,73800,2,0,L|161:12,1,93.5000028533936,8|0,0:0|0:0,0:0:0:0:
289,179,74081,1,8,0:0:0:0:
289,179,74175,2,0,L|243:171,1,46.7500014266968
156,179,74362,2,0,L|124:216,1,46.7500014266968,8|0,0:0|0:0,0:0:0:0:
238,339,74550,6,0,L|206:251,1,93.5000028533936,8|0,0:0|0:0,0:0:0:0:
385,260,74925,2,0,L|324:331,1,93.5000028533936,8|0,0:0|0:0,0:0:0:0:
243,171,75300,2,0,L|336:188,1,93.5000028533936,8|0,0:0|0:0,0:0:0:0:
177,56,75675,2,0,L|193:100,1,46.7500014266968,8|0,0:0|0:0,0:0:0:0:
156,179,75862,2,0,L|124:216,1,46.7500014266968,8|0,0:0|0:0,0:0:0:0:
238,339,76050,6,0,L|206:251,1,93.5000028533936,8|0,0:0|0:0,0:0:0:0:
59,330,76425,2,0,L|151:347,1,93.5000028533936,8|0,0:0|0:0,0:0:0:0:
156,179,76800,2,0,L|94:251,1,93.5000028533936,8|0,0:0|0:0,0:0:0:0:
177,56,77081,1,8,0:0:0:0:
177,56,77175,2,0,L|193:100,1,46.7500014266968
243,171,77362,2,0,L|289:179,1,46.7500014266968,8|0,0:0|0:0,0:0:0:0:
475,42,77550,6,0,B|448:70|448:70|382:82,1,106.25,2|0,0:0|0:0,0:0:0:0:
451,157,77831,6,0,L|409:165,1,42.5,2|0,0:0|0:0,0:0:0:0:
481,239,78018,6,0,L|478:254,1,15.9375006079674,2|0,0:0|0:0,0:0:0:0:
466,242,78112,1,2,0:0:0:0:
451,245,78206,1,2,0:0:0:0:
436,248,78300,6,0,B|337:265|337:265|358:247,1,127.5,2|0,0:0|0:0,0:0:0:0:
248,259,78675,6,0,L|255:300,1,42.5
104,196,79237,5,0,3:0:0:0:
101,211,79331,1,0,3:0:0:0:
99,226,79425,1,0,3:0:0:0:
96,240,79518,2,0,L|160:252,1,63.7500024318696,0|0,3:0|0:0,0:0:0:0:
330,82,79800,2,0,L|351:85,1,21.25,0|0,3:0|3:0,0:0:0:0:
337,123,79893,2,0,L|358:126,1,21.25,0|0,3:0|3:0,0:0:0:0:
344,164,79987,1,0,3:0:0:0:
351,206,80081,1,0,3:0:0:0:
358,247,80175,6,2,B|389:210|389:210|310:197|310:197|238:231|238:231|276:257,1,255,10|0,0:1|0:0,0:1:0:0:
197,64,80550,6,0,B|178:168|178:168|217:150,1,148.750001418591,2|0,3:2|0:0,0:0:0:0:
194,48,80831,2,0,L|131:37,1,63.7500024318696,2|0,3:2|0:0,0:0:0:0:
82,320,81112,2,0,L|144:331,1,63.7500024318696,2|0,0:0|0:0,0:0:0:0:
280,161,81300,2,0,L|217:150,1,63.7500024318696,10|0,0:0|0:0,0:0:0:0:
96,240,81487,2,0,L|158:251,1,63.7500024318696,2|0,3:2|0:0,0:0:0:0:
7,113,81675,6,0,B|-5:147|-5:147|13:177|13:177|110:160,1,170,2|0,0:0|0:0,0:0:0:0:
439,82,82050,5,2,3:2:0:0:
326,62,82143,1,2,0:0:0:0:
393,16,82237,1,2,0:0:0:0:
373,129,82331,5,2,3:2:0:0:
373,129,82425,2,0,L|362:191,1,63.7500024318696,2|0,0:0|0:0,0:0:0:0:
241,339,82612,6,0,B|265:311|265:311|301:306,1,74.3750007092953,2|0,3:2|0:0,0:0:0:0:
426,371,82800,2,0,B|412:336|412:336|379:319,1,74.3750007092953,10|0,0:0|0:0,0:0:0:0:
223,200,82987,2,0,B|260:201|260:201|286:225,1,74.3750007092953,2|0,3:2|0:0,0:0:0:0:
488,247,83175,2,0,B|452:235|452:235|419:249,1,74.3750007092953,2|0,0:0|3:0,0:0:0:0:
241,339,83362,2,0,B|265:311|265:311|301:306,1,74.3750007092953,2|0,0:0|0:0,0:0:0:0:
444,147,83550,6,0,B|463:43|463:43|424:61,1,148.750001418591,2|0,3:2|0:0,0:0:0:0:
447,163,83831,2,0,L|510:174,1,63.7500024318696,2|0,3:2|0:0,0:0:0:0:
335,127,84112,2,0,L|259:116,1,63.7500024318696,2|0,3:2|0:0,0:0:0:0:
160,82,84300,5,10,0:0:0:0:
173,79,84394,1,2,0:0:0:0:
187,77,84488,1,2,3:2:0:0:
201,74,84581,1,2,0:0:0:0:
335,127,84675,5,2,0:0:0:0:
314,124,84768,1,2,3:2:0:0:
293,121,84862,1,2,0:0:0:0:
272,118,84956,1,2,0:0:0:0:
155,229,85050,5,2,3:2:0:0:
270,202,85143,1,2,0:0:0:0:
199,158,85237,1,2,0:0:0:0:
226,273,85331,5,2,3:2:0:0:
226,273,85425,2,0,L|242:345,1,74.3750007092953,2|0,0:0|0:0,0:0:0:0:
310,276,85612,2,0,L|326:348,1,74.3750007092953,2|0,3:2|3:0,0:0:0:0:
152,313,85800,6,0,B|36:292|36:292|83:266,1,170,6|0,3:2|0:0,0:0:0:0:
310,276,86081,6,0,L|435:253,1,127.5,2|0,3:2|0:0,0:0:0:0:
272,89,86550,6,0,B|291:193|291:193|252:175,1,148.750001418591,2|0,3:2|0:0,0:0:0:0:
275,73,86831,2,0,L|338:62,1,63.7500024318696,2|0,3:2|0:0,0:0:0:0:
387,345,87112,2,0,L|325:356,1,63.7500024318696,2|0,0:0|0:0,0:0:0:0:
189,186,87300,2,0,L|252:175,1,63.7500024318696,10|0,0:0|0:0,0:0:0:0:
373,265,87487,2,0,L|311:276,1,63.7500024318696,2|0,3:2|0:0,0:0:0:0:
462,138,87675,6,0,B|474:172|474:172|456:202|456:202|359:185,1,170,2|0,0:0|0:0,0:0:0:0:
41,131,88050,5,2,3:2:0:0:
154,111,88143,1,2,0:0:0:0:
87,65,88237,1,2,0:0:0:0:
107,178,88331,5,2,3:2:0:0:
107,178,88425,2,0,L|118:240,1,63.7500024318696,2|0,0:0|0:0,0:0:0:0:
247,346,88612,6,0,L|173:332,1,74.3750007092953,2|0,3:2|0:0,0:0:0:0:
32,382,88800,2,0,L|96:344,1,74.3750007092953,10|0,0:0|0:0,0:0:0:0:
189,186,88987,2,0,L|200:258,1,74.3750007092953,2|0,3:2|0:0,0:0:0:0:
33,211,89175,1,2,0:0:0:0:
33,211,89268,1,0,3:2:0:0:
33,211,89362,2,0,L|45:283,1,74.3750007092953,2|0,0:0|0:0,0:0:0:0:
301,281,89550,6,0,B|405:262|405:262|387:301,1,148.750001418591,2|0,3:2|0:0,0:0:0:0:
285,278,89831,2,0,L|274:215,1,63.7500024318696,2|0,3:2|0:0,0:0:0:0:
258,35,90112,2,0,L|270:98,1,63.7500024318696,2|0,3:2|0:0,0:0:0:0:
372,146,90300,5,10,0:0:0:0:
358,149,90393,1,2,0:0:0:0:
344,151,90487,1,2,3:2:0:0:
331,154,90581,1,2,0:0:0:0:
211,206,90675,5,2,0:0:0:0:
232,209,90769,1,2,3:2:0:0:
253,212,90863,1,2,0:0:0:0:
274,215,90956,1,2,0:0:0:0:
335,271,91050,5,2,3:2:0:0:
331,290,91143,1,2,0:0:0:0:
328,309,91237,2,0,L|316:371,1,63.7500024318696,2|0,0:0|3:0,0:0:0:0:
423,227,91425,1,2,0:0:0:0:
419,246,91518,1,2,0:0:0:0:
416,265,91612,2,0,L|404:327,1,63.7500024318696,2|0,3:2|3:0,0:0:0:0:
208,326,91800,6,0,B|154:335|154:335|84:310|84:310|110:343,1,170,2|0,3:2|0:0,0:0:0:0:
274,215,92081,6,0,L|251:88,1,127.5,2|0,3:2|0:0,0:0:0:0:
7,163,92550,6,0,B|111:182|111:182|93:143,1,148.750001418591,2|0,3:2|0:0,0:0:0:0:
75,147,92831,1,2,0:0:0:0:
56,152,92925,1,10,0:0:0:0:
263,278,93112,2,0,L|274:216,1,63.7500024318696,2|0,3:2|0:0,0:0:0:0:
104,80,93300,2,0,L|93:143,1,63.7500024318696,2|0,0:0|0:0,0:0:0:0:
183,264,93487,2,0,L|194:202,1,63.7500024318696,2|0,3:2|0:0,0:0:0:0:
56,353,93675,6,0,B|90:365|90:365|120:347|120:347|103:250,1,170,10|0,0:0|0:0,0:0:0:0:
249,15,94050,5,2,3:2:0:0:
229,128,94143,1,2,0:0:0:0:
183,61,94237,1,2,0:0:0:0:
296,81,94331,5,2,0:0:0:0:
296,81,94425,2,0,L|358:92,1,63.7500024318696,10|0,0:0|0:0,0:0:0:0:
473,227,94612,6,0,B|473:153,1,74.3750007092953,2|0,3:2|0:0,0:0:0:0:
511,5,94800,2,0,B|485:74,1,74.3750007092953,2|0,0:0|0:0,0:0:0:0:
319,177,94987,2,0,B|392:166,1,74.3750007092953,2|0,3:2|0:0,0:0:0:0:
350,1,95175,2,0,B|414:36,1,74.3750007092953,10|0,0:0|3:0,0:0:0:0:
473,227,95362,2,0,B|473:153,1,74.3750007092953,2|0,0:0|0:0,0:0:0:0:
245,205,95550,6,0,B|226:309|226:309|265:291,1,148.750001418591,2|0,3:2|0:0,0:0:0:0:
261,273,95831,1,2,0:0:0:0:
256,254,95925,1,10,0:0:0:0:
73,176,96112,2,0,L|136:185,1,63.7500024318696,2|0,3:2|0:0,0:0:0:0:
243,125,96300,5,2,0:0:0:0:
229,128,96393,1,2,0:0:0:0:
215,130,96487,1,2,3:2:0:0:
202,133,96581,1,2,0:0:0:0:
73,176,96675,5,10,0:0:0:0:
94,179,96769,1,2,3:2:0:0:
115,182,96863,1,2,0:0:0:0:
136,185,96956,1,2,0:0:0:0:
201,335,97050,5,2,3:2:0:0:
215,217,97143,1,2,0:0:0:0:
149,269,97237,1,2,0:0:0:0:
267,283,97331,5,2,0:0:0:0:
267,283,97425,2,0,L|339:295,1,74.3750007092953,2|0,0:0|0:0,0:0:0:0:
299,205,97612,2,0,L|371:217,1,74.3750007092953,2|0,3:2|0:0,0:0:0:0:
242,140,97800,5,2,0:0:0:0:
242,140,97893,2,0,P|218:175|215:217,1,85,2|0,0:0|0:0,0:0:0:0:
394,359,98175,1,2,0:0:0:0:
394,359,98268,2,0,P|419:324|424:283,1,85,2|0,0:0|0:0,0:0:0:0:
163,301,98550,6,0,B|267:282|267:282|249:321,1,148.750001418591,2|0,3:2|0:0,0:0:0:0:
231,317,98831,1,2,0:0:0:0:
212,312,98925,1,10,0:0:0:0:
419,186,99112,2,0,L|430:248,1,63.7500024318696,2|0,3:2|0:0,0:0:0:0:
260,384,99300,2,0,L|249:321,1,63.7500024318696,2|0,0:0|0:0,0:0:0:0:
339,200,99487,2,0,L|350:262,1,63.7500024318696,2|0,3:2|0:0,0:0:0:0:
212,111,99675,6,0,B|246:99|246:99|276:117|276:117|259:214,1,170,10|0,0:0|0:0,0:0:0:0:
66,376,100050,5,2,3:2:0:0:
46,263,100143,1,2,0:0:0:0:
0,330,100237,1,2,0:0:0:0:
113,310,100331,5,2,0:0:0:0:
113,310,100425,2,0,L|175:299,1,63.7500024318696,10|0,0:0|0:0,0:0:0:0:
401,243,100612,6,0,L|328:256,1,74.3750007092953,2|0,3:2|0:0,0:0:0:0:
232,365,100800,2,0,L|257:295,1,74.3750007092953,2|0,0:0|0:0,0:0:0:0:
211,157,100987,2,0,L|258:213,1,74.3750007092953,2|0,0:0|0:0,0:0:0:0:
470,284,101175,6,0,P|481:244|471:204,1,85,2|0,0:0|0:0,0:0:0:0:
145,115,101550,6,0,B|41:134|41:134|59:95,1,148.750001418591,2|0,3:2|0:0,0:0:0:0:
77,99,101831,1,2,0:0:0:0:
96,104,101925,1,10,0:0:0:0:
188,361,102112,2,0,L|176:298,1,63.7500024318696,2|0,3:2|0:0,0:0:0:0:
74,250,102300,5,2,0:0:0:0:
88,247,102393,1,2,0:0:0:0:
102,245,102487,1,2,0:0:0:0:
115,242,102581,1,2,0:0:0:0:
235,190,102675,5,10,3:2:0:0:
214,187,102769,1,2,0:0:0:0:
193,184,102863,1,2,0:0:0:0:
172,181,102956,1,2,0:0:0:0:
111,125,103050,5,2,3:2:0:0:
115,106,103143,1,2,0:0:0:0:
118,87,103237,2,0,L|130:25,1,63.7500024318696,2|0,0:0|0:0,0:0:0:0:
23,169,103425,1,2,0:0:0:0:
27,150,103518,1,2,0:0:0:0:
30,131,103612,2,0,L|42:69,1,63.7500024318696,2|0,0:0|0:0,0:0:0:0:
267,34,103800,6,0,B|276:82|276:82|258:113|258:113|272:146|272:146|256:193,1,170,6|0,3:2|0:0,0:0:0:0:
475,97,104081,6,0,L|350:119,1,127.5,2|0,3:2|0:0,0:0:0:0:
235,190,104550,5,2,0:0:0:0:
256,193,104643,1,2,0:0:0:0:
325,277,104737,5,2,0:0:0:0:
304,280,104831,2,0,L|241:290,1,63.7500024318696,2|0,0:0|0:0,0:0:0:0:
70,356,105112,6,0,L|79:303,1,53.125,2|0,0:0|0:0,0:0:0:0:
136,165,105300,1,10,0:0:0:0:
136,165,105393,1,0,0:0:0:0:
136,165,105487,1,0,0:0:0:0:
151,245,105581,2,0,L|160:297,1,53.125,2|0,0:0|0:0,0:0:0:0:
262,162,105768,6,0,L|256:193,1,31.8750012159348,2|0,0:0|0:0,0:0:0:0:
241,159,105956,2,0,L|235:190,1,31.8750012159348,2|0,0:0|0:0,0:0:0:0:
301,87,106143,5,2,0:0:0:0:
268,81,106237,1,2,0:0:0:0:
234,75,106331,1,2,0:0:0:0:
347,159,106425,6,0,B|378:153,1,31.8750012159348
446,78,106612,1,0,0:0:0:0:
425,81,106706,1,0,0:0:0:0:
425,225,106800,6,0,L|477:234,1,53.125,10|0,0:0|0:0,0:0:0:0:
388,349,106987,2,0,L|379:297,2,53.125,2|0|0,0:0|0:0|0:0,0:0:0:0:
294,309,107268,5,2,0:0:0:0:
252,301,107362,1,2,0:0:0:0:
210,294,107456,1,0,0:0:0:0:
112,323,107550,5,0,0:0:0:0:
125,306,107643,1,0,0:0:0:0:
139,177,107737,6,0,L|158:227,1,53.125,2|0,0:0|0:0,0:0:0:0:
36,101,107925,5,0,0:0:0:0:
57,104,108018,2,0,L|88:109,1,31.8750012159348
187,80,108206,5,2,0:0:0:0:
174,97,108299,1,10,0:0:0:0:
248,142,108393,6,0,L|342:125,1,95.6250036478044
443,66,108769,5,2,0:0:0:0:
426,69,108863,1,2,0:0:0:0:
409,72,108956,1,0,0:0:0:0:
330,40,109050,5,2,0:0:0:0:
309,37,109143,2,0,L|256:27,2,53.125,2|0|0,0:0|0:0|0:0,0:0:0:0:
421,157,109425,5,2,0:0:0:0:
418,178,109518,1,2,0:0:0:0:
406,263,109612,6,0,L|468:251,2,63.7500024318696,0|8|0,0:0|0:0|0:0,0:0:0:0:
327,295,110081,5,2,3:2:0:0:
298,289,110175,1,2,0:0:0:0:
269,284,110269,1,2,0:0:0:0:
190,316,110362,5,0,3:0:0:0:
193,337,110456,2,0,L|198:368,1,31.8750012159348
74,72,112237,6,0,L|77:51,1,21.25,0|0,3:0|3:0,0:0:0:0:
57,69,112331,2,0,L|60:48,1,21.25,0|0,3:0|3:0,0:0:0:0:
40,66,112425,1,0,3:0:0:0:
45,95,112518,1,0,3:0:0:0:
50,124,112612,1,0,3:0:0:0:
56,153,112706,1,0,3:0:0:0:
61,182,112800,2,0,L|68:140,1,42.5,0|0,3:0|0:0,0:0:0:0:
7,273,112987,2,0,L|0:314,1,42.5,0|0,3:0|0:0,0:0:0:0:
206,254,113175,6,2,B|277:239|277:239|253:327|253:327|195:283|195:283|113:275,1,318.75,14|0,0:1|0:0,0:1:0:0:
331,371,113550,6,0,B|373:218|373:218|331:167,1,223.125002127886,2|0,3:2|0:0,0:0:0:0:
248,40,113925,5,2,3:2:0:0:
258,38,114019,1,2,0:0:0:0:
268,36,114113,1,2,0:0:0:0:
278,34,114206,1,2,0:0:0:0:
288,32,114300,2,0,L|297:85,1,53.125,2|0,3:2|0:0,0:0:0:0:
191,165,114487,2,0,L|244:156,2,53.125,2|0|0,0:0|3:0|0:0,0:0:0:0:
332,168,114862,2,0,L|385:159,1,53.125,2|0,3:2|0:0,0:0:0:0:
475,41,115050,6,2,B|458:56|458:56|407:47,1,74.3750007092953,2|0,3:1|0:0,0:1:0:0:
184,125,115237,5,2,0:0:0:0:
186,135,115331,1,2,0:0:0:0:
188,145,115425,1,2,3:2:0:0:
190,155,115518,1,2,0:0:0:0:
191,165,115612,2,0,L|244:156,1,53.125,2|0,0:0|0:0,0:0:0:0:
356,248,115800,2,0,B|432:233|432:233|461:193,1,127.500004863739,2|0,3:2|0:0,0:0:0:0:
432,318,116081,1,0,0:0:0:0:
432,318,116175,2,0,L|379:327,1,53.125,4|0,3:2|0:0,0:0:0:0:
332,168,116362,2,0,L|385:159,1,53.125,4|0,3:2|0:0,0:0:0:0:
488,90,116550,6,0,B|461:56|461:56|406:47|406:47|369:69|369:69|318:60,1,191.250007295609,2|0,3:2|0:0,0:0:0:0:
184,125,116925,5,2,3:2:0:0:
186,135,117019,1,2,0:0:0:0:
188,145,117113,1,2,0:0:0:0:
190,155,117206,1,2,0:0:0:0:
191,165,117300,2,0,L|244:156,1,53.125,2|0,3:2|0:0,0:0:0:0:
385,159,117487,1,2,0:0:0:0:
385,159,117581,2,0,L|332:168,1,53.125,2|0,3:2|0:0,0:0:0:0:
138,237,117862,6,0,B|111:221|111:221|105:189,1,63.7500024318696,2|0,3:2|0:0,0:0:0:0:
79,51,118050,6,0,L|70:105,1,53.125,2|0,0:0|0:0,0:0:0:0:
16,177,118237,1,2,3:2:0:0:
269,305,118425,2,0,L|206:294,1,63.7500024318696,2|0,3:2|3:0,0:0:0:0:
164,358,118612,2,0,L|111:322,1,63.7500024318696,2|0,3:2|3:0,0:0:0:0:
46,361,118800,2,0,B|2:288|2:288|5:330,1,127.500004863739,2|0,3:2|0:0,0:0:0:0:
269,305,119175,2,0,L|373:286,1,106.25,14|0,0:0|0:0,0:0:0:0:
509,351,119550,5,2,0:0:0:0:
256,192,119737,12,0,122550,0:0:0:0:
