osu file format v14

[General]
AudioFilename: audio.mp3
AudioLeadIn: 0
PreviewTime: 78909
Countdown: 0
SampleSet: Soft
StackLeniency: 0.7
Mode: 0
LetterboxInBreaks: 0
WidescreenStoryboard: 1

[Editor]
Bookmarks: 1050,7050,13050,19050,25050,31050,37050,43050,49050,55050,61050,67050,73050,79050,80550,86081,86550,92081,92550,97800,98550,101175,101550,104081,104550,110550,113550,119550,122550
DistanceSpacing: 1
BeatDivisor: 8
GridSize: 32
TimelineZoom: 1.4

[Metadata]
Title:Honey Trap
TitleUnicode:Honey Trap
Artist:Expander
ArtistUnicode:Expander
Creator:Shyotamaze
Version:Beginner
Source:beatmania IIDX 24 SINOBUZ
Tags:Sota Fujimori -Nanako- Frey VoiceCore BOUYAAA hyper trap japanese instrumental electronic video game 藤森 崇多 dj MAX STEROID BEMANI Sound Team "Expander" IIDX 25 CANNON BALLERS
BeatmapID:2946953
BeatmapSetID:1403412

[Difficulty]
HPDrainRate:2
CircleSize:2
OverallDifficulty:2
ApproachRate:4
SliderMultiplier:0.9
SliderTickRate:1

[Events]
//Background and Video events
0,0,"Honey.jpg",0,0
//Break Periods
//Storyboard Layer 0 (Background)
//Storyboard Layer 1 (Fail)
//Storyboard Layer 2 (Pass)
//Storyboard Layer 3 (Foreground)
//Storyboard Layer 4 (Overlay)
//Storyboard Sound Samples

[TimingPoints]
1050,375,4,2,1,85,1,0
5737,-100,4,2,2,85,0,0
6675,-100,4,2,1,85,0,0
7050,-100,4,2,1,80,0,0
31050,-100,4,2,1,50,0,0
35550,-100,4,2,1,80,0,0
73050,-100,4,2,1,50,0,0
77550,-100,4,2,1,80,0,0
79237,-100,4,2,2,80,0,0
80175,-100,4,2,1,80,0,0
80550,-100,4,2,1,90,0,1
86081,-100,4,2,1,90,0,0
86550,-100,4,2,1,90,0,1
92081,-100,4,2,1,90,0,0
92550,-100,4,2,1,90,0,1
97800,-100,4,2,1,90,0,0
98550,-100,4,2,1,90,0,1
101175,-100,4,2,1,90,0,0
101550,-100,4,2,1,90,0,1
104081,-100,4,2,1,70,0,0
110550,-100,4,2,1,80,0,0
113550,-100,4,2,1,85,0,0
118237,-100,4,2,2,85,0,0
119175,-100,4,2,1,85,0,0
119550,-100,4,2,1,55,0,0
119925,-100,4,2,1,50,0,0
120300,-100,4,2,1,45,0,0
120675,-100,4,2,1,40,0,0
121050,-100,4,2,1,35,0,0
121425,-100,4,2,1,30,0,0
121800,-100,4,2,1,25,0,0
122175,-100,4,2,1,20,0,0
122550,-100,4,2,1,15,0,0

[Colours]
Combo1 : 255,180,138
Combo2 : 187,205,150
Combo3 : 142,150,238
Combo4 : 243,109,109

[HitObjects]
64,160,1050,6,0,L|79:248,1,90,6|2,3:2|3:2,0:0:0:0:
155,296,1800,2,0,L|221:284,1,67.5,2|0,3:2|3:0,0:0:0:0:
334,285,2550,2,0,B|377:292|377:292|412:321,2,90,2|2|2,3:1|3:2|3:2,0:0:0:0:
278,214,3675,1,4,3:2:0:0:
334,143,4050,6,0,L|422:127,1,90,2|2,3:2|3:2,0:0:0:0:
496,179,4800,2,0,L|507:245,2,67.5,2|2|2,3:2|3:2|3:2,0:0:0:0:
465,47,5925,2,0,L|457:2,2,45,2|2|2,3:2|3:2|3:2,0:0:0:0:
376,63,6675,1,12,0:0:0:0:
334,143,7050,6,0,L|245:127,1,90,0|0,3:0|0:0,0:0:0:0:
160,159,7800,2,0,L|72:143,1,90,8|0,0:0|3:0,0:0:0:0:
5,81,8550,1,2,0:1:0:0:
90,52,8925,2,0,L|178:67,1,90,2|10,3:1|0:1,0:0:0:0:
246,127,9675,1,2,0:1:0:0:
231,215,10050,6,0,L|246:303,1,90,2|0,3:2|0:0,0:0:0:0:
325,347,10800,2,0,L|413:331,1,90,8|2,0:0|3:2,0:0:0:0:
468,259,11550,2,0,L|452:170,1,90,0|2,0:0|3:2,0:0:0:0:
374,124,12300,1,10,0:0:0:0:
216,211,13050,6,0,L|127:226,1,90,2|2,3:2|0:0,0:0:0:0:
70,156,13800,1,8,0:0:0:0:
102,71,14175,2,0,L|190:55,1,90,2|0,3:2|0:0,0:0:0:0:
246,127,14925,2,0,L|334:142,1,90,2|10,3:2|0:0,0:0:0:0:
422,162,15675,1,10,0:0:0:0:
483,97,16050,6,0,L|498:8,2,90,10|0|10,3:2|0:0|0:0,0:0:0:0:
422,162,17175,1,0,3:0:0:0:
334,142,17550,2,0,L|246:127,1,90,2|0,0:0|3:0,0:0:0:0:
210,43,18300,1,8,0:0:0:0:
70,156,19050,6,0,L|54:244,1,90,6|0,3:2|0:0,0:0:0:0:
38,333,19800,2,0,L|8:366,2,45,10|2|2,0:0|0:0|3:2,0:0:0:0:
123,303,20550,2,0,L|207:272,1,90,2|0,0:0|3:0,0:0:0:0:
293,243,21300,2,0,L|337:251,2,45,10|2|2,0:0|3:2|0:0,0:0:0:0:
225,183,22050,6,0,L|156:125,1,90,2|0,3:2|0:0,0:0:0:0:
87,67,22800,2,0,L|72:24,2,45,10|2|2,0:0|0:0|3:2,0:0:0:0:
70,156,23550,2,0,L|54:244,1,90,2|0,0:0|3:0,0:0:0:0:
38,333,24300,1,10,0:0:0:0:
208,272,25050,6,0,B|296:256|296:256|312:167,1,180,2|10,0:1|0:0,0:0:0:0:
374,102,26175,1,2,3:2:0:0:
436,167,26550,2,0,L|452:255,1,90,2|0,0:0|3:0,0:0:0:0:
468,344,27300,2,0,L|498:377,2,45,10|2|2,0:0|3:2|0:0,0:0:0:0:
383,314,28050,6,0,L|299:283,1,90,2|0,3:2|0:0,0:0:0:0:
213,254,28800,2,0,L|169:262,2,45,10|2|2,0:0|0:0|3:2,0:0:0:0:
281,194,29550,2,0,L|350:136,1,90,2|0,0:0|3:0,0:0:0:0:
419,78,30300,2,0,L|434:35,2,45,10|2|2,0:0|3:2|3:2,0:0:0:0:
435,167,31050,6,0,L|523:182,2,90,12|8|8,0:0|0:0|0:0,0:0:0:0:
350,136,32175,1,8,0:0:0:0:
265,105,32550,2,0,L|176:89,2,90,8|8|8,0:0|0:0|0:0,0:0:0:0:
350,136,33675,1,8,0:0:0:0:
435,167,34050,6,0,L|523:182,2,90,8|8|8,3:2|3:2|3:2,0:0:0:0:
350,136,35175,1,8,0:0:0:0:
264,105,35550,2,0,P|329:48|413:71,1,180,0|2,3:0|0:0,0:0:0:0:
350,136,36675,1,12,0:0:0:0:
281,194,37050,6,0,L|192:209,1,90,2|2,3:2|0:0,0:0:0:0:
124,269,37800,2,0,L|35:284,1,90,10|0,0:0|0:0,0:0:0:0:
19,196,38550,2,0,L|107:180,1,90,2|2,3:2|0:0,0:0:0:0:
192,209,39300,1,10,0:0:0:0:
210,297,39675,1,2,0:0:0:0:
294,326,40050,6,0,L|382:310,1,90,2|2,3:2|0:0,0:0:0:0:
415,226,40800,2,0,L|399:137,1,90,10|0,0:0|0:0,0:0:0:0:
313,108,41550,2,0,L|224:123,1,90,2|2,3:2|0:0,0:0:0:0:
238,211,42300,1,6,0:1:0:0:
210,297,42675,1,2,0:1:0:0:
124,269,43050,6,0,L|35:253,1,90,2|2,3:2|0:0,0:0:0:0:
0,170,43800,2,0,L|15:81,1,90,10|0,0:0|0:0,0:0:0:0:
90,30,44550,2,0,L|178:45,1,90,2|2,3:2|0:0,0:0:0:0:
225,123,45300,1,10,0:0:0:0:
313,108,45675,1,2,0:0:0:0:
399,137,46050,6,0,L|415:226,2,90,2|2|10,3:2|0:0|0:0,0:0:0:0:
324,300,47550,2,0,L|412:315,1,90,2|2,3:2|0:0,0:0:0:0:
492,272,48300,1,10,0:0:0:0:
494,182,48675,1,2,0:0:0:0:
440,109,49050,6,0,L|351:124,1,90,2|2,3:2|0:0,0:0:0:0:
277,175,49800,2,0,L|188:159,1,90,10|2,0:0|0:0,0:0:0:0:
111,111,50550,2,0,B|126:22|126:22|203:68,1,180,2|10,3:1|0:0,0:0:0:0:
189,159,51675,1,2,0:1:0:0:
277,175,52050,6,0,L|365:159,1,90,2|2,3:2|0:0,0:0:0:0:
440,109,52800,2,0,L|424:20,1,90,10|2,0:0|0:0,0:0:0:0:
336,0,53550,1,6,3:2:0:0:
277,175,54300,1,10,0:0:0:0:
336,350,55050,6,0,L|247:365,1,90,6|2,3:2|0:0,0:0:0:0:
173,313,55800,2,0,L|84:328,1,90,10|0,0:0|0:0,0:0:0:0:
10,275,56550,2,0,L|-5:187,1,90,2|2,3:2|0:0,0:0:0:0:
49,114,57300,1,10,0:0:0:0:
138,98,57675,1,2,0:0:0:0:
208,153,58050,6,0,L|296:168,1,90,2|2,3:2|0:0,0:0:0:0:
383,143,58800,2,0,L|394:76,1,67.5,2|6,0:0|3:2,0:0:0:0:
506,88,59550,2,0,L|490:176,1,90,2|2,3:2|0:0,0:0:0:0:
474,265,60300,2,0,L|385:280,1,90,10|2,0:0|0:0,0:0:0:0:
327,211,61050,6,0,P|241:223|206:301,1,180,6|10,3:2|0:0,0:0:0:0:
296,296,62175,1,2,0:0:0:0:
385,280,62550,2,0,P|417:199|366:129,1,180,2|10,0:0|0:0,0:0:0:0:
327,211,63675,1,2,0:0:0:0:
296,296,64050,6,0,P|349:363|434:355,1,180,2|10,3:2|0:0,0:0:0:0:
475,275,65175,1,2,0:0:0:0:
422,202,65550,2,0,P|393:236|385:280,2,90,2|2|10,0:0|0:0|0:0,0:0:0:0:
243,175,67050,6,0,P|157:163|122:85,1,180,2|10,3:2|0:0,0:0:0:0:
212,90,68175,1,2,0:0:0:0:
301,106,68550,2,0,P|333:187|282:257,1,180,2|10,0:0|0:0,0:0:0:0:
243,175,69675,1,2,0:0:0:0:
212,90,70050,6,0,P|265:23|350:31,1,180,2|10,3:2|0:0,0:0:0:0:
391,111,71175,1,2,0:0:0:0:
338,184,71550,2,0,P|309:150|301:106,2,90,2|2|10,0:0|0:0|0:0,0:0:0:0:
512,230,73050,5,12,0:0:0:0:
488,143,73425,2,0,L|472:54,2,90,8|8|8,0:0|0:0|0:0,0:0:0:0:
425,207,74550,1,8,0:0:0:0:
362,271,74925,2,0,L|377:359,2,90,8|8|8,0:0|0:0|0:0,0:0:0:0:
280,232,76050,5,8,0:0:0:0:
199,193,76425,2,0,L|183:104,2,90,8|8|8,0:0|0:0|0:0,0:0:0:0:
206,282,77550,6,0,B|176:327|176:327|43:350,1,180,2|2,0:0|0:0,0:0:0:0:
0,274,78675,1,0,0:0:0:0:
183,104,79800,2,0,L|199:193,1,90,0|10,3:0|0:1,0:0:0:0:
280,232,80550,6,0,L|368:216,1,90,2|0,3:2|0:0,0:0:0:0:
450,255,81300,2,0,L|457:299,2,45,10|2|2,0:0|3:2|0:0,0:0:0:0:
511,189,82050,2,0,L|495:100,1,90,2|2,3:2|0:0,0:0:0:0:
420,50,82800,1,10,0:0:0:0:
340,92,83175,1,2,0:0:0:0:
251,108,83550,6,0,L|162:123,1,90,2|0,3:2|0:0,0:0:0:0:
139,210,84300,2,0,L|50:225,1,90,10|2,0:0|0:0,0:0:0:0:
0,150,85050,1,2,3:2:0:0:
10,60,85425,1,2,0:0:0:0:
99,44,85800,2,0,L|164:32,1,67.5,6|2,3:2|3:2,0:0:0:0:
251,108,86550,6,0,L|235:196,1,90,2|0,3:2|0:0,0:0:0:0:
301,256,87300,2,0,L|335:284,2,45,10|2|2,0:0|3:2|0:0,0:0:0:0:
241,323,88050,2,0,L|156:353,2,90,2|2|10,3:2|0:0|0:0,0:0:0:0:
301,256,89175,1,2,0:0:0:0:
321,169,89550,6,0,L|409:184,1,90,2|0,3:2|0:0,0:0:0:0:
481,239,90300,1,10,0:0:0:0:
465,327,90675,1,2,0:0:0:0:
378,350,91050,2,0,L|290:335,1,90,2|2,3:2|0:0,0:0:0:0:
215,283,91800,2,0,L|226:217,1,67.5,2|2,3:2|3:2,0:0:0:0:
259,108,92550,6,0,L|170:92,1,90,2|10,3:2|0:0,0:0:0:0:
81,85,93300,2,0,L|74:41,2,45,2|2|10,0:0|3:2|0:0,0:0:0:0:
87,175,94050,2,0,L|103:264,1,90,2|10,3:2|0:0,0:0:0:0:
161,333,94800,1,2,0:0:0:0:
249,318,95175,1,10,0:0:0:0:
279,233,95550,6,0,L|263:144,1,90,2|10,3:2|0:0,0:0:0:0:
294,59,96300,2,0,L|382:43,1,90,2|10,0:0|0:0,0:0:0:0:
468,73,97050,2,0,L|483:161,1,90,2|2,3:2|0:0,0:0:0:0:
453,246,97800,1,2,0:0:0:0:
364,262,98175,1,2,0:0:0:0:
279,233,98550,6,0,L|190:248,1,90,2|10,3:2|0:0,0:0:0:0:
157,330,99300,2,0,L|142:371,2,45,2|2|10,0:0|3:2|0:0,0:0:0:0:
76,290,100050,2,0,L|18:220,2,90,2|10|2,3:2|0:0|0:0,0:0:0:0:
157,330,101175,1,2,0:0:0:0:
191,248,101550,6,0,L|206:160,1,90,2|10,3:2|0:0,0:0:0:0:
290,128,102300,1,2,0:0:0:0:
379,136,102675,1,10,3:2:0:0:
460,176,103050,2,0,L|445:264,1,90,2|2,3:2|0:0,0:0:0:0:
393,339,103800,2,0,L|327:328,1,67.5,6|2,3:2|3:2,0:0:0:0:
227,274,104550,6,0,L|138:289,1,90,2|0,0:0|0:0,0:0:0:0:
155,378,105300,2,0,L|243:362,1,90,10|0,0:0|0:0,0:0:0:0:
327,328,106050,1,0,0:0:0:0:
310,239,106425,2,0,L|294:150,2,90,0|10|0,0:0|0:0|0:0,0:0:0:0:
227,274,107550,5,0,0:0:0:0:
144,239,107925,2,0,L|159:150,1,90,0|10,0:0|0:0,0:0:0:0:
227,90,108675,1,0,0:0:0:0:
295,30,109050,2,0,B|383:45,1,90,2|2,0:0|0:0,0:0:0:0:
444,113,109800,2,0,L|510:101,2,67.5,8|2|0,0:0|3:2|3:0,0:0:0:0:
384,45,113550,6,0,B|296:30,1,90,2|2,3:2|3:2,0:0:0:0:
227,90,114300,2,0,L|215:156,1,67.5,2|0,3:2|3:0,0:0:0:0:
219,269,115050,2,0,B|262:262|262:262|297:233,2,90,2|2|2,3:1|3:2|3:2,0:0:0:0:
147,214,116175,1,4,3:2:0:0:
58,230,116550,6,0,B|43:142,1,90,2|2,3:2|3:2,0:0:0:0:
103,73,117300,2,0,L|169:61,1,67.5,2|2,3:2|3:2,0:0:0:0:
280,80,118050,1,2,0:0:0:0:
311,165,118425,2,0,L|318:209,2,45,2|2|2,3:2|3:2|3:2,0:0:0:0:
368,95,119175,1,14,0:0:0:0:
256,192,119550,12,0,122550,0:0:0:0:
