osu file format v14

[General]
AudioFilename: rqex 1.200x (pitch raised).mp3
AudioLeadIn: 0
PreviewTime: 104158
Countdown: 0
SampleSet: Soft
StackLeniency: 0.7
Mode: 2
LetterboxInBreaks: 0
WidescreenStoryboard: 1

[Editor]
DistanceSpacing: 0.9
BeatDivisor: 4
GridSize: 8
TimelineZoom: 2.699999

[Metadata]
Title:Rayquaza ex
TitleUnicode:Rayquaza ex
Artist:Exodia
ArtistUnicode:Exodia
Creator:fayew
Version:222 bpm (185 1.2x)
Source:
Tags:3xod1a electronic instrumental techno skill issue lol skill_issue_lol jump practice rates tech
BeatmapID:4240690
BeatmapSetID:1859102

[Difficulty]
HPDrainRate:2.2
CircleSize:3.8
OverallDifficulty:10
ApproachRate:10
SliderMultiplier:2
SliderTickRate:2

[Events]
//Background and Video events
0,0,"shiny-mega-rayquaza.png",0,0
//Break Periods
//Storyboard Layer 0 (Background)
//Storyboard Layer 1 (Fail)
//Storyboard Layer 2 (Pass)
//Storyboard Layer 3 (Foreground)
//Storyboard Layer 4 (Overlay)
//Storyboard Sound Samples

[TimingPoints]
-13,297.619047619047,4,2,0,10,1,0
7129,-100,4,2,2,30,0,0
42843,-100,4,2,2,50,0,0
95224,294.117647058823,4,2,2,50,1,0
96400,292.397660818713,4,2,2,50,1,0
97569,290.697674418605,4,2,2,50,1,0
98731,287.356321839081,4,2,2,50,1,0
99880,280.898876404494,4,2,2,50,1,0
101004,277.777777777777,4,2,2,50,1,0
102115,274.725274725274,4,2,2,50,1,0
103213,270.27027027027,4,2,2,50,1,0
104294,270.27027027027,4,2,3,60,1,0
104294,-111.111111111111,4,2,3,60,0,1
129361,-83.3333333333333,4,2,3,65,0,1
129564,-83.3333333333333,4,2,3,70,0,1
129834,-83.3333333333333,4,2,3,75,0,1
129969,-83.3333333333333,4,2,3,80,0,1
130240,-10,4,2,2,60,0,0
147536,-10,4,2,3,60,0,0

[Colours]
Combo1 : 128,0,255
Combo2 : 255,0,0
Combo3 : 253,108,2
Combo4 : 255,255,0
Combo5 : 0,255,0
Combo6 : 0,255,255
Combo7 : 0,0,255

[HitObjects]
368,208,95224,6,0,L|384:144,2,50,0|0|2,0:0|0:0|0:1,0:0:0:0:
288,240,95444,2,0,L|352:240,2,50,0|0|2,0:0|0:0|0:1,0:0:0:0:
208,224,95665,2,0,L|192:160,2,50,0|0|2,0:0|0:0|0:1,0:0:0:0:
288,256,95885,2,0,L|224:256,2,50,0|0|2,0:0|0:0|0:1,0:0:0:0:
345,204,96105,1,0,0:0:0:0:
281,204,96180,1,0,0:0:0:0:
217,204,96253,1,2,0:1:0:0:
153,204,96327,1,0,0:0:0:0:
256,80,96400,5,0,0:0:0:0:
302,94,96472,1,0,0:0:0:0:
320,139,96545,1,2,0:1:0:0:
297,181,96619,1,0,0:0:0:0:
208,96,96691,1,0,0:0:0:0:
161,110,96764,1,2,0:1:0:0:
143,155,96837,1,0,0:0:0:0:
166,197,96910,1,0,0:0:0:0:
272,240,96984,2,0,L|176:240,2,50,2|0|0,0:1|0:0|0:0,0:0:0:0:
352,176,97203,1,2,0:1:0:0:
256,112,97276,2,0,L|320:96,1,50
400,64,97423,2,0,L|464:64,1,50,2|0,0:1|0:0,0:0:0:0:
336,144,97569,6,0,L|272:128,2,50,0|0|2,0:0|0:0|0:1,0:0:0:0:
272,208,97786,2,0,L|208:192,2,50,0|0|2,0:0|0:0|0:1,0:0:0:0:
352,192,98005,2,0,L|416:176,2,50,0|0|2,0:0|0:0|0:1,0:0:0:0:
416,256,98222,2,0,L|480:240,2,50,0|0|2,0:0|0:0|0:1,0:0:0:0:
336,272,98440,2,0,L|286:272,1,50
368,320,98585,2,0,L|418:320,1,50,2|0,0:1|0:0,0:0:0:0:
320,336,98731,6,0,L|240:336,2,50,0|0|2,0:0|0:0|0:1,0:0:0:0:
256,272,98946,2,0,L|176:272,2,50,0|0|2,0:0|0:0|0:1,0:0:0:0:
336,224,99162,2,0,L|416:224,2,50,0|0|2,0:0|0:0|0:1,0:0:0:0:
400,160,99377,2,0,L|480:160,2,50,0|0|2,0:0|0:0|0:1,0:0:0:0:
304,96,99593,2,0,L|368:96,1,50
288,32,99736,2,0,L|208:32,1,50,2|0,0:1|0:0,0:0:0:0:
432,48,99880,5,2,0:0:0:0:
272,112,99950,2,0,L|272:176,1,50,0|8,0:0|0:1,0:0:0:0:
352,176,100090,2,0,L|352:240,2,50,0|0|8,0:0|0:0|0:1,0:0:0:0:
176,240,100301,1,2,0:0:0:0:
352,256,100371,2,0,L|352:176,1,50,0|8,0:0|0:1,0:0:0:0:
272,176,100512,2,0,L|176:176,2,50,0|0|8,0:0|0:0|0:1,0:0:0:0:
448,96,100723,2,0,L|368:96,1,50
240,64,100863,2,0,L|304:64,1,50,2|0,0:0|0:0,0:0:0:0:
80,48,101004,5,2,0:0:0:0:
240,112,101073,2,0,L|240:176,1,50,0|8,0:0|0:1,0:0:0:0:
160,176,101212,2,0,L|160:240,2,50,0|0|8,0:0|0:0|0:1,0:0:0:0:
336,240,101420,1,2,0:0:0:0:
160,256,101490,2,0,L|160:176,1,50,0|8,0:0|0:1,0:0:0:0:
240,176,101629,2,0,L|336:176,2,50,0|0|8,0:0|0:0|0:1,0:0:0:0:
64,96,101837,2,0,L|144:96,1,50
272,64,101975,2,0,L|208:64,1,50,2|0,0:0|0:0,0:0:0:0:
432,176,102115,5,2,0:0:0:0:
272,224,102183,2,0,L|208:224,1,50,0|8,0:0|0:1,0:0:0:0:
304,160,102320,2,0,L|368:160,2,50,0|0|8,0:0|0:0|0:1,0:0:0:0:
128,96,102526,1,2,0:0:0:0:
292,13,102595,1,0,0:0:0:0:
338,23,102663,1,8,0:1:0:0:
358,67,102733,1,0,0:0:0:0:
334,109,102800,1,0,0:0:0:0:
286,115,102869,1,8,0:1:0:0:
103,103,102939,2,0,L|167:103,1,50
319,182,103075,2,0,L|239:182,1,50,2|0,0:0|0:0,0:0:0:0:
432,176,103213,5,2,0:0:0:0:
272,224,103280,2,0,L|208:224,1,50,0|8,0:0|0:1,0:0:0:0:
304,160,103415,2,0,L|368:160,2,50,0|0|8,0:0|0:0|0:1,0:0:0:0:
128,96,103618,1,2,0:0:0:0:
298,47,103685,1,0,0:0:0:0:
249,44,103753,1,8,0:1:0:0:
220,82,103820,1,0,0:0:0:0:
233,128,103888,1,0,0:0:0:0:
279,143,103955,1,8,0:1:0:0:
469,106,104023,2,0,L|419:106,1,50
242,150,104159,2,0,L|162:150,1,50,2|0,0:0|0:0,0:0:0:0:
384,192,104294,5,2,0:0:0:0:
230,192,104361,1,0,0:0:0:0:
280,192,104429,1,0,0:0:0:0:
128,192,104496,1,0,0:0:0:0:
384,192,104564,1,2,0:0:0:0:
230,192,104631,1,0,0:0:0:0:
289,192,104699,1,0,0:0:0:0:
128,192,104766,1,0,0:0:0:0:
384,192,104834,1,2,0:0:0:0:
230,192,104901,1,0,0:0:0:0:
280,192,104969,1,0,0:0:0:0:
128,192,105036,1,0,0:0:0:0:
384,192,105104,1,2,0:0:0:0:
230,192,105171,1,0,0:0:0:0:
280,192,105239,1,0,0:0:0:0:
128,192,105306,1,0,0:0:0:0:
304,304,105375,6,0,L|384:304,1,44.999998626709,2|0,0:0|0:0,0:0:0:0:
160,224,105510,1,0,0:0:0:0:
304,224,105577,1,0,0:0:0:0:
160,304,105645,2,0,L|240:304,1,44.999998626709,2|0,0:0|0:0,0:0:0:0:
400,224,105780,1,0,0:0:0:0:
336,224,105847,1,0,0:0:0:0:
480,160,105915,1,2,0:0:0:0:
288,112,105983,2,0,L|368:112,1,44.999998626709
160,64,106118,1,0,0:0:0:0:
368,64,106185,1,2,0:0:0:0:
304,64,106253,1,0,0:0:0:0:
448,48,106320,1,2,0:0:0:0:
384,48,106388,1,0,0:0:0:0:
112,192,106455,5,2,0:0:0:0:
281,192,106523,1,0,0:0:0:0:
231,192,106590,1,0,0:0:0:0:
400,192,106658,1,0,0:0:0:0:
112,192,106725,1,2,0:0:0:0:
281,192,106793,1,0,0:0:0:0:
231,192,106860,1,0,0:0:0:0:
400,192,106928,1,0,0:0:0:0:
112,192,106995,1,2,0:0:0:0:
281,192,107063,1,0,0:0:0:0:
231,192,107130,1,0,0:0:0:0:
400,192,107198,1,0,0:0:0:0:
112,192,107265,1,2,0:0:0:0:
281,192,107333,1,0,0:0:0:0:
231,192,107402,1,0,0:0:0:0:
400,192,107468,1,0,0:0:0:0:
208,304,107536,6,0,L|128:304,1,44.999998626709,2|0,0:0|0:0,0:0:0:0:
352,224,107671,1,0,0:0:0:0:
208,224,107739,1,0,0:0:0:0:
352,304,107806,2,0,L|272:304,1,44.999998626709,2|0,0:0|0:0,0:0:0:0:
112,224,107941,1,0,0:0:0:0:
176,224,108009,1,0,0:0:0:0:
32,160,108076,1,2,0:0:0:0:
224,112,108145,2,0,L|144:112,1,44.999998626709
352,64,108280,1,0,0:0:0:0:
144,64,108347,1,2,0:0:0:0:
208,64,108415,1,0,0:0:0:0:
64,48,108482,1,2,0:0:0:0:
128,48,108550,1,0,0:0:0:0:
384,144,108618,5,2,0:0:0:0:
224,224,108685,2,0,L|288:224,1,44.999998626709,0|4,0:0|0:0,0:0:0:0:
448,208,108820,1,0,0:0:0:0:
272,160,108888,1,2,0:0:0:0:
464,112,108955,2,0,L|400:112,1,44.999998626709,0|4,0:0|0:0,0:0:0:0:
224,64,109090,1,0,0:0:0:0:
416,80,109158,2,0,L|416:144,1,44.999998626709,2|0,0:0|0:0,0:0:0:0:
256,208,109294,1,4,0:0:0:0:
416,208,109361,1,0,0:0:0:0:
224,192,109429,2,0,L|224:256,1,44.999998626709,2|0,0:0|0:0,0:0:0:0:
384,320,109565,1,4,0:0:0:0:
224,320,109632,1,0,0:0:0:0:
400,272,109699,5,2,0:0:0:0:
240,224,109766,2,0,L|304:224,2,44.999998626709,0|4|0,0:0|0:0|0:0,0:0:0:0:
432,176,109969,1,2,0:0:0:0:
272,144,110036,2,0,L|336:128,1,44.999998626709,0|4,0:0|0:0,0:0:0:0:
144,80,110172,1,0,0:0:0:0:
304,48,110240,1,2,0:0:0:0:
160,32,110307,2,0,L|176:112,1,44.999998626709,0|4,0:0|0:0,0:0:0:0:
320,128,110442,1,0,0:0:0:0:
144,192,110510,1,2,0:0:0:0:
208,192,110577,1,0,0:0:0:0:
376,272,110645,1,6,0:0:0:0:
312,272,110712,1,0,0:0:0:0:
128,144,110780,5,2,0:0:0:0:
288,224,110847,2,0,L|224:224,1,44.999998626709,0|4,0:0|0:0,0:0:0:0:
64,208,110982,1,0,0:0:0:0:
240,160,111050,1,2,0:0:0:0:
48,112,111117,2,0,L|112:112,1,44.999998626709,0|4,0:0|0:0,0:0:0:0:
288,64,111252,1,0,0:0:0:0:
96,80,111320,2,0,L|96:144,1,44.999998626709,2|0,0:0|0:0,0:0:0:0:
256,208,111455,1,4,0:0:0:0:
96,208,111523,1,0,0:0:0:0:
288,192,111590,2,0,L|288:256,1,44.999998626709,2|0,0:0|0:0,0:0:0:0:
128,320,111726,1,4,0:0:0:0:
288,320,111794,1,0,0:0:0:0:
112,272,111860,5,2,0:0:0:0:
272,224,111928,2,0,L|208:224,2,44.999998626709,0|4|0,0:0|0:0|0:0,0:0:0:0:
80,176,112130,1,2,0:0:0:0:
240,144,112198,2,0,L|176:128,1,44.999998626709,0|4,0:0|0:0,0:0:0:0:
368,80,112334,1,0,0:0:0:0:
208,48,112401,1,2,0:0:0:0:
352,32,112469,2,0,L|336:112,1,44.999998626709,0|4,0:0|0:0,0:0:0:0:
192,128,112604,1,0,0:0:0:0:
368,192,112671,1,2,0:0:0:0:
320,192,112739,1,0,0:0:0:0:
448,272,112806,1,6,0:0:0:0:
400,272,112874,1,0,0:0:0:0:
160,208,112942,5,2,0:0:0:0:
304,160,113010,1,0,0:0:0:0:
256,160,113077,1,4,0:0:0:0:
400,144,113145,1,0,0:0:0:0:
144,208,113212,1,10,0:0:0:0:
288,160,113280,1,0,0:0:0:0:
240,160,113347,1,4,0:0:0:0:
384,144,113415,1,0,0:0:0:0:
128,208,113483,1,2,0:0:0:0:
272,160,113550,1,0,0:0:0:0:
224,160,113618,1,4,0:0:0:0:
368,144,113685,1,0,0:0:0:0:
112,208,113753,1,10,0:0:0:0:
256,160,113820,1,0,0:0:0:0:
208,160,113888,1,4,0:0:0:0:
352,144,113955,1,0,0:0:0:0:
192,80,114023,5,2,0:0:0:0:
352,48,114090,2,0,L|352:112,1,44.999998626709,0|4,0:0|0:0,0:0:0:0:
208,176,114225,1,0,0:0:0:0:
384,192,114294,2,0,L|304:192,1,44.999998626709,10|0,0:0|0:0,0:0:0:0:
480,128,114429,1,4,0:0:0:0:
304,128,114496,1,0,0:0:0:0:
461,203,114564,2,0,L|401:197,1,44.999998626709,2|0,0:0|0:0,0:0:0:0:
235,242,114699,1,4,0:0:0:0:
383,223,114766,1,0,0:0:0:0:
222,199,114834,2,0,L|290:202,1,44.999998626709,10|0,0:0|0:0,0:0:0:0:
129,148,114969,2,0,L|197:151,1,44.999998626709,6|0,0:0|0:0,0:0:0:0:
41,248,115104,5,2,0:0:0:0:
267,180,115172,2,0,L|202:183,1,44.999998626709,0|4,0:0|0:0,0:0:0:0:
41,248,115307,1,0,0:0:0:0:
207,182,115375,1,10,0:0:0:0:
41,248,115442,1,0,0:0:0:0:
207,182,115510,2,0,L|281:175,1,44.999998626709,4|0,0:0|0:0,0:0:0:0:
106,79,115645,1,2,0:0:0:0:
303,38,115712,2,0,L|290:101,1,44.999998626709,0|4,0:0|0:0,0:0:0:0:
139,124,115847,1,0,0:0:0:0:
335,164,115915,1,10,0:0:0:0:
182,263,115983,2,0,L|262:260,1,44.999998626709,0|4,0:0|0:0,0:0:0:0:
414,210,116118,1,0,0:0:0:0:
215,196,116185,6,0,L|212:257,1,44.999998626709,2|0,0:0|0:0,0:0:0:0:
383,272,116320,1,4,0:0:0:0:
229,284,116388,1,0,0:0:0:0:
392,231,116455,1,10,0:0:0:0:
336,208,116523,1,0,0:0:0:0:
395,194,116590,1,4,0:0:0:0:
339,171,116658,1,0,0:0:0:0:
157,97,116725,1,2,0:0:0:0:
314,58,116793,1,0,0:0:0:0:
310,105,116861,1,4,0:0:0:0:
157,97,116929,1,0,0:0:0:0:
310,184,116996,1,10,0:0:0:0:
368,176,117064,1,0,0:0:0:0:
310,184,117131,1,6,0:0:0:0:
452,170,117199,1,0,0:0:0:0:
257,185,117266,6,0,L|269:262,1,44.999998626709,2|0,0:0|0:0,0:0:0:0:
415,284,117401,1,4,0:0:0:0:
263,276,117469,1,0,0:0:0:0:
419,258,117536,1,10,0:0:0:0:
241,216,117604,2,0,L|162:224,2,44.999998626709,0|4|0,0:0|0:0|0:0,0:0:0:0:
398,146,117807,1,2,0:0:0:0:
215,80,117875,2,0,L|279:77,1,44.999998626709,0|4,0:0|0:0,0:0:0:0:
426,66,118010,1,0,0:0:0:0:
264,138,118077,1,10,0:0:0:0:
328,151,118145,1,0,0:0:0:0:
264,138,118212,1,4,0:0:0:0:
328,151,118280,1,0,0:0:0:0:
181,229,118347,6,0,L|179:298,1,44.999998626709,2|0,0:0|0:0,0:0:0:0:
342,318,118483,2,0,L|269:319,1,44.999998626709,4|0,0:0|0:0,0:0:0:0:
97,286,118618,1,10,0:0:0:0:
244,255,118685,1,0,0:0:0:0:
254,206,118753,1,4,0:0:0:0:
88,187,118820,1,0,0:0:0:0:
254,206,118888,1,2,0:0:0:0:
106,121,118955,2,0,L|111:200,1,44.999998626709,0|4,0:0|0:0,0:0:0:0:
306,156,119090,1,0,0:0:0:0:
155,66,119158,2,0,L|214:62,1,44.999998626709,10|0,0:0|0:0,0:0:0:0:
70,119,119293,2,0,L|129:115,1,44.999998626709,6|0,0:0|0:0,0:0:0:0:
311,238,119429,6,0,L|240:240,1,44.999998626709,2|0,0:0|0:0,0:0:0:0:
352,176,119564,2,0,L|272:177,1,44.999998626709,4|0,0:0|0:0,0:0:0:0:
384,112,119699,2,0,L|312:115,1,44.999998626709,10|0,0:0|0:0,0:0:0:0:
416,48,119834,2,0,L|328:40,1,44.999998626709,4|0,0:0|0:0,0:0:0:0:
162,249,119969,2,0,L|248:248,1,44.999998626709,2|0,0:0|0:0,0:0:0:0:
61,189,120104,2,0,L|144:192,1,44.999998626709,4|0,0:0|0:0,0:0:0:0:
292,172,120240,2,0,L|208:176,1,44.999998626709,10|0,0:0|0:0,0:0:0:0:
393,112,120375,2,0,L|312:112,1,44.999998626709,4|0,0:0|0:0,0:0:0:0:
494,218,120510,6,0,L|426:213,1,44.999998626709,2|0,0:0|0:0,0:0:0:0:
272,289,120645,1,4,0:0:0:0:
414,271,120712,1,0,0:0:0:0:
224,192,120780,1,10,0:0:0:0:
288,192,120847,1,0,0:0:0:0:
224,192,120915,1,4,0:0:0:0:
288,192,120982,1,0,0:0:0:0:
128,192,121050,1,2,0:0:0:0:
192,192,121118,1,0,0:0:0:0:
128,192,121185,1,4,0:0:0:0:
192,192,121253,1,0,0:0:0:0:
32,192,121320,1,10,0:0:0:0:
96,192,121388,1,0,0:0:0:0:
288,192,121455,1,6,0:0:0:0:
96,192,121523,1,0,0:0:0:0:
288,256,121590,6,0,L|208:256,1,44.999998626709,2|0,0:0|0:0,0:0:0:0:
384,224,121725,2,0,L|320:224,1,44.999998626709,4|0,0:0|0:0,0:0:0:0:
480,192,121861,2,0,L|400:192,1,44.999998626709,10|0,0:0|0:0,0:0:0:0:
256,176,121996,1,4,0:0:0:0:
416,144,122064,1,0,0:0:0:0:
256,208,122131,2,0,L|336:208,1,44.999998626709,2|0,0:0|0:0,0:0:0:0:
160,176,122266,2,0,L|224:176,1,44.999998626709,4|0,0:0|0:0,0:0:0:0:
64,144,122402,2,0,L|144:144,1,44.999998626709,10|0,0:0|0:0,0:0:0:0:
288,128,122537,1,4,0:0:0:0:
128,96,122605,1,0,0:0:0:0:
331,229,122672,6,0,L|333:298,1,44.999998626709,2|0,0:0|0:0,0:0:0:0:
170,318,122808,2,0,L|243:319,1,44.999998626709,4|0,0:0|0:0,0:0:0:0:
415,286,122943,1,10,0:0:0:0:
268,255,123010,1,0,0:0:0:0:
258,206,123078,1,4,0:0:0:0:
424,187,123145,1,0,0:0:0:0:
258,206,123213,1,2,0:0:0:0:
406,121,123280,2,0,L|401:200,1,44.999998626709,0|4,0:0|0:0,0:0:0:0:
206,156,123415,1,0,0:0:0:0:
357,66,123483,2,0,L|298:62,1,44.999998626709,10|0,0:0|0:0,0:0:0:0:
442,119,123618,2,0,L|383:115,1,44.999998626709,6|0,0:0|0:0,0:0:0:0:
208,256,123753,6,0,L|288:240,1,44.999998626709,2|0,0:0|0:0,0:0:0:0:
112,176,123888,1,4,0:0:0:0:
272,176,123955,1,0,0:0:0:0:
112,224,124023,2,0,L|200:232,1,44.999998626709,10|0,0:0|0:0,0:0:0:0:
336,192,124158,1,4,0:0:0:0:
176,192,124225,1,0,0:0:0:0:
352,144,124293,2,0,L|272:144,1,44.999998626709,2|0,0:0|0:0,0:0:0:0:
464,96,124429,1,4,0:0:0:0:
288,96,124496,1,0,0:0:0:0:
464,176,124564,2,0,L|384:176,1,44.999998626709,10|0,0:0|0:0,0:0:0:0:
240,224,124699,1,4,0:0:0:0:
400,224,124766,1,0,0:0:0:0:
192,176,124834,6,0,L|208:256,1,44.999998626709,2|0,0:0|0:0,0:0:0:0:
368,272,124969,1,4,0:0:0:0:
208,272,125036,1,0,0:0:0:0:
48,272,125104,2,0,L|112:272,1,44.999998626709,10|0,0:0|0:0,0:0:0:0:
256,224,125240,2,0,L|192:224,1,44.999998626709,4|0,0:0|0:0,0:0:0:0:
400,176,125375,1,2,0:0:0:0:
256,160,125442,1,0,0:0:0:0:
416,96,125510,2,0,L|400:160,1,44.999998626709,4|0,0:0|0:0,0:0:0:0:
192,224,125645,1,10,0:0:0:0:
240,224,125712,1,0,0:0:0:0:
80,224,125780,1,6,0:0:0:0:
128,224,125847,1,0,0:0:0:0:
352,128,125915,6,0,L|336:192,1,44.999998626709,2|0,0:0|0:0,0:0:0:0:
192,240,126050,1,4,0:0:0:0:
352,240,126118,1,0,0:0:0:0:
192,160,126185,1,10,0:0:0:0:
368,160,126253,1,0,0:0:0:0:
176,96,126320,2,0,L|240:96,1,44.999998626709,4|0,0:0|0:0,0:0:0:0:
416,48,126455,1,2,0:0:0:0:
240,128,126523,2,0,L|320:128,1,44.999998626709,0|4,0:0|0:0,0:0:0:0:
464,112,126658,1,0,0:0:0:0:
288,64,126725,2,0,L|280:144,1,44.999998626709,10|0,0:0|0:0,0:0:0:0:
448,208,126861,2,0,L|368:208,1,44.999998626709,4|0,0:0|0:0,0:0:0:0:
112,272,126996,5,2,0:0:0:0:
336,224,127064,1,0,0:0:0:0:
176,224,127131,1,4,0:0:0:0:
400,272,127199,1,0,0:0:0:0:
112,272,127266,1,10,0:0:0:0:
336,224,127334,1,0,0:0:0:0:
176,224,127401,1,4,0:0:0:0:
400,272,127469,1,0,0:0:0:0:
112,272,127536,1,2,0:0:0:0:
282,202,127604,1,0,0:0:0:0:
229,202,127671,1,4,0:0:0:0:
400,272,127739,1,0,0:0:0:0:
112,272,127807,1,10,0:0:0:0:
282,202,127875,1,0,0:0:0:0:
229,202,127942,1,6,0:0:0:0:
400,272,128010,1,0,0:0:0:0:
208,128,128077,6,0,L|272:128,1,44.999998626709,6|0,0:0|0:0,0:0:0:0:
48,80,128212,2,0,L|108:80,1,44.999998626709,6|0,0:0|0:0,0:0:0:0:
320,144,128347,1,14,0:0:0:0:
272,144,128415,1,0,0:0:0:0:
464,208,128483,1,6,0:0:0:0:
416,208,128550,1,0,0:0:0:0:
48,80,128618,2,0,L|112:64,1,44.999998626709,6|0,0:0|0:0,0:0:0:0:
400,64,128753,2,0,L|384:144,1,44.999998626709,6|0,0:0|0:0,0:0:0:0:
224,144,128888,1,14,0:0:0:0:
280,144,128955,1,0,0:0:0:0:
464,192,129023,1,6,0:0:0:0:
408,192,129090,1,0,0:0:0:0:
184,192,129158,5,2,0:0:0:0:
328,192,129225,1,2,0:0:0:0:
176,192,129293,1,2,0:0:0:0:
336,192,129360,1,2,0:0:0:0:
168,192,129429,1,2,0:0:0:0:
344,192,129496,1,2,0:0:0:0:
160,192,129564,1,2,0:0:0:0:
352,192,129631,1,2,0:0:0:0:
152,192,129699,1,2,0:0:0:0:
360,192,129766,1,2,0:0:0:0:
144,192,129834,1,2,0:0:0:0:
368,192,129901,1,2,0:0:0:0:
136,192,129969,1,2,0:0:0:0:
376,192,130036,1,2,0:0:0:0:
128,192,130104,1,2,0:0:0:0:
384,192,130171,1,2,0:0:0:0:
