osu file format v14

[General]
AudioFilename: rqex.mp3
AudioLeadIn: 0
PreviewTime: 125072
Countdown: 0
SampleSet: Soft
StackLeniency: 0.7
Mode: 2
LetterboxInBreaks: 0
WidescreenStoryboard: 1

[Editor]
DistanceSpacing: 0.9
BeatDivisor: 4
GridSize: 8
TimelineZoom: 2.699999

[Metadata]
Title:Rayquaza ex
TitleUnicode:Rayquaza ex
Artist:Exodia
ArtistUnicode:Exodia
Creator:fayew
Version:185 bpm
Source:
Tags:3xod1a electronic instrumental techno skill issue lol skill_issue_lol jump practice rates tech
BeatmapID:3821623
BeatmapSetID:1859102

[Difficulty]
HPDrainRate:3
CircleSize:3.8
OverallDifficulty:10
ApproachRate:10
SliderMultiplier:2
SliderTickRate:2

[Events]
//Background and Video events
0,0,"shiny-mega-rayquaza.png",0,0
//Break Periods
//Storyboard Layer 0 (Background)
//Storyboard Layer 1 (Fail)
//Storyboard Layer 2 (Pass)
//Storyboard Layer 3 (Foreground)
//Storyboard Layer 4 (Overlay)
//Storyboard Sound Samples

[TimingPoints]
-16,357.142857142857,4,2,0,10,1,0
8555,-100,4,2,2,30,0,0
51412,-100,4,2,2,50,0,0
114269,352.941176470588,4,2,2,50,1,0
115680,350.877192982456,4,2,2,50,1,0
117083,348.837209302326,4,2,2,50,1,0
118478,344.827586206897,4,2,2,50,1,0
119857,337.078651685393,4,2,2,50,1,0
121205,333.333333333333,4,2,2,50,1,0
122538,329.670329670329,4,2,2,50,1,0
123856,324.324324324324,4,2,2,50,1,0
125153,324.324324324324,4,2,3,60,1,0
125153,-83.3333333333333,4,2,3,60,0,1
155234,-83.3333333333333,4,2,3,65,0,1
155477,-83.3333333333333,4,2,3,70,0,1
155801,-83.3333333333333,4,2,3,75,0,1
155963,-83.3333333333333,4,2,3,80,0,1
156288,-10,4,2,2,60,0,0
177044,-10,4,2,3,60,0,0

[Colours]
Combo1 : 128,0,255
Combo2 : 255,0,0
Combo3 : 253,108,2
Combo4 : 255,255,0
Combo5 : 0,255,0
Combo6 : 0,255,255
Combo7 : 0,0,255

[HitObjects]
368,208,114269,6,0,L|384:144,2,50,0|0|2,0:0|0:0|0:1,0:0:0:0:
288,240,114533,2,0,L|352:240,2,50,0|0|2,0:0|0:0|0:1,0:0:0:0:
208,224,114798,2,0,L|192:160,2,50,0|0|2,0:0|0:0|0:1,0:0:0:0:
288,256,115062,2,0,L|224:256,2,50,0|0|2,0:0|0:0|0:1,0:0:0:0:
368,208,115327,1,0,0:0:0:0:
288,208,115416,1,0,0:0:0:0:
208,208,115504,1,2,0:1:0:0:
128,208,115593,1,0,0:0:0:0:
256,80,115680,5,0,0:0:0:0:
302,94,115767,1,0,0:0:0:0:
320,139,115855,1,2,0:1:0:0:
297,181,115943,1,0,0:0:0:0:
208,96,116030,1,0,0:0:0:0:
161,110,116117,1,2,0:1:0:0:
143,155,116205,1,0,0:0:0:0:
166,197,116293,1,0,0:0:0:0:
272,240,116381,2,0,L|176:240,2,50,2|0|0,0:1|0:0|0:0,0:0:0:0:
352,176,116644,1,2,0:1:0:0:
256,112,116732,2,0,L|320:96,1,50
400,64,116908,2,0,L|464:64,1,50,2|0,0:1|0:0,0:0:0:0:
336,144,117083,6,0,L|272:128,2,50,0|0|2,0:0|0:0|0:1,0:0:0:0:
272,208,117344,2,0,L|208:192,2,50,0|0|2,0:0|0:0|0:1,0:0:0:0:
352,192,117606,2,0,L|416:176,2,50,0|0|2,0:0|0:0|0:1,0:0:0:0:
416,256,117867,2,0,L|480:240,2,50,0|0|2,0:0|0:0|0:1,0:0:0:0:
336,272,118129,2,0,L|286:272,1,50
368,320,118303,2,0,L|418:320,1,50,2|0,0:1|0:0,0:0:0:0:
320,336,118478,6,0,L|240:336,2,50,0|0|2,0:0|0:0|0:1,0:0:0:0:
256,272,118736,2,0,L|176:272,2,50,0|0|2,0:0|0:0|0:1,0:0:0:0:
336,224,118995,2,0,L|416:224,2,50,0|0|2,0:0|0:0|0:1,0:0:0:0:
400,160,119253,2,0,L|480:160,2,50,0|0|2,0:0|0:0|0:1,0:0:0:0:
304,96,119512,2,0,L|368:96,1,50
288,32,119684,2,0,L|208:32,1,50,2|0,0:1|0:0,0:0:0:0:
432,48,119857,5,2,0:0:0:0:
272,112,119941,2,0,L|272:176,1,50,0|8,0:0|0:1,0:0:0:0:
352,176,120109,2,0,L|352:240,2,50,0|0|8,0:0|0:0|0:1,0:0:0:0:
176,240,120362,1,2,0:0:0:0:
352,256,120446,2,0,L|352:176,1,50,0|8,0:0|0:1,0:0:0:0:
272,176,120615,2,0,L|176:176,2,50,0|0|8,0:0|0:0|0:1,0:0:0:0:
448,96,120868,2,0,L|368:96,1,50
240,64,121036,2,0,L|304:64,1,50,2|0,0:0|0:0,0:0:0:0:
80,48,121205,5,2,0:0:0:0:
240,112,121288,2,0,L|240:176,1,50,0|8,0:0|0:1,0:0:0:0:
160,176,121455,2,0,L|160:240,2,50,0|0|8,0:0|0:0|0:1,0:0:0:0:
336,240,121705,1,2,0:0:0:0:
160,256,121788,2,0,L|160:176,1,50,0|8,0:0|0:1,0:0:0:0:
240,176,121955,2,0,L|336:176,2,50,0|0|8,0:0|0:0|0:1,0:0:0:0:
64,96,122205,2,0,L|144:96,1,50
272,64,122371,2,0,L|208:64,1,50,2|0,0:0|0:0,0:0:0:0:
432,176,122538,5,2,0:0:0:0:
272,224,122620,2,0,L|208:224,1,50,0|8,0:0|0:1,0:0:0:0:
304,160,122785,2,0,L|368:160,2,50,0|0|8,0:0|0:0|0:1,0:0:0:0:
128,96,123032,1,2,0:0:0:0:
292,13,123114,1,0,0:0:0:0:
338,23,123196,1,8,0:1:0:0:
358,67,123278,1,0,0:0:0:0:
334,109,123361,1,0,0:0:0:0:
286,115,123443,1,8,0:1:0:0:
103,103,123527,2,0,L|167:103,1,50
319,182,123691,2,0,L|239:182,1,50,2|0,0:0|0:0,0:0:0:0:
432,176,123856,5,2,0:0:0:0:
272,224,123937,2,0,L|208:224,1,50,0|8,0:0|0:1,0:0:0:0:
304,160,124099,2,0,L|368:160,2,50,0|0|8,0:0|0:0|0:1,0:0:0:0:
128,96,124342,1,2,0:0:0:0:
298,47,124423,1,0,0:0:0:0:
249,44,124504,1,8,0:1:0:0:
220,82,124585,1,0,0:0:0:0:
233,128,124666,1,0,0:0:0:0:
279,143,124747,1,8,0:1:0:0:
469,106,124828,2,0,L|419:106,1,50
242,150,124991,2,0,L|162:150,1,50,2|0,0:0|0:0,0:0:0:0:
384,192,125153,5,2,0:0:0:0:
222,192,125234,1,0,0:0:0:0:
289,192,125315,1,0,0:0:0:0:
128,192,125396,1,0,0:0:0:0:
384,192,125477,1,2,0:0:0:0:
222,192,125558,1,0,0:0:0:0:
289,192,125639,1,0,0:0:0:0:
128,192,125720,1,0,0:0:0:0:
384,192,125801,1,2,0:0:0:0:
222,192,125882,1,0,0:0:0:0:
289,192,125963,1,0,0:0:0:0:
128,192,126044,1,0,0:0:0:0:
384,192,126125,1,2,0:0:0:0:
222,192,126206,1,0,0:0:0:0:
289,192,126287,1,0,0:0:0:0:
128,192,126368,1,0,0:0:0:0:
304,304,126450,6,0,L|400:304,1,59.9999981689454,2|0,0:0|0:0,0:0:0:0:
160,224,126612,1,0,0:0:0:0:
304,224,126693,1,0,0:0:0:0:
160,304,126774,2,0,L|240:304,1,59.9999981689454,2|0,0:0|0:0,0:0:0:0:
400,224,126936,1,0,0:0:0:0:
336,224,127017,1,0,0:0:0:0:
480,160,127098,1,2,0:0:0:0:
288,112,127180,2,0,L|368:112,1,59.9999981689454
160,64,127342,1,0,0:0:0:0:
368,64,127423,1,2,0:0:0:0:
304,64,127504,1,0,0:0:0:0:
448,48,127585,1,2,0:0:0:0:
384,48,127666,1,0,0:0:0:0:
112,192,127747,5,2,0:0:0:0:
290,192,127828,1,0,0:0:0:0:
223,192,127909,1,0,0:0:0:0:
400,192,127990,1,0,0:0:0:0:
112,192,128071,1,2,0:0:0:0:
290,192,128152,1,0,0:0:0:0:
223,192,128233,1,0,0:0:0:0:
400,192,128314,1,0,0:0:0:0:
112,192,128395,1,2,0:0:0:0:
290,192,128476,1,0,0:0:0:0:
223,192,128557,1,0,0:0:0:0:
400,192,128638,1,0,0:0:0:0:
112,192,128719,1,2,0:0:0:0:
290,192,128800,1,0,0:0:0:0:
223,192,128881,1,0,0:0:0:0:
400,192,128962,1,0,0:0:0:0:
208,304,129044,6,0,L|112:304,1,59.9999981689454,2|0,0:0|0:0,0:0:0:0:
352,224,129206,1,0,0:0:0:0:
208,224,129287,1,0,0:0:0:0:
352,304,129368,2,0,L|272:304,1,59.9999981689454,2|0,0:0|0:0,0:0:0:0:
112,224,129530,1,0,0:0:0:0:
176,224,129611,1,0,0:0:0:0:
32,160,129692,1,2,0:0:0:0:
224,112,129774,2,0,L|144:112,1,59.9999981689454
352,64,129936,1,0,0:0:0:0:
144,64,130017,1,2,0:0:0:0:
208,64,130098,1,0,0:0:0:0:
64,48,130179,1,2,0:0:0:0:
128,48,130260,1,0,0:0:0:0:
384,144,130342,5,2,0:0:0:0:
224,224,130423,2,0,L|288:224,1,59.9999981689454,0|4,0:0|0:0,0:0:0:0:
448,208,130585,1,0,0:0:0:0:
272,160,130666,1,2,0:0:0:0:
464,112,130747,2,0,L|400:112,1,59.9999981689454,0|4,0:0|0:0,0:0:0:0:
224,64,130909,1,0,0:0:0:0:
416,80,130990,2,0,L|416:144,1,59.9999981689454,2|0,0:0|0:0,0:0:0:0:
256,208,131153,1,4,0:0:0:0:
416,208,131234,1,0,0:0:0:0:
224,192,131315,2,0,L|224:256,1,59.9999981689454,2|0,0:0|0:0,0:0:0:0:
384,320,131478,1,4,0:0:0:0:
224,320,131559,1,0,0:0:0:0:
400,272,131639,5,2,0:0:0:0:
240,224,131720,2,0,L|304:224,2,59.9999981689454,0|4|0,0:0|0:0|0:0,0:0:0:0:
432,176,131963,1,2,0:0:0:0:
272,144,132044,2,0,L|336:128,1,59.9999981689454,0|4,0:0|0:0,0:0:0:0:
144,80,132207,1,0,0:0:0:0:
304,48,132288,1,2,0:0:0:0:
160,32,132369,2,0,L|176:112,1,59.9999981689454,0|4,0:0|0:0,0:0:0:0:
320,128,132531,1,0,0:0:0:0:
144,192,132612,1,2,0:0:0:0:
208,192,132693,1,0,0:0:0:0:
376,272,132774,1,6,0:0:0:0:
312,272,132855,1,0,0:0:0:0:
128,144,132936,5,2,0:0:0:0:
288,224,133017,2,0,L|224:224,1,59.9999981689454,0|4,0:0|0:0,0:0:0:0:
64,208,133179,1,0,0:0:0:0:
240,160,133260,1,2,0:0:0:0:
48,112,133341,2,0,L|112:112,1,59.9999981689454,0|4,0:0|0:0,0:0:0:0:
288,64,133503,1,0,0:0:0:0:
96,80,133584,2,0,L|96:144,1,59.9999981689454,2|0,0:0|0:0,0:0:0:0:
256,208,133747,1,4,0:0:0:0:
96,208,133828,1,0,0:0:0:0:
288,192,133909,2,0,L|288:256,1,59.9999981689454,2|0,0:0|0:0,0:0:0:0:
128,320,134072,1,4,0:0:0:0:
288,320,134153,1,0,0:0:0:0:
112,272,134233,5,2,0:0:0:0:
272,224,134314,2,0,L|208:224,2,59.9999981689454,0|4|0,0:0|0:0|0:0,0:0:0:0:
80,176,134557,1,2,0:0:0:0:
240,144,134638,2,0,L|176:128,1,59.9999981689454,0|4,0:0|0:0,0:0:0:0:
368,80,134801,1,0,0:0:0:0:
208,48,134882,1,2,0:0:0:0:
352,32,134963,2,0,L|336:112,1,59.9999981689454,0|4,0:0|0:0,0:0:0:0:
192,128,135125,1,0,0:0:0:0:
368,192,135206,1,2,0:0:0:0:
304,192,135287,1,0,0:0:0:0:
448,272,135368,1,6,0:0:0:0:
384,272,135449,1,0,0:0:0:0:
160,208,135531,5,2,0:0:0:0:
304,160,135612,1,0,0:0:0:0:
256,160,135693,1,4,0:0:0:0:
400,144,135774,1,0,0:0:0:0:
144,208,135855,1,10,0:0:0:0:
288,160,135936,1,0,0:0:0:0:
240,160,136017,1,4,0:0:0:0:
384,144,136098,1,0,0:0:0:0:
128,208,136180,1,2,0:0:0:0:
272,160,136261,1,0,0:0:0:0:
224,160,136342,1,4,0:0:0:0:
368,144,136423,1,0,0:0:0:0:
112,208,136504,1,10,0:0:0:0:
256,160,136585,1,0,0:0:0:0:
208,160,136666,1,4,0:0:0:0:
352,144,136747,1,0,0:0:0:0:
192,80,136828,5,2,0:0:0:0:
352,48,136909,2,0,L|352:112,1,59.9999981689454,0|4,0:0|0:0,0:0:0:0:
208,176,137071,1,0,0:0:0:0:
384,192,137153,2,0,L|304:192,1,59.9999981689454,10|0,0:0|0:0,0:0:0:0:
480,128,137315,1,4,0:0:0:0:
304,128,137396,1,0,0:0:0:0:
461,203,137477,2,0,L|401:197,1,59.9999981689454,2|0,0:0|0:0,0:0:0:0:
235,242,137639,1,4,0:0:0:0:
383,223,137720,1,0,0:0:0:0:
222,199,137801,2,0,L|290:202,1,59.9999981689454,10|0,0:0|0:0,0:0:0:0:
129,148,137963,2,0,L|197:151,1,59.9999981689454,6|0,0:0|0:0,0:0:0:0:
41,248,138125,5,2,0:0:0:0:
267,180,138207,2,0,L|202:183,1,59.9999981689454,0|4,0:0|0:0,0:0:0:0:
41,248,138369,1,0,0:0:0:0:
207,182,138450,1,10,0:0:0:0:
41,248,138531,1,0,0:0:0:0:
207,182,138612,2,0,L|281:175,1,59.9999981689454,4|0,0:0|0:0,0:0:0:0:
106,79,138774,1,2,0:0:0:0:
303,38,138855,2,0,L|290:101,1,59.9999981689454,0|4,0:0|0:0,0:0:0:0:
139,124,139017,1,0,0:0:0:0:
335,164,139098,1,10,0:0:0:0:
182,263,139180,2,0,L|262:260,1,59.9999981689454,0|4,0:0|0:0,0:0:0:0:
414,210,139342,1,0,0:0:0:0:
215,196,139423,6,0,L|212:257,1,59.9999981689454,2|0,0:0|0:0,0:0:0:0:
383,272,139585,1,4,0:0:0:0:
229,284,139666,1,0,0:0:0:0:
392,231,139747,1,10,0:0:0:0:
320,217,139828,1,0,0:0:0:0:
395,194,139909,1,4,0:0:0:0:
323,180,139990,1,0,0:0:0:0:
157,97,140071,1,2,0:0:0:0:
314,58,140152,1,0,0:0:0:0:
310,105,140234,1,4,0:0:0:0:
157,97,140315,1,0,0:0:0:0:
310,184,140396,1,10,0:0:0:0:
381,169,140477,1,0,0:0:0:0:
310,184,140558,1,6,0:0:0:0:
452,170,140639,1,0,0:0:0:0:
257,185,140720,6,0,L|269:262,1,59.9999981689454,2|0,0:0|0:0,0:0:0:0:
415,284,140882,1,4,0:0:0:0:
263,276,140963,1,0,0:0:0:0:
419,258,141044,1,10,0:0:0:0:
241,216,141125,2,0,L|162:224,2,59.9999981689454,0|4|0,0:0|0:0|0:0,0:0:0:0:
398,146,141369,1,2,0:0:0:0:
215,80,141450,2,0,L|279:77,1,59.9999981689454,0|4,0:0|0:0,0:0:0:0:
426,66,141612,1,0,0:0:0:0:
264,138,141693,1,10,0:0:0:0:
328,151,141774,1,0,0:0:0:0:
264,138,141855,1,4,0:0:0:0:
328,151,141936,1,0,0:0:0:0:
181,229,142017,6,0,L|179:298,1,59.9999981689454,2|0,0:0|0:0,0:0:0:0:
342,318,142180,2,0,L|269:319,1,59.9999981689454,4|0,0:0|0:0,0:0:0:0:
97,286,142342,1,10,0:0:0:0:
244,255,142423,1,0,0:0:0:0:
254,206,142504,1,4,0:0:0:0:
88,187,142585,1,0,0:0:0:0:
254,206,142666,1,2,0:0:0:0:
106,121,142747,2,0,L|111:200,1,59.9999981689454,0|4,0:0|0:0,0:0:0:0:
306,156,142909,1,0,0:0:0:0:
155,66,142990,2,0,L|214:62,1,59.9999981689454,10|0,0:0|0:0,0:0:0:0:
70,119,143152,2,0,L|129:115,1,59.9999981689454,6|0,0:0|0:0,0:0:0:0:
311,238,143315,6,0,L|220:240,1,59.9999981689454,2|0,0:0|0:0,0:0:0:0:
344,175,143477,2,0,L|253:177,1,59.9999981689454,4|0,0:0|0:0,0:0:0:0:
368,109,143639,2,0,L|277:111,1,59.9999981689454,10|0,0:0|0:0,0:0:0:0:
397,45,143801,2,0,L|306:47,1,59.9999981689454,4|0,0:0|0:0,0:0:0:0:
162,249,143963,2,0,L|263:249,1,59.9999981689454,2|0,0:0|0:0,0:0:0:0:
61,189,144125,2,0,L|162:189,1,59.9999981689454,4|0,0:0|0:0,0:0:0:0:
292,172,144288,2,0,L|191:172,1,59.9999981689454,10|0,0:0|0:0,0:0:0:0:
393,112,144450,2,0,L|292:112,1,59.9999981689454,4|0,0:0|0:0,0:0:0:0:
494,218,144612,6,0,L|426:213,1,59.9999981689454,2|0,0:0|0:0,0:0:0:0:
272,289,144774,1,4,0:0:0:0:
414,271,144855,1,0,0:0:0:0:
224,192,144936,1,10,0:0:0:0:
304,192,145017,1,0,0:0:0:0:
224,192,145098,1,4,0:0:0:0:
304,192,145179,1,0,0:0:0:0:
128,192,145261,1,2,0:0:0:0:
208,192,145342,1,0,0:0:0:0:
128,192,145423,1,4,0:0:0:0:
208,192,145504,1,0,0:0:0:0:
32,192,145585,1,10,0:0:0:0:
112,192,145666,1,0,0:0:0:0:
288,192,145747,1,6,0:0:0:0:
112,192,145828,1,0,0:0:0:0:
288,256,145909,6,0,L|208:256,1,59.9999981689454,2|0,0:0|0:0,0:0:0:0:
384,224,146071,2,0,L|320:224,1,59.9999981689454,4|0,0:0|0:0,0:0:0:0:
480,192,146234,2,0,L|400:192,1,59.9999981689454,10|0,0:0|0:0,0:0:0:0:
256,176,146396,1,4,0:0:0:0:
416,144,146477,1,0,0:0:0:0:
256,208,146558,2,0,L|336:208,1,59.9999981689454,2|0,0:0|0:0,0:0:0:0:
160,176,146720,2,0,L|224:176,1,59.9999981689454,4|0,0:0|0:0,0:0:0:0:
64,144,146883,2,0,L|144:144,1,59.9999981689454,10|0,0:0|0:0,0:0:0:0:
288,128,147045,1,4,0:0:0:0:
128,96,147126,1,0,0:0:0:0:
331,229,147207,6,0,L|333:298,1,59.9999981689454,2|0,0:0|0:0,0:0:0:0:
170,318,147370,2,0,L|243:319,1,59.9999981689454,4|0,0:0|0:0,0:0:0:0:
415,286,147532,1,10,0:0:0:0:
268,255,147613,1,0,0:0:0:0:
258,206,147694,1,4,0:0:0:0:
424,187,147775,1,0,0:0:0:0:
258,206,147856,1,2,0:0:0:0:
406,121,147937,2,0,L|401:200,1,59.9999981689454,0|4,0:0|0:0,0:0:0:0:
206,156,148099,1,0,0:0:0:0:
357,66,148180,2,0,L|298:62,1,59.9999981689454,10|0,0:0|0:0,0:0:0:0:
442,119,148342,2,0,L|383:115,1,59.9999981689454,6|0,0:0|0:0,0:0:0:0:
208,256,148504,6,0,L|288:240,1,59.9999981689454,2|0,0:0|0:0,0:0:0:0:
112,176,148666,1,4,0:0:0:0:
272,176,148747,1,0,0:0:0:0:
112,224,148828,2,0,L|224:240,1,59.9999981689454,10|0,0:0|0:0,0:0:0:0:
336,192,148990,1,4,0:0:0:0:
176,192,149071,1,0,0:0:0:0:
352,144,149152,2,0,L|256:144,1,59.9999981689454,2|0,0:0|0:0,0:0:0:0:
464,96,149315,1,4,0:0:0:0:
288,96,149396,1,0,0:0:0:0:
464,176,149477,2,0,L|384:176,1,59.9999981689454,10|0,0:0|0:0,0:0:0:0:
240,224,149639,1,4,0:0:0:0:
400,224,149720,1,0,0:0:0:0:
192,176,149801,6,0,L|208:272,1,59.9999981689454,2|0,0:0|0:0,0:0:0:0:
368,272,149963,1,4,0:0:0:0:
208,272,150044,1,0,0:0:0:0:
48,272,150125,2,0,L|112:272,1,59.9999981689454,10|0,0:0|0:0,0:0:0:0:
256,224,150288,2,0,L|192:224,1,59.9999981689454,4|0,0:0|0:0,0:0:0:0:
400,176,150450,1,2,0:0:0:0:
256,160,150531,1,0,0:0:0:0:
416,96,150612,2,0,L|400:160,1,59.9999981689454,4|0,0:0|0:0,0:0:0:0:
192,224,150774,1,10,0:0:0:0:
256,224,150855,1,0,0:0:0:0:
80,224,150936,1,6,0:0:0:0:
144,224,151017,1,0,0:0:0:0:
352,128,151098,6,0,L|336:192,1,59.9999981689454,2|0,0:0|0:0,0:0:0:0:
192,240,151261,1,4,0:0:0:0:
352,240,151342,1,0,0:0:0:0:
192,160,151423,1,10,0:0:0:0:
368,160,151504,1,0,0:0:0:0:
176,96,151585,2,0,L|240:96,1,59.9999981689454,4|0,0:0|0:0,0:0:0:0:
416,48,151747,1,2,0:0:0:0:
240,128,151828,2,0,L|320:128,1,59.9999981689454,0|4,0:0|0:0,0:0:0:0:
464,112,151990,1,0,0:0:0:0:
288,64,152071,2,0,L|272:160,1,59.9999981689454,10|0,0:0|0:0,0:0:0:0:
448,208,152234,2,0,L|368:208,1,59.9999981689454,4|0,0:0|0:0,0:0:0:0:
112,272,152396,5,2,0:0:0:0:
336,224,152477,1,0,0:0:0:0:
176,224,152558,1,4,0:0:0:0:
400,272,152639,1,0,0:0:0:0:
112,272,152720,1,10,0:0:0:0:
336,224,152801,1,0,0:0:0:0:
176,224,152882,1,4,0:0:0:0:
400,272,152963,1,0,0:0:0:0:
112,272,153044,1,2,0:0:0:0:
282,202,153125,1,0,0:0:0:0:
229,202,153206,1,4,0:0:0:0:
400,272,153287,1,0,0:0:0:0:
112,272,153369,1,10,0:0:0:0:
282,202,153450,1,0,0:0:0:0:
229,202,153531,1,6,0:0:0:0:
400,272,153612,1,0,0:0:0:0:
208,128,153693,6,0,L|272:128,1,59.9999981689454,6|0,0:0|0:0,0:0:0:0:
48,80,153855,2,0,L|108:80,1,59.9999981689454,6|0,0:0|0:0,0:0:0:0:
320,144,154017,1,14,0:0:0:0:
256,144,154098,1,0,0:0:0:0:
464,208,154180,1,6,0:0:0:0:
400,208,154261,1,0,0:0:0:0:
48,80,154342,2,0,L|112:64,1,59.9999981689454,6|0,0:0|0:0,0:0:0:0:
400,64,154504,2,0,L|384:144,1,59.9999981689454,6|0,0:0|0:0,0:0:0:0:
224,144,154666,1,14,0:0:0:0:
272,144,154747,1,0,0:0:0:0:
464,192,154828,1,6,0:0:0:0:
384,192,154909,1,0,0:0:0:0:
184,192,154990,5,2,0:0:0:0:
328,192,155071,1,2,0:0:0:0:
176,192,155152,1,2,0:0:0:0:
336,192,155233,1,2,0:0:0:0:
168,192,155315,1,2,0:0:0:0:
344,192,155396,1,2,0:0:0:0:
160,192,155477,1,2,0:0:0:0:
352,192,155558,1,2,0:0:0:0:
152,192,155639,1,2,0:0:0:0:
360,192,155720,1,2,0:0:0:0:
144,192,155801,1,2,0:0:0:0:
368,192,155882,1,2,0:0:0:0:
136,192,155963,1,2,0:0:0:0:
376,192,156044,1,2,0:0:0:0:
128,192,156125,1,2,0:0:0:0:
384,192,156206,1,2,0:0:0:0:
