osu file format v14

[General]
AudioFilename: audio.mp3
AudioLeadIn: 0
PreviewTime: -1
Countdown: 0
SampleSet: None
StackLeniency: 0.7
Mode: 0
LetterboxInBreaks: 0
WidescreenStoryboard: 1

[Editor]
DistanceSpacing: 2
BeatDivisor: 4
GridSize: 4
TimelineZoom: 1.4

[Metadata]
Title:Soulless 6
TitleUnicode:Soulless 6
Artist:ExileLord
ArtistUnicode:ExileLord
Creator:dragonworm
Version:Shapes
Source:Guitar Hero Customs
Tags:gh3
BeatmapID:1674625
BeatmapSetID:797391

[Difficulty]
HPDrainRate:5
CircleSize:4
OverallDifficulty:8
ApproachRate:10
SliderMultiplier:2
SliderTickRate:1

[Events]
//Background and Video events
//Break Periods
//Storyboard Layer 0 (Background)
//Storyboard Layer 1 (Fail)
//Storyboard Layer 2 (Pass)
//Storyboard Layer 3 (Foreground)
//Storyboard Sound Samples

[TimingPoints]
17097,375,4,1,0,100,1,0

[HitObjects]
192,128,17097,5,0,0:0:0:0:
320,128,17284,1,0,0:0:0:0:
320,256,17472,1,0,0:0:0:0:
192,256,17659,1,0,0:0:0:0:
96,64,17847,5,0,0:0:0:0:
96,288,18034,1,0,0:0:0:0:
288,192,18222,5,0,0:0:0:0:
64,160,18409,1,0,0:0:0:0:
224,320,18597,5,0,0:0:0:0:
384,160,18784,1,0,0:0:0:0:
176,240,18972,5,0,0:0:0:0:
336,96,19159,1,0,0:0:0:0:
80,288,19347,5,0,0:0:0:0:
304,320,19535,1,0,0:0:0:0:
192,128,19722,5,0,0:0:0:0:
144,336,19909,1,0,0:0:0:0:
320,192,20097,5,0,0:0:0:0:
96,224,20284,1,0,0:0:0:0:
288,336,20472,5,0,0:0:0:0:
224,128,20659,1,0,0:0:0:0:
400,272,20847,5,0,0:0:0:0:
320,64,21034,1,0,0:0:0:0:
192,240,21222,5,0,0:0:0:0:
64,64,21409,1,0,0:0:0:0:
112,288,21597,5,0,0:0:0:0:
160,176,21690,1,0,0:0:0:0:
240,256,21784,1,0,0:0:0:0:
80,96,21972,5,0,0:0:0:0:
192,144,22065,1,0,0:0:0:0:
112,224,22159,1,0,0:0:0:0:
288,80,22347,5,0,0:0:0:0:
240,192,22440,1,0,0:0:0:0:
160,112,22534,1,0,0:0:0:0:
256,304,22722,5,0,0:0:0:0:
144,256,22815,1,0,0:0:0:0:
224,176,22909,1,0,0:0:0:0:
432,240,23097,6,0,L|384:144,1,100
176,192,23472,2,0,L|80:128,1,100
304,80,23847,6,0,L|256:192,1,100
96,320,24222,2,0,L|240:320,1,100
368,176,24597,5,0,0:0:0:0:
160,224,24784,1,0,0:0:0:0:
32,48,24972,5,0,0:0:0:0:
240,128,25159,1,0,0:0:0:0:
48,240,25347,6,0,L|128:144,1,100
288,304,25722,2,0,L|192:240,1,100
112,64,26097,5,0,0:0:0:0:
80,256,26284,1,0,0:0:0:0:
192,96,26472,6,0,L|192:240,1,100
368,96,26847,5,0,0:0:0:0:
336,288,27034,1,0,0:0:0:0:
448,128,27222,6,0,L|448:272,1,100
272,144,27597,5,0,0:0:0:0:
96,224,27784,1,0,0:0:0:0:
288,304,27972,5,0,0:0:0:0:
176,144,28159,1,0,0:0:0:0:
368,96,28347,5,0,0:0:0:0:
224,224,28534,1,0,0:0:0:0:
416,176,28722,5,0,0:0:0:0:
256,304,28909,1,0,0:0:0:0:
256,192,29097,12,0,34722,0:0:0:0:
80,96,35097,6,0,L|192:160,1,100
368,112,35472,2,0,L|288:208,1,100
144,320,35847,5,0,0:0:0:0:
160,128,36034,1,0,0:0:0:0:
224,320,36222,5,0,0:0:0:0:
240,128,36409,1,0,0:0:0:0:
304,320,36597,6,0,L|304:208,1,100
144,112,36972,2,0,L|240:64,1,100
208,272,37347,5,0,0:0:0:0:
368,160,37534,1,0,0:0:0:0:
160,160,37722,5,0,0:0:0:0:
336,240,37909,1,0,0:0:0:0:
144,256,38097,5,0,0:0:0:0:
272,112,38284,1,0,0:0:0:0:
288,304,38472,1,0,0:0:0:0:
160,160,38659,1,0,0:0:0:0:
352,128,38847,5,0,0:0:0:0:
432,304,39034,1,0,0:0:0:0:
480,112,39222,1,0,0:0:0:0:
288,80,39409,1,0,0:0:0:0:
192,256,39597,6,0,L|208:224,1,25
96,128,39784,2,0,L|112:96,1,25
240,160,39972,6,0,L|272:176,1,25
368,64,40159,2,0,L|400:80,1,25
192,256,40347,6,0,L|208:224,1,25
96,128,40534,2,0,L|112:96,1,25
240,160,40722,6,0,L|272:176,1,25
368,64,40909,2,0,L|400:80,1,25
344,84,41097,5,0,0:0:0:0:
316,96,41190,1,0,0:0:0:0:
292,116,41284,1,0,0:0:0:0:
276,140,41378,1,0,0:0:0:0:
264,168,41472,1,0,0:0:0:0:
256,196,41565,1,0,0:0:0:0:
256,228,41659,1,0,0:0:0:0:
272,252,41753,1,0,0:0:0:0:
288,276,41847,5,0,0:0:0:0:
308,300,41940,1,0,0:0:0:0:
332,316,42034,1,0,0:0:0:0:
360,328,42128,1,0,0:0:0:0:
392,328,42222,1,0,0:0:0:0:
420,320,42315,1,0,0:0:0:0:
444,300,42409,1,0,0:0:0:0:
460,272,42503,1,0,0:0:0:0:
464,244,42597,5,0,0:0:0:0:
456,216,42690,1,0,0:0:0:0:
444,188,42784,1,0,0:0:0:0:
428,160,42878,1,0,0:0:0:0:
408,140,42972,1,0,0:0:0:0:
380,128,43065,1,0,0:0:0:0:
352,120,43159,1,0,0:0:0:0:
320,120,43253,1,0,0:0:0:0:
292,116,43347,5,0,0:0:0:0:
264,116,43440,1,0,0:0:0:0:
236,120,43534,1,0,0:0:0:0:
208,132,43628,1,0,0:0:0:0:
184,148,43722,1,0,0:0:0:0:
164,172,43815,1,0,0:0:0:0:
148,196,43909,1,0,0:0:0:0:
140,224,44003,1,0,0:0:0:0:
144,252,44097,6,0,L|176:252,1,25
172,268,44190,2,0,L|200:256,1,25
208,260,44284,2,0,L|232:248,1,25
244,252,44378,2,0,L|268:236,1,25
276,228,44472,5,0,0:0:0:0:
296,204,44565,1,0,0:0:0:0:
304,176,44659,1,0,0:0:0:0:
304,144,44753,1,0,0:0:0:0:
292,116,44847,1,0,0:0:0:0:
268,96,44940,1,0,0:0:0:0:
240,84,45034,1,0,0:0:0:0:
212,80,45128,1,0,0:0:0:0:
180,80,45222,5,0,0:0:0:0:
152,92,45315,1,0,0:0:0:0:
128,108,45409,1,0,0:0:0:0:
108,132,45503,1,0,0:0:0:0:
100,160,45597,1,0,0:0:0:0:
92,188,45690,1,0,0:0:0:0:
92,220,45784,1,0,0:0:0:0:
96,248,45878,1,0,0:0:0:0:
108,276,45972,5,0,0:0:0:0:
132,292,46065,1,0,0:0:0:0:
160,304,46159,1,0,0:0:0:0:
188,308,46253,1,0,0:0:0:0:
220,308,46347,1,0,0:0:0:0:
248,300,46440,1,0,0:0:0:0:
272,280,46534,1,0,0:0:0:0:
284,252,46628,1,0,0:0:0:0:
292,224,46722,5,0,0:0:0:0:
288,196,46815,1,0,0:0:0:0:
272,172,46909,1,0,0:0:0:0:
244,156,47003,1,0,0:0:0:0:
256,192,47097,12,0,53097,0:0:0:0:
112,140,53472,5,0,0:0:0:0:
312,128,53659,1,0,0:0:0:0:
416,300,53847,5,0,0:0:0:0:
244,200,54034,1,0,0:0:0:0:
92,332,54222,5,0,0:0:0:0:
112,140,54409,1,0,0:0:0:0:
312,128,54597,5,0,0:0:0:0:
236,312,54784,1,0,0:0:0:0:
188,116,54972,5,0,0:0:0:0:
120,304,55159,1,0,0:0:0:0:
312,244,55347,5,0,0:0:0:0:
244,56,55534,1,0,0:0:0:0:
72,160,55722,5,0,0:0:0:0:
272,164,55909,1,0,0:0:0:0:
120,304,56097,6,0,L|168:208,1,100
360,268,56472,2,0,L|296:148,1,100
124,112,56847,5,0,0:0:0:0:
228,284,57034,1,0,0:0:0:0:
220,84,57222,5,0,0:0:0:0:
144,268,57409,1,0,0:0:0:0:
288,128,57597,5,0,0:0:0:0:
104,208,57784,1,0,0:0:0:0:
304,212,57972,5,0,0:0:0:0:
124,124,58159,1,0,0:0:0:0:
248,280,58347,5,0,0:0:0:0:
208,84,58534,1,0,0:0:0:0:
160,280,58722,5,0,0:0:0:0:
272,116,58909,1,0,0:0:0:0:
256,192,59097,12,4,65097,0:0:0:0:
