osu file format v14

[General]
AudioFilename: audio.mp3
AudioLeadIn: 0
PreviewTime: 246199
Countdown: 1
SampleSet: None
StackLeniency: 0.7
Mode: 3
LetterboxInBreaks: 0
SpecialStyle: 0
WidescreenStoryboard: 1

[Editor]
DistanceSpacing: 0.8
BeatDivisor: 4
GridSize: 8
TimelineZoom: 1.7

[Metadata]
Title:Soulless 5
TitleUnicode:Soulless 5
Artist:ExileLord
ArtistUnicode:ExileLord
Creator:rxmilia
Version:for blind people
Source:
Tags:
BeatmapID:1722566
BeatmapSetID:821884

[Difficulty]
HPDrainRate:0
CircleSize:4
OverallDifficulty:7
ApproachRate:5
SliderMultiplier:1.4
SliderTickRate:1

[Events]
//Background and Video events
0,0,"35df404a06029276a90cb6599c99ad5ce8148c5c_hq.jpg",0,0
//Break Periods
//Storyboard Layer 0 (Background)
//Storyboard Layer 1 (Fail)
//Storyboard Layer 2 (Pass)
//Storyboard Layer 3 (Foreground)
//Storyboard Sound Samples

[TimingPoints]
231430,230.769230769231,4,1,0,100,1,0

[HitObjects]
448,192,231430,5,0,0:0:0:0:
320,192,231660,1,0,0:0:0:0:
192,192,231891,1,0,0:0:0:0:
64,192,232122,1,0,0:0:0:0:
448,192,232353,1,0,0:0:0:0:
320,192,232583,1,0,0:0:0:0:
192,192,232814,1,0,0:0:0:0:
64,192,233045,1,0,0:0:0:0:
448,192,233276,1,0,0:0:0:0:
320,192,233506,1,0,0:0:0:0:
192,192,233737,1,0,0:0:0:0:
64,192,233968,1,0,0:0:0:0:
320,192,234199,1,0,0:0:0:0:
64,192,234430,1,0,0:0:0:0:
448,192,234660,1,0,0:0:0:0:
192,192,234891,1,0,0:0:0:0:
448,192,235122,1,0,0:0:0:0:
320,192,235353,1,0,0:0:0:0:
192,192,235583,1,0,0:0:0:0:
64,192,235814,1,0,0:0:0:0:
448,192,236045,1,0,0:0:0:0:
320,192,236276,1,0,0:0:0:0:
192,192,236506,1,0,0:0:0:0:
64,192,236737,1,0,0:0:0:0:
448,192,236968,1,0,0:0:0:0:
320,192,237199,1,0,0:0:0:0:
192,192,237430,1,0,0:0:0:0:
64,192,237660,1,0,0:0:0:0:
448,192,237891,1,0,0:0:0:0:
192,192,238122,1,0,0:0:0:0:
320,192,238353,1,0,0:0:0:0:
64,192,238583,1,0,0:0:0:0:
448,192,238814,1,0,0:0:0:0:
320,192,239045,1,0,0:0:0:0:
192,192,239276,1,0,0:0:0:0:
64,192,239506,1,0,0:0:0:0:
448,192,239737,1,0,0:0:0:0:
320,192,239968,1,0,0:0:0:0:
192,192,240199,1,0,0:0:0:0:
64,192,240430,1,0,0:0:0:0:
448,192,240660,1,0,0:0:0:0:
320,192,240891,1,0,0:0:0:0:
192,192,241122,1,0,0:0:0:0:
64,192,241353,1,0,0:0:0:0:
448,192,241583,1,0,0:0:0:0:
192,192,241814,1,0,0:0:0:0:
448,192,242045,1,0,0:0:0:0:
320,192,242276,1,0,0:0:0:0:
448,192,242506,1,0,0:0:0:0:
320,192,244353,1,0,0:0:0:0:
320,192,246199,1,0,0:0:0:0:
64,192,246199,1,0,0:0:0:0:
448,192,246199,1,0,0:0:0:0:
192,192,246256,1,0,0:0:0:0:
320,192,246372,1,0,0:0:0:0:
192,192,246430,1,0,0:0:0:0:
320,192,246487,1,0,0:0:0:0:
192,192,246603,1,0,0:0:0:0:
320,192,246660,1,0,0:0:0:0:
192,192,246718,1,0,0:0:0:0:
320,192,246833,1,0,0:0:0:0:
192,192,246891,1,0,0:0:0:0:
320,192,246949,1,0,0:0:0:0:
192,192,247064,1,0,0:0:0:0:
320,192,247122,1,0,0:0:0:0:
192,192,247180,1,0,0:0:0:0:
320,192,247295,1,0,0:0:0:0:
192,192,247353,1,0,0:0:0:0:
320,192,247410,1,0,0:0:0:0:
192,192,247526,1,0,0:0:0:0:
320,192,247583,1,0,0:0:0:0:
192,192,247641,1,0,0:0:0:0:
320,192,247756,1,0,0:0:0:0:
192,192,247814,1,0,0:0:0:0:
320,192,247872,1,0,0:0:0:0:
192,192,247987,1,0,0:0:0:0:
320,192,248045,1,0,0:0:0:0:
192,192,248103,1,0,0:0:0:0:
320,192,248218,1,0,0:0:0:0:
192,192,248276,1,0,0:0:0:0:
320,192,248333,1,0,0:0:0:0:
192,192,248449,1,0,0:0:0:0:
320,192,248506,1,0,0:0:0:0:
192,192,248564,1,0,0:0:0:0:
320,192,248680,1,0,0:0:0:0:
192,192,248737,1,0,0:0:0:0:
320,192,248795,1,0,0:0:0:0:
192,192,248910,1,0,0:0:0:0:
448,192,248968,1,0,0:0:0:0:
320,192,249026,1,0,0:0:0:0:
448,192,249141,1,0,0:0:0:0:
320,192,249199,1,0,0:0:0:0:
448,192,249256,1,0,0:0:0:0:
320,192,249372,1,0,0:0:0:0:
192,192,249430,1,0,0:0:0:0:
64,192,249487,1,0,0:0:0:0:
192,192,249603,1,0,0:0:0:0:
64,192,249660,1,0,0:0:0:0:
192,192,249718,1,0,0:0:0:0:
64,192,249833,1,0,0:0:0:0:
320,192,249891,1,0,0:0:0:0:
448,192,249891,1,0,0:0:0:0:
192,192,249949,1,0,0:0:0:0:
320,192,250064,1,0,0:0:0:0:
192,192,250122,1,0,0:0:0:0:
320,192,250180,1,0,0:0:0:0:
192,192,250295,1,0,0:0:0:0:
320,192,250353,1,0,0:0:0:0:
192,192,250410,1,0,0:0:0:0:
320,192,250526,1,0,0:0:0:0:
192,192,250583,1,0,0:0:0:0:
320,192,250641,1,0,0:0:0:0:
192,192,250756,1,0,0:0:0:0:
320,192,250814,1,0,0:0:0:0:
192,192,250872,1,0,0:0:0:0:
320,192,250987,1,0,0:0:0:0:
192,192,251045,1,0,0:0:0:0:
320,192,251103,1,0,0:0:0:0:
192,192,251218,1,0,0:0:0:0:
320,192,251276,1,0,0:0:0:0:
192,192,251333,1,0,0:0:0:0:
320,192,251449,1,0,0:0:0:0:
192,192,251506,1,0,0:0:0:0:
320,192,251564,1,0,0:0:0:0:
192,192,251680,1,0,0:0:0:0:
320,192,251737,1,0,0:0:0:0:
64,192,251737,1,0,0:0:0:0:
192,192,251795,1,0,0:0:0:0:
320,192,251910,1,0,0:0:0:0:
192,192,251968,1,0,0:0:0:0:
320,192,252026,1,0,0:0:0:0:
192,192,252141,1,0,0:0:0:0:
320,192,252199,1,0,0:0:0:0:
192,192,252256,1,0,0:0:0:0:
320,192,252372,1,0,0:0:0:0:
192,192,252430,1,0,0:0:0:0:
320,192,252487,1,0,0:0:0:0:
192,192,252603,1,0,0:0:0:0:
320,192,252660,1,0,0:0:0:0:
192,192,252718,1,0,0:0:0:0:
320,192,252833,1,0,0:0:0:0:
192,192,252891,1,0,0:0:0:0:
320,192,252949,1,0,0:0:0:0:
192,192,253064,1,0,0:0:0:0:
320,192,253122,1,0,0:0:0:0:
192,192,253180,1,0,0:0:0:0:
320,192,253295,1,0,0:0:0:0:
192,192,253353,1,0,0:0:0:0:
320,192,253410,1,0,0:0:0:0:
192,192,253526,1,0,0:0:0:0:
320,192,253583,1,0,0:0:0:0:
64,192,253583,1,0,0:0:0:0:
448,192,253583,1,0,0:0:0:0:
192,192,253641,1,0,0:0:0:0:
320,192,253756,1,0,0:0:0:0:
192,192,253814,1,0,0:0:0:0:
320,192,253872,1,0,0:0:0:0:
192,192,253987,1,0,0:0:0:0:
320,192,254045,1,0,0:0:0:0:
192,192,254103,1,0,0:0:0:0:
320,192,254218,1,0,0:0:0:0:
192,192,254276,1,0,0:0:0:0:
320,192,254333,1,0,0:0:0:0:
192,192,254449,1,0,0:0:0:0:
320,192,254506,1,0,0:0:0:0:
192,192,254564,1,0,0:0:0:0:
320,192,254680,1,0,0:0:0:0:
192,192,254737,1,0,0:0:0:0:
320,192,254795,1,0,0:0:0:0:
192,192,254910,1,0,0:0:0:0:
320,192,254968,1,0,0:0:0:0:
192,192,255026,1,0,0:0:0:0:
320,192,255141,1,0,0:0:0:0:
192,192,255199,1,0,0:0:0:0:
320,192,255256,1,0,0:0:0:0:
192,192,255372,1,0,0:0:0:0:
320,192,255430,1,0,0:0:0:0:
192,192,255487,1,0,0:0:0:0:
320,192,255603,1,0,0:0:0:0:
192,192,255660,1,0,0:0:0:0:
320,192,255718,1,0,0:0:0:0:
192,192,255833,1,0,0:0:0:0:
320,192,255891,1,0,0:0:0:0:
192,192,255949,1,0,0:0:0:0:
320,192,256064,1,0,0:0:0:0:
192,192,256122,1,0,0:0:0:0:
320,192,256180,1,0,0:0:0:0:
192,192,256295,1,0,0:0:0:0:
448,192,256353,1,0,0:0:0:0:
320,192,256410,1,0,0:0:0:0:
448,192,256526,1,0,0:0:0:0:
320,192,256583,1,0,0:0:0:0:
448,192,256641,1,0,0:0:0:0:
320,192,256756,1,0,0:0:0:0:
192,192,256814,1,0,0:0:0:0:
64,192,256872,1,0,0:0:0:0:
192,192,256987,1,0,0:0:0:0:
64,192,257045,1,0,0:0:0:0:
192,192,257103,1,0,0:0:0:0:
64,192,257218,1,0,0:0:0:0:
448,192,257276,1,0,0:0:0:0:
320,192,257276,1,0,0:0:0:0:
192,192,257333,1,0,0:0:0:0:
320,192,257449,1,0,0:0:0:0:
192,192,257506,1,0,0:0:0:0:
320,192,257564,1,0,0:0:0:0:
192,192,257680,1,0,0:0:0:0:
320,192,257737,1,0,0:0:0:0:
192,192,257795,1,0,0:0:0:0:
320,192,257910,1,0,0:0:0:0:
192,192,257968,1,0,0:0:0:0:
320,192,258026,1,0,0:0:0:0:
192,192,258141,1,0,0:0:0:0:
320,192,258199,1,0,0:0:0:0:
192,192,258256,1,0,0:0:0:0:
320,192,258372,1,0,0:0:0:0:
192,192,258430,1,0,0:0:0:0:
320,192,258487,1,0,0:0:0:0:
192,192,258603,1,0,0:0:0:0:
320,192,258660,1,0,0:0:0:0:
192,192,258718,1,0,0:0:0:0:
320,192,258833,1,0,0:0:0:0:
192,192,258891,1,0,0:0:0:0:
320,192,258949,1,0,0:0:0:0:
192,192,259064,1,0,0:0:0:0:
64,192,259122,1,0,0:0:0:0:
320,192,259122,1,0,0:0:0:0:
192,192,259180,1,0,0:0:0:0:
320,192,259295,1,0,0:0:0:0:
192,192,259353,1,0,0:0:0:0:
320,192,259410,1,0,0:0:0:0:
192,192,259526,1,0,0:0:0:0:
320,192,259583,1,0,0:0:0:0:
192,192,259641,1,0,0:0:0:0:
320,192,259756,1,0,0:0:0:0:
192,192,259814,1,0,0:0:0:0:
320,192,259872,1,0,0:0:0:0:
192,192,259987,1,0,0:0:0:0:
320,192,260045,1,0,0:0:0:0:
192,192,260103,1,0,0:0:0:0:
320,192,260218,1,0,0:0:0:0:
192,192,260276,1,0,0:0:0:0:
320,192,260333,1,0,0:0:0:0:
192,192,260449,1,0,0:0:0:0:
320,192,260506,1,0,0:0:0:0:
192,192,260564,1,0,0:0:0:0:
320,192,260680,1,0,0:0:0:0:
192,192,260737,1,0,0:0:0:0:
320,192,260795,1,0,0:0:0:0:
192,192,260910,1,0,0:0:0:0:
